Ошибка

Король и Шут - Прощание. Концерт в Москве. Stadium Live [2013, Punk Rock, WEBRip]

Ответить на тему
 
Автор Сообщение

DarK_Knight96

Пол: Пол:Муж

Стаж: 5 месяцев

Сообщений: 375

Россия
Рейтинг

post 02-Май-2024 23:54 0[+]

[Цитировать] 

Король и Шут - Прощание. Концерт в Москве. Stadium Live

ИНФОРМАЦИЯ:
Год выпуска: 2013
Жанр: Punk Rock
В ролях: Король и Шут, Александр Щиголев, Яков Цвиркунов, Сергей Захаров, Павел Сажинов, Александр Леонтьев, Алексей Горшенев, Дарья Ставрович, Илья Черт, Александр Иванов, Дмитрий Спирин, Андрей Князев, Антон Павлов
Страна: Россия, Сайт «Planeta.ru»
Озвучивание: Оригинальный
Продолжительность: 02:17:08
ОПИСАНИЕ:
Запись концерта с интернет трансляции Planeta. В нашем мире особенно быстро сгорают те, кто не жалея себя тратит каждую секунду, доставляя радость окружающим и делая жизнь ярче. Мы не вправе жалеть об их уходе. Мы только можем быть бесконечно благодарны за их великий дар. Группа «Король и Шут» отправляется в прощальный гастрольный тур, посвященный памяти Михаила Горшенёва. Яков Цвиркунов, Павел Сажинов, Александр «Поручик» Щиголев и Александр «Ренегат» Леонтьев снова выйдут на сцену, чтобы вместе с десятками тысяч поклонников легендарного коллектива спеть песни, которые пел для них их лидер. Основным вокалистом «Короля и Шута» в туре «Прощание» станет Александр «Ренегат» Леонтьев, а группа и зал будут ему помогать. Поклонники коллектива уже давно доказали, что знают все песни команды наизусть и эти концерты станут для них возможностью проститься с той непередаваемой атмосферой, которая более двух десятков лет царила на любой площадке страны, как только на сцене появлялась группа «Король и Шут». Участники группы уверены – настоящий рок-угар без скорбных лиц и пафосных речей Михаилу Горшенёву пришелся бы по душе. Он всю жизнь был настоящим панком – насмешливым, свободным, непокорным, вечно ищущим и ни на минуту не останавливающимся на достигнутом. «Северный флот! Только вперед!» - так пел на своих концертах Михаил Горшенёв и после его ухода эти строки стали девизом для участников «Короля и Шута». После завершения прощального тура музыканты будут работать под именем «Северный Флот». Яков, Павел, Поручик и Ренегат благодарны всем, кто прочел вместе с ними эту длинную и очень интересную книгу под названием «Король и Шут». Настало время завершить последнюю главу и со светлой грустью навсегда сохранить в своем сердце кусочек того волшебного мира, который подарил нам Михаил Горшенёв. Время слез прошло. Настало время памяти. В прощальных концертах также примут участие: Князь и Casper (КняZz), Алексей Горшенёв (Кукрыниксы), Илья Чёрт (ПилОт), Дмитрий Спирин (Тараканы!), Чача (НАИВ), Лу (Louna), Нуки (СЛОТ), Пух (F.P.G.) и другие.
Формат: MP4
Качество: WEBRip
Видео: MPEG4 Video (H264) 852x480 25fps 870kbps
Аудио: AAC 44100Hz stereo 131kbps

General
Complete name : E:\Король и Шут - Прощание.Концерт в Москве.Stadium Live.mp4
Format : MPEG-4
Format profile : Base Media
Codec ID : isom (isom/iso2/avc1/mp41)
File size : 988 MiB
Duration : 2 h 17 min
Overall bit rate mode : Variable
Overall bit rate : 1 007 kb/s
Writing application : Lavf58.29.100

Video
ID : 1
Format : AVC
Format/Info : Advanced Video Codec
Format profile : High@L3
Format settings, CABAC : Yes
Format settings, RefFrames : 4 frames
Format settings, GOP : M=1, N=76
Codec ID : avc1
Codec ID/Info : Advanced Video Coding
Duration : 2 h 17 min
Duration_FirstFrame : 46 ms
Bit rate : 871 kb/s
Width : 852 pixels
Height : 480 pixels
Display aspect ratio : 16:9
Frame rate mode : Constant
Frame rate : 25.000 FPS
Color space : YUV
Chroma subsampling : 4:2:0
Bit depth : 8 bits
Scan type : Progressive
Bits/(Pixel*Frame) : 0.085
Stream size : 854 MiB (86%)

Audio
ID : 2
Format : AAC
Format/Info : Advanced Audio Codec
Format profile : LC
Codec ID : 40
Duration : 2 h 17 min
Bit rate mode : Variable
Bit rate : 132 kb/s
Maximum bit rate : 147 kb/s
Channel(s) : 2 channels
Channel positions : Front: L R
Sampling rate : 44.1 kHz
Frame rate : 43.066 FPS (1024 SPF)
Compression mode : Lossy
Stream size : 129 MiB (13%)
Default : Yes
Alternate group : 1
info [Профиль]  [ЛС] 
Показать сообщения:    
Ответить на тему

Текущее время: 22-Май 17:40

Часовой пояс: GMT + 4



Вы не можете начинать темы
Вы не можете отвечать на сообщения
Вы не можете редактировать свои сообщения
Вы не можете удалять свои сообщения
Вы не можете голосовать в опросах
Вы не можете прикреплять файлы к сообщениям
Вы не можете скачивать файлы