Ошибка

(Pop, Pop-Rock) Игорь Тальков - Лучшие песни - 2017, FLAC (tracks), lossless

Ответить на тему
 
Автор Сообщение

DarK_Knight96

Пол: Пол:Муж

Стаж: 5 месяцев

Сообщений: 375

Россия
Рейтинг

post 30-Апр-2024 12:25 2[+]

[Цитировать] 



Игорь Тальков - Лучшие песни
pic="https://i123.fastpic.org/big/2024/0429/98/ccda58bc9cac306508d6da099b820c98.jpg"
Жанр: Pop, Pop-Rock

Год издания данного носителя: 2017

Страна-производитель носителя: Россия

Аудио кодек: FLAC

Тип рипа: Tracks

Битрейт аудио: lossless

Продолжительность: 03:32:59

Носитель: WEB

01. Я вернусь (6:22)
02. Бывший подъесаул (5:58)
03. Родина моя (6:52)
04. Россия (7:14)
05. Война (3:50)
06. Кремлёвская стена (2:37)
07. Люди с забинтованными лбами (6:17)
08. КПСС (3:43)
09. Бал сатаны (4:52)
10. Стоп! Думаю себе (3:15)
11. Господин президент (3:43)
12. Примерный мальчик (3:18)
13. Метаморфоза-1 (3:40)
14. Совки (3:15)
15. Солнце уходит на запад (7:12)
16. Дядин колпак (5:05)
17. Господа-демократы (3:48)
18. Метаморфоза-2 (3:41)
19. Глобус (6:53)
20. Уеду! (4:11)
21. Друзья-товарищи (3:02)
22. Памяти Виктора Цоя (5:01)
01. Летний дождь (8:37)
02. Чистые пруды (5:41)
03. Звезда (6:06)
04. Саквояж (3:56)
05. В океане непонимания (4:34)
06. Ты опоздала (5:08)
07. Самый лучший день (4:40)
08. Этот мир (4:27)
09. Моя любовь (6:22)
10. Love you (5:57)
11. Таня (4:49)
12. Ностальгия (5:20)
13. Маленький город (5:00)
14. Праздник (5:08)
15. Память (5:45)
16. Замкнутый круг (6:10)
17. Фатальная колесница (6:20)
18. Маленькая планета (4:48)
19. Спасательный круг (4:38)
20. У твоего окна (5:40)

Код:

-----------------------

DON'T MODIFY THIS FILE

-----------------------

PERFORMER: auCDtect Task Manager, ver. 1.6.0 RC1 build 1.6.0.1
Copyright (c) 2008-2010 y-soft. All rights reserved
http://y-soft.org

ANALYZER: auCDtect: CD records authenticity detector, version 0.8.2
Copyright (c) 2004 Oleg Berngardt. All rights reserved.
Copyright (c) 2004 Alexander Djourik. All rights reserved.

FILE: 01. Я вернусь.flac
Size: 42186474 Hash: 71B477F58522E03E1864052A4E850FC2 Accuracy: -m8
Conclusion: CDDA 100%
Signature: D263F2DC56DB33AF7D2208B011F22F009C90AD7C
FILE: 02. Бывший подъесаул.flac
Size: 41767114 Hash: 0F1B2BBC249EA75C6C522C4F142260AF Accuracy: -m8
Conclusion: CDDA 100%
Signature: 51F58D39960CB1ED6E026C9439F31486D5D7482D
FILE: 03. Родина моя.flac
Size: 51603404 Hash: 09C33C1A204EB9D13D3F4BA2938032E5 Accuracy: -m8
Conclusion: CDDA 100%
Signature: CFB7F4AB35476608489671954FEC677BA644C220
FILE: 04. Россия.flac
Size: 44991021 Hash: E2D19E1D0354077D6AEFFF8C23F91A3A Accuracy: -m8
Conclusion: CDDA 100%
Signature: 171A1EADB47B579BC92AFAF1335934A23F804A69
FILE: 05. Война.flac
Size: 25764573 Hash: 3FA1BED2302CEE254C9A4F88F3B85361 Accuracy: -m8
Conclusion: CDDA 100%
Signature: 421E56002F40338873EEFE911C14878023E0EE0F
FILE: 06. Кремлёвская стена.flac
Size: 16070271 Hash: A2BEAA55F3F7A39E2DD52E6D606976ED Accuracy: -m8
Conclusion: CDDA 100%
Signature: AD8A699181FDDB4A1F2A70F5E5B2E10627007B35
FILE: 07. Люди с забинтованными лбами.flac
Size: 43009328 Hash: EC0B0D0581CCD102E714F68ECA869B10 Accuracy: -m8
Conclusion: CDDA 100%
Signature: 5B20723807ED14FE532AF581655198201A052EC9
FILE: 08. КПСС.flac
Size: 26111083 Hash: 98C2818297C2BAC8DF91DD0B3BA3EAEB Accuracy: -m8
Conclusion: CDDA 100%
Signature: 692FC8638DC7C9B53D563B568DAF5367BBFD9D4E
FILE: 09. Бал сатаны.flac
Size: 34213216 Hash: 5B82657A57B38AB5266D89BEC8756C25 Accuracy: -m8
Conclusion: CDDA 100%
Signature: 7C5A7380A4C91B2505D561BF72AB05E108AA3DEC
FILE: 10. Стоп! Думаю себе.flac
Size: 23604810 Hash: 159029F82D791C0C9911BEED691F3E46 Accuracy: -m8
Conclusion: CDDA 100%
Signature: B8816B2BF8272BBE94115F55BE3BE929BFF4D94B
FILE: 11. Господин президент.flac
Size: 25656992 Hash: 44287C6D0F70AD19C4DFB944BE9F487D Accuracy: -m8
Conclusion: CDDA 100%
Signature: 1D6735EC0A27D5B392066237F466C88AC226E303
FILE: 12. Примерный мальчик.flac
Size: 24236228 Hash: 5DDB20C724D82572ED5F8A5A92DE27DC Accuracy: -m8
Conclusion: CDDA 100%
Signature: B6181B41B689E956ED5855371AB9361674C557EC
FILE: 13. Метаморфоза-1.flac
Size: 26594195 Hash: E6A9A1A8B38C34EBACAA1E496E35FB4A Accuracy: -m8
Conclusion: CDDA 100%
Signature: 63A87B1FFF2DC010A56A53F5AE0C58F746325B77
FILE: 14. Совки.flac
Size: 24516109 Hash: 9B7802F8CE3B265A8DB93FB9D76C349E Accuracy: -m8
Conclusion: CDDA 100%
Signature: BF2E393274A57C8B73F3D70002D7FF23752DA471
FILE: 15. Солнце уходит на запад.flac
Size: 49613059 Hash: 2BF40F604BFD97285DF30616EF7FB90C Accuracy: -m8
Conclusion: CDDA 100%
Signature: 7ADCAA57CB70F4A80F385BFADF1273EB4CFC42E8
FILE: 16. Дядин колпак.flac
Size: 37549888 Hash: DB9FC63C06D27448DF204B4DD24E53B5 Accuracy: -m8
Conclusion: CDDA 100%
Signature: 5BD6E4DCA2797BBEB7D87D88D31090E88AB7AA5E
FILE: 17. Господа-демократы.flac
Size: 27433618 Hash: EAD49C07FA865868A74B96C9D760D73A Accuracy: -m8
Conclusion: CDDA 100%
Signature: E9AC034D3751EAB9C159FA5E2CCBB0C687314917
FILE: 18. Метаморфоза-2.flac
Size: 27197820 Hash: DB9A8AE64F8A8DB2EDA0D2D9621B8CB6 Accuracy: -m8
Conclusion: CDDA 100%
Signature: BC21F04006D9D7632488143F2EAC2B5D91948153
FILE: 19. Глобус.flac
Size: 48302818 Hash: 54133DEEE404915ECC54A778B01ECD90 Accuracy: -m8
Conclusion: CDDA 100%
Signature: 0B03AAD34504E2EFA8521647291576BD9706B15D
FILE: 20. Уеду!.flac
Size: 29499831 Hash: D9FFD45ACA34CF27C6AA915F170F39F5 Accuracy: -m8
Conclusion: CDDA 100%
Signature: D31B6183DF27926CCC7F2F67619CF4DA6B810379
FILE: 21. Друзья-товарищи.flac
Size: 22193194 Hash: 309D64C2B62AF45F3A121D98CF953892 Accuracy: -m8
Conclusion: CDDA 100%
Signature: E6333057D15D070DDB7E24AC2118A3BF5B602CAB
FILE: 22. Памяти Виктора Цоя.flac
Size: 32145816 Hash: AADBBE336C8E96F88F0AF563517CB5D3 Accuracy: -m8
Conclusion: CDDA 100%
Signature: B459F60163075F71D5A517EF1C57FD74E5DD4D6E

foobar2000 1.5.5 / Замер динамического диапазона (DR) 1.1.1

--------------------------------------------------------------------------------
Анализ: Игорь Тальков / Лучшие песни. Часть 1
--------------------------------------------------------------------------------

DR Пики RMS Продолжительность трека
--------------------------------------------------------------------------------
DR10 -0.10 дБ -12.54 дБ 6:22 01-Я вернусь
DR9 0.00 дБ -10.93 дБ 5:58 02-Бывший подъесаул
DR9 -0.20 дБ -10.28 дБ 6:52 03-Родина моя
DR8 -0.20 дБ -10.59 дБ 7:14 04-Россия
DR9 -0.20 дБ -10.53 дБ 3:50 05-Война
DR8 -0.20 дБ -11.05 дБ 2:37 06-Кремлёвская стена
DR7 -0.20 дБ -9.69 дБ 6:17 07-Люди с забинтованными лбами
DR10 -0.20 дБ -11.82 дБ 3:43 08-КПСС
DR8 0.00 дБ -11.06 дБ 4:52 09-Бал сатаны
DR8 -0.20 дБ -9.15 дБ 3:15 10-Стоп! Думаю себе
DR9 -0.48 дБ -11.05 дБ 3:43 11-Господин президент
DR9 -0.20 дБ -9.82 дБ 3:18 12-Примерный мальчик
DR8 -0.20 дБ -9.64 дБ 3:40 13-Метаморфоза-1
DR8 -0.20 дБ -9.40 дБ 3:15 14-Совки
DR11 -0.30 дБ -12.51 дБ 7:12 15-Солнце уходит на запад
DR9 -0.20 дБ -10.02 дБ 5:05 16-Дядин колпак
DR10 -0.20 дБ -11.37 дБ 3:48 17-Господа-демократы
DR9 -0.20 дБ -9.94 дБ 3:41 18-Метаморфоза-2
DR9 -0.20 дБ -10.59 дБ 6:53 19-Глобус
DR9 -0.20 дБ -10.89 дБ 4:11 20-Уеду!
DR11 -0.10 дБ -13.67 дБ 3:20 21-Друзья - товарищи
DR11 -0.20 дБ -12.95 дБ 5:01 22-Памяти Виктора Цоя
--------------------------------------------------------------------------------

Количество треков: 22
Реальные значения DR: DR9

Частота: 44100 Гц
Каналов: 2
Разрядность: 16
Битрейт: 852 кбит/с
Кодек: FLAC
================================================================================

Код:

-----------------------

DON'T MODIFY THIS FILE

-----------------------

PERFORMER: auCDtect Task Manager, ver. 1.6.0 RC1 build 1.6.0.1
Copyright (c) 2008-2010 y-soft. All rights reserved
http://y-soft.org

ANALYZER: auCDtect: CD records authenticity detector, version 0.8.2
Copyright (c) 2004 Oleg Berngardt. All rights reserved.
Copyright (c) 2004 Alexander Djourik. All rights reserved.

FILE: 01. Летний дождь.flac
Size: 56308086 Hash: 84866FA795C2A0F68EEC8FDA964F0B78 Accuracy: -m8
Conclusion: CDDA 100%
Signature: DEC0F36A63A733D43D2095EE839A37FE0ED40F76
FILE: 02. Чистые пруды.flac
Size: 34763595 Hash: 6604272A6A7879C6297544425EF782A1 Accuracy: -m8
Conclusion: CDDA 100%
Signature: AAC7F91C9DC94CC788CBBA6EF2F833E7730888DB
FILE: 03. Звезда.flac
Size: 43226931 Hash: 10D8975E1550C810EF9FDA16362B93A7 Accuracy: -m8
Conclusion: CDDA 99%
Signature: 008646F0A94E107EB171D09355C9E22C8073751E
FILE: 04. Саквояж.flac
Size: 28100516 Hash: B9B4E3AF6B7102033BBB6D088F7BBF43 Accuracy: -m8
Conclusion: CDDA 100%
Signature: 0E8FAD66F0CAC4D562E7A6D536F51782F5DA905E
FILE: 05. В океане непонимания.flac
Size: 32916579 Hash: 4D79A02BD099745E7CDC885EF05F5354 Accuracy: -m8
Conclusion: CDDA 99%
Signature: 808FBECC881351813AB524699C928F84B8CCA652
FILE: 06. Ты опоздала.flac
Size: 33169167 Hash: 251925A6C961B39D82C0F4BE8AC8A673 Accuracy: -m8
Conclusion: CDDA 100%
Signature: 31B44C3BC17CCEDB74EE9670E66FD083E59C875F
FILE: 07. Самый лучший день.flac
Size: 32667462 Hash: 65E946A025A8E921F4D68D08A7846A62 Accuracy: -m8
Conclusion: CDDA 99%
Signature: 286E4C16440313D41CF58CAB38737BF99AA2DD3D
FILE: 08. Этот мир.flac
Size: 30341136 Hash: AE55CDAA2EEA69A568BBE0AD07DC889F Accuracy: -m8
Conclusion: CDDA 100%
Signature: 852D1EB6BD4E66EEC6B1EA9396614208ACA5A9DF
FILE: 09. Моя любовь.flac
Size: 42938437 Hash: 94106E775DB6A0CA8D43690DB28D90B8 Accuracy: -m8
Conclusion: CDDA 100%
Signature: 2BDACE3D7A9157A222DD049D2C6194C760CCAAA1
FILE: 10. Love you.flac
Size: 44074331 Hash: C9BD3433E0C17F04368F96E5EC3B058E Accuracy: -m8
Conclusion: CDDA 100%
Signature: 5DC21232A1A80CDDC209083B19CE75F2156586F4
FILE: 11. Таня.flac
Size: 35480881 Hash: 16A344DBC287886B014CE85E13B44BEC Accuracy: -m8
Conclusion: CDDA 100%
Signature: DA9CA575F72FA759D714B77AEE48C513FD5276CA
FILE: 12. Ностальгия.flac
Size: 37440241 Hash: A3EB5F5EAF2330E0E7179DDFC980E667 Accuracy: -m8
Conclusion: CDDA 100%
Signature: 18D6F02F64B6E0C82DBD60C025A065194E7680EA
FILE: 13. Маленький город.flac
Size: 31791459 Hash: F1A46DF381FC5436D5645AC05112F9D1 Accuracy: -m8
Conclusion: CDDA 100%
Signature: AEB12DF72A3EE09A9594ACBF35670104140839F5
FILE: 14. Праздник.flac
Size: 32368568 Hash: AB1EA5A4FA6124F35194DA3EF9AC25AF Accuracy: -m8
Conclusion: CDDA 100%
Signature: 939AB3F47C6EA6FB57FED60DCDB0542DE0F975D0
FILE: 15. Память.flac
Size: 36812031 Hash: 37FD1C89D37253752274B11F91422E7E Accuracy: -m8
Conclusion: CDDA 100%
Signature: 931FAD1F8E87E2C2A2D2D019D6BB8939E034A14D
FILE: 16. Замкнутый круг.flac
Size: 41043459 Hash: 050B9FCE28682C17895F8F616BABBA4C Accuracy: -m8
Conclusion: CDDA 100%
Signature: 72ABA968D05B8B96D8CD94094C93DC2648DEA448
FILE: 17. Фатальная колесница.flac
Size: 44132932 Hash: 6D9CAD717CD72C4B2C2268668E162FC5 Accuracy: -m8
Conclusion: CDDA 100%
Signature: 24D2DB1AE696C6FA5E15C07173857BEF059ECD56
FILE: 18. Маленькая планета.flac
Size: 33230926 Hash: CF47904D1AC55B21DFAC9E4C9D6F638B Accuracy: -m8
Conclusion: CDDA 99%
Signature: 053D47CC54B761C763DADA17E93DE9F2507EFFEE
FILE: 19. Спасательный круг.flac
Size: 33654590 Hash: 4248CC8BF5F38A8047E1C56BF02EFEE1 Accuracy: -m8
Conclusion: CDDA 100%
Signature: EFF724134D0CFBFF4A421312BCFF28216B2FF243
FILE: 20. У твоего окна.flac
Size: 35491829 Hash: 3A14B53F462924406145D6F327EF79AA Accuracy: -m8
Conclusion: CDDA 99%
Signature: 2041730C55F93F823E6F3F2FC477C046892F0011

foobar2000 1.5.5 / Замер динамического диапазона (DR) 1.1.1

--------------------------------------------------------------------------------
Анализ: Игорь Тальков / Лучшие песни. Часть 2
--------------------------------------------------------------------------------

DR Пики RMS Продолжительность трека
--------------------------------------------------------------------------------
DR11 -0.20 дБ -13.07 дБ 8:37 01-Летний дождь
DR11 -1.54 дБ -16.92 дБ 5:58 02-Чистые пруды
DR10 -0.47 дБ -11.98 дБ 6:06 03-Звезда
DR9 -0.20 дБ -10.93 дБ 3:56 04-Саквояж
DR11 -0.20 дБ -11.96 дБ 4:34 05-В океане непонимания
DR10 -0.37 дБ -11.97 дБ 5:08 06-Ты опоздала
DR11 0.00 дБ -12.97 дБ 4:40 07-Самый лучший день
DR12 -0.20 дБ -13.45 дБ 4:27 08-Этот мир
DR9 -0.20 дБ -12.58 дБ 6:22 09-Моя любовь
DR13 0.00 дБ -14.17 дБ 5:57 10-Love you
DR11 -0.30 дБ -12.22 дБ 4:49 11-Таня
DR12 -0.10 дБ -15.06 дБ 5:27 12-Ностальгия
DR10 0.00 дБ -12.41 дБ 5:00 13-Маленький город
DR12 -0.27 дБ -15.02 дБ 5:08 14-Праздник
DR10 -0.65 дБ -13.45 дБ 5:45 15-Память
DR10 -0.40 дБ -13.29 дБ 6:10 16-Замкнутый круг
DR10 -0.20 дБ -11.91 дБ 6:20 17-Фатальная колесница
DR10 -0.20 дБ -12.07 дБ 4:48 18-Маленькая планета
DR10 -0.27 дБ -11.89 дБ 4:38 19-Спасательный круг
DR12 -0.20 дБ -14.02 дБ 5:40 20-У твоего окна
--------------------------------------------------------------------------------

Количество треков: 20
Реальные значения DR: DR11

Частота: 44100 Гц
Каналов: 2
Разрядность: 16
Битрейт: 831 кбит/с
Кодек: FLAC
================================================================================
info [Профиль]  [ЛС] 
Показать сообщения:    
Ответить на тему

Текущее время: 22-Май 18:24

Часовой пояс: GMT + 4



Вы не можете начинать темы
Вы не можете отвечать на сообщения
Вы не можете редактировать свои сообщения
Вы не можете удалять свои сообщения
Вы не можете голосовать в опросах
Вы не можете прикреплять файлы к сообщениям
Вы не можете скачивать файлы