Ошибка

Tarja Turunen - Act 1 [2012, Symphonic Metal, AI UPSCALE 2160p] [4K|SDR|60FPS|HEVC]

Ответить на тему
 
Автор Сообщение

chplexx

Пол: Пол:Муж

Стаж: 2 месяца 25 дней

Сообщений: 23

Россия
Рейтинг

post 13-Янв-2024 03:58 1[+]

[Цитировать] 

Tarja Turunen - Act 1


Страна: Finland

Год выпуска: 2012

Жанр: Symphonic Metal

Продолжительность: 2:46:11

Описание: Act 1 — первый концертный альбом финской певицы, бывшей вокалистки Nightwish, Тарьи Турунен. Два концерта были записаны десятью HD камерами в El C írculo Theatre (англ.) в Росарио, Аргентина, в марте 2012. Тарья исполнила разные песни с трёх своих альбомов, одну из самых известных песен Nightwish — «Nemo» и каверы песен Эндрю Ллойда Уэббера, Гэри Мура и Whitesnake.
01. If You Believe
02. Anteroom Of Death
03. My Little Phoenix
04. Dark Star
05. Naiad
06. Falling Awake
07. I Walk Alone
08. Orpheus Hallucination / Orpheus In The Underworld
09. Little Lies (band jam)
10. Little Lies
11. Into The Sun
12. Nemo
13. Acoustic Set:
Rivers Of Lust
Minor Heaven
Montañas De Silencio
Sing For Me
I Feel Immortal
14. Never Enough
15. In For A Kill
16. Toccata And Fugue D-minor (BWV 565) / The Phantom Of The Opera
17. Die Alive
18. Until My Last Breath
19. Over The Hills And Far Away
20. Boy And The Ghost
21. Lost Northern Star
22. Ciaran‘s Well
23. Tired Of Being Alone
24. Where Were You Last Night / Heaven Is A Place On Earth / Livin’ On A Prayer
25. Underneath
26. The Reign
27. Oasis / The Archive Of Lost Dreams
28. Still Of The Night
29. Crimson Deep
Доп. информация: Апскейл, созданный программой Topaz Video AI.

Видео кодек: https://i.postimg.cc/L5rSrBsc/89.png
Формат видео: MKV
Видео: HEVC Video, Main 10, 3840x2160, 77.4 Mbps, 16:9, 60 fps
Аудио кодек: DTS, AC3
Аудио:
Аудио №1: Dolby Digital 2.0 / 48 kHz / 192 kbps
Аудио №2: Dolby Digital 5.1 / 48 kHz / 448 kbps
Аудио №3: DTS 5.1 / 48 kHz / 1509 kbps / 16-bit
Общее
Уникальный идентификатор : 315278750184928042806806409017786303482 (0xED307A844909C409E5E04FD413EB03FA)
Полное имя : C:\Film\Tarja - Act I_HDGEEK.2160p.HEVC.60fps.AiUpscale.sdr.chplexx (1).mkv
Формат : Matroska
Версия формата : Version 4
Размер файла : 92,3 Гбайт
Продолжительность : 2 ч. 46 м.
Общий поток : 79,5 Мбит/сек
Частота кадров : 59,017 кадров/сек
Название фильма : Tarja - Act I_HDGEEK.2160p.HEVC.60fps.AiUpscale.sdr.chplexx
Дата кодирования : 2024-01-12 22:45:49 UTC
Программа кодирования : mkvmerge v82.0 ('I'm The President') 64-bit
Библиотека кодирования : libebml v1.4.5 + libmatroska v1.7.1 / Lavf58.76.100

Видео
Идентификатор : 1
Формат : HEVC
Формат/Информация : High Efficiency Video Coding
Профиль формата : Main 10@L5.2@High
Идентификатор кодека : V_MPEGH/ISO/HEVC
Продолжительность : 2 ч. 46 м.
Битрейт : 77,4 Мбит/сек
Ширина : 3 840 пикселей
Высота : 2 160 пикселей
Соотношение сторон : 16:9
Режим частоты кадров : Переменный
Частота кадров : 59,017 кадров/сек
Частота кадров в оригинале : 60,000 кадров/сек
Цветовое пространство : YUV
Субдискретизация насыщенности : 4:2:0
Битовая глубина : 10 бит
Бит/(Пиксели*Кадры) : 0.158
Временной код первого кадра : 00:00:00:38
Размер потока : 89,9 Гбайт (97%)
Default : Да
Forced : Нет
Цветовой диапазон : Limited
Основные цвета : BT.709
Характеристики трансфера : BT.709
Коэффициенты матрицы : BT.709

Аудио #1
Идентификатор : 2
Формат : AC-3
Формат/Информация : Audio Coding 3
Коммерческое название : Dolby Digital
Идентификатор кодека : A_AC3
Продолжительность : 2 ч. 46 м.
Вид битрейта : Постоянный
Битрейт : 192 Кбит/сек
Каналы : 2 канала
Channel layout : L R
Частота : 48,0 КГц
Частота кадров : 31,250 кадров/сек (1536 SPF)
Метод сжатия : С потерями
Задержка видео : 1 мс.
Размер потока : 228 Мбайт (0%)
Язык : English
Service kind : Complete Main
Default : Да
Forced : Нет

Аудио #2
Идентификатор : 3
Формат : AC-3
Формат/Информация : Audio Coding 3
Коммерческое название : Dolby Digital
Идентификатор кодека : A_AC3
Продолжительность : 2 ч. 41 м.
Вид битрейта : Постоянный
Битрейт : 448 Кбит/сек
Каналы : 6 каналов
Channel layout : L R C LFE Ls Rs
Частота : 48,0 КГц
Частота кадров : 31,250 кадров/сек (1536 SPF)
Метод сжатия : С потерями
Задержка видео : 1 мс.
Размер потока : 517 Мбайт (0%)
Язык : English
Service kind : Complete Main
Default : Нет
Forced : Нет

Аудио #3
Идентификатор : 4
Формат : DTS
Формат/Информация : Digital Theater Systems
Идентификатор кодека : A_DTS
Продолжительность : 2 ч. 41 м.
Вид битрейта : Постоянный
Битрейт : 1 509 Кбит/сек
Каналы : 6 каналов
Channel layout : C L R Ls Rs LFE
Частота : 48,0 КГц
Частота кадров : 93,750 кадра/сек (512 SPF)
Битовая глубина : 16 бит
Метод сжатия : С потерями
Задержка видео : 1 мс.
Размер потока : 1,70 Гбайт (2%)
Язык : English
Default : Нет
Forced : Нет
Tarja Turunen - Act 1 [2012, Symphonic Metal, Blu-ray]
https://images4.imagebam.com/ea/4d/71/MERCMY9_o.png https://images4.imagebam.com/7a/50/67/MERCMYC_o.png https://images4.imagebam.com/c6/50/63/MERCMYU_o.png https://images4.imagebam.com/a4/3c/58/MERCMZ6_o.png оригинал

https://images4.imagebam.com/c6/0b/85/MERCMZF_o.png https://images4.imagebam.com/0e/9e/23/MERCMZH_o.png https://images4.imagebam.com/fe/06/cc/MERCMZJ_o.png https://images4.imagebam.com/9c/29/a9/MERCMZK_o.png Topaz Video AI
info [Профиль]  [ЛС] 

post 13-Янв-2024 10:31 (спустя 6 часов) [-]0[+]

Топик был перенесен из форума Анонсы в форум Зарубежный Rock (video)

Demon3x
 

leSang

Пол: Пол:Муж

Стаж: 14 лет

Сообщений: 2179

Япония
Рейтинг

post 15-Янв-2024 18:43 (спустя 2 дня 14 часов) [-]0[+]

[Цитировать] 

я посмотел его в вк и он восхитителен
info [Профиль]  [ЛС] 
Показать сообщения:    
Ответить на тему

Текущее время: 28-Фев 19:01

Часовой пояс: GMT + 4



Вы не можете начинать темы
Вы не можете отвечать на сообщения
Вы не можете редактировать свои сообщения
Вы не можете удалять свои сообщения
Вы не можете голосовать в опросах
Вы не можете прикреплять файлы к сообщениям
Вы не можете скачивать файлы