Ошибка

(NewAge) Enigma - The Platinum Collection (3CD) - 2009, FLAC (image+.cue)+covers, lossless

Ответить на тему
 
Автор Сообщение

Жура

Пол: Пол:Муж

Стаж: 11 лет

Сообщений: 143

Предупреждений: 1

Россия
Рейтинг

post 10-Фев-2010 00:29 2[+]

[Цитировать] 

Enigma - The Platinum Collection (3CD)

Жанр: NewAge
Год издания данного носителя: 2009
Страна-производитель носителя: Germany
Тип релиза: image+.cue
Аудио кодек: FLAC
Битрейт аудио: lossless
Продолжительность: 69+65+35:52

Треклист:

CD1 - The Greatest Hits:

01. Sadeness (Part 1) [0:04:20.30]
02. Mea Culpa (Orthodox Version) [0:04:01.28]
03. Priciples Of Lust [0:03:26.65]
04. Rivers Of Belief [0:04:23.57]
05. Return To Innocence [0:04:11.32]
06. Age Of Loneliness [0:04:16.72]
07. Out From The Deep [0:04:32.15]
08. Beyond The Invisible [0:04:35.15]
09. T.N.T. For The Brain [0:04:03.68]
10. Gravity Of Love [0:04:00.33]
11. Push The Limits [0:03:54.12]
12. Voyageur [0:03:57.05]
13. Turn Around [0:03:55.05]
14. Boum - Boum [0:03:43.72]
15. Following The Sun [0:04:18.60]
16. Seven Lives [0:03:47.65]
17. La Puerta Del Cielo [0:03:33.13]

CD 2 - The Remix Collection

01. Sadeness (US Violent Mix) [0:05:05.52]
02. Mea Culpa (Fading Shades Mix) [0:06:16.72]
03. Principles Of Lust (Everlasting Lust Mix) [0:05:09.25]
04. Return To Innocence (Long & Alive Version) [0:07:07.58]
05. Age Of Loneliness (Enigmatic Club Mix) [0:06:23.00]
06. Out From The Deep (Trance Mix) [0:05:50.05]
07. T.N.T. For The Brain (Midnight Man Mix) [0:05:57.62]
08. Gravity Of Love (Judgment Day Club Mix) [0:06:13.66]
09. Push The Limits (ATB Remix) [0:08:31.14]
10. Voyageur (Club Mix) [0:06:25.20]
11. Boum - Boum (Chicane Club Edit) [0:05:03.26]
12. Dreaming Of Andromeda (Jean F. Cochois Remix) [0:07:29.31]

CD 3 - The Lost Ones

01. Lost One [0:03:39.04]
02. Lost Two [0:02:13.21]
03. Lost Three [0:03:34.71]
04. Lost Four [0:03:28.54]
05. Lost Five [0:02:31.07]
06. Lost Six [0:02:17.45]
07. Lost Seven [0:04:12.65]
08. Lost Eight [0:03:59.62]
09. Lost Nine [0:03:23.63]
10. Lost Ten [0:02:40.67]
11. Lost Eleven [0:03:50.26]

Код:

Exact Audio Copy V0.99 prebeta 5 from 4. May 2009
EAC extraction logfile from 25. November 2009, 11:02
Enigma / The Greatest Hits - The Platinum Collection CD1
Used drive  : ASUS    DRW-1608P   Adapter: 2  ID: 0
Read mode               : Secure
Utilize accurate stream : Yes
Defeat audio cache      : Yes
Make use of C2 pointers : No
Read offset correction                      : 48
Overread into Lead-In and Lead-Out          : No
Fill up missing offset samples with silence : Yes
Delete leading and trailing silent blocks   : No
Null samples used in CRC calculations       : Yes
Used interface                              : Installed external ASPI interface
Used output format              : User Defined Encoder
Selected bitrate                : 1024 kBit/s
Quality                         : High
Add ID3 tag                     : No
Command line compressor         : C:\Program Files (x86)\Exact Audio Copy\Flac\flac.exe
Additional command line options : -5 -V -T "ARTIST=%a" -T "TITLE=%t" -T "ALBUM=%g" -T "DATE=%y" -T "TRACKNUMBER=%n" -T "GENRE=%m" -T "COMMENT=EAC FLAC -5" %s
TOC of the extracted CD
     Track |   Start  |  Length  | Start sector | End sector
    ---------------------------------------------------------
        1  |  0:00.00 |  4:20.30 |         0    |    19529
        2  |  4:20.30 |  4:01.28 |     19530    |    37632
        3  |  8:21.58 |  3:26.65 |     37633    |    53147
        4  | 11:48.48 |  4:23.57 |     53148    |    72929
        5  | 16:12.30 |  4:11.32 |     72930    |    91786
        6  | 20:23.62 |  4:16.72 |     91787    |   111058
        7  | 24:40.59 |  4:32.15 |    111059    |   131473
        8  | 29:12.74 |  4:35.15 |    131474    |   152113
        9  | 33:48.14 |  4:03.68 |    152114    |   170406
       10  | 37:52.07 |  4:00.33 |    170407    |   188439
       11  | 41:52.40 |  3:54.12 |    188440    |   206001
       12  | 45:46.52 |  3:57.05 |    206002    |   223781
       13  | 49:43.57 |  3:55.05 |    223782    |   241411
       14  | 53:38.62 |  3:43.72 |    241412    |   258208
       15  | 57:22.59 |  4:18.60 |    258209    |   277618
       16  | 61:41.44 |  3:47.65 |    277619    |   294708
       17  | 65:29.34 |  3:33.13 |    294709    |   310696
Range status and errors
Selected range
     Filename F:\Enigma - The Platinum Collection - 2009 (3CD)\CD1\Enigma - The Greatest Hits - The Platinum Collection CD1.wav
     Peak level 99.8 %
     Range quality 100.0 %
     Test CRC DC1947CB
     Copy CRC DC1947CB
     Copy OK
No errors occurred
AccurateRip summary
Track  1  not present in database
Track  2  not present in database
Track  3  not present in database
Track  4  not present in database
Track  5  not present in database
Track  6  not present in database
Track  7  not present in database
Track  8  not present in database
Track  9  not present in database
Track 10  not present in database
Track 11  not present in database
Track 12  not present in database
Track 13  not present in database
Track 14  not present in database
Track 15  not present in database
Track 16  not present in database
Track 17  not present in database
None of the tracks are present in the AccurateRip database
End of status report

CD 2:

Exact Audio Copy V0.99 prebeta 5 from 4. May 2009
EAC extraction logfile from 25. November 2009, 11:30
Enigma / The Remix Collection - The Platinum Collection CD2
Used drive  : ASUS    DRW-1608P   Adapter: 2  ID: 0
Read mode               : Secure
Utilize accurate stream : Yes
Defeat audio cache      : Yes
Make use of C2 pointers : No
Read offset correction                      : 48
Overread into Lead-In and Lead-Out          : No
Fill up missing offset samples with silence : Yes
Delete leading and trailing silent blocks   : No
Null samples used in CRC calculations       : Yes
Used interface                              : Installed external ASPI interface
Used output format              : User Defined Encoder
Selected bitrate                : 1024 kBit/s
Quality                         : High
Add ID3 tag                     : No
Command line compressor         : C:\Program Files (x86)\Exact Audio Copy\Flac\flac.exe
Additional command line options : -5 -V -T "ARTIST=%a" -T "TITLE=%t" -T "ALBUM=%g" -T "DATE=%y" -T "TRACKNUMBER=%n" -T "GENRE=%m" -T "COMMENT=EAC FLAC -5" %s
TOC of the extracted CD
     Track |   Start  |  Length  | Start sector | End sector
    ---------------------------------------------------------
        1  |  0:00.00 |  5:05.52 |         0    |    22926
        2  |  5:05.52 |  6:16.72 |     22927    |    51198
        3  | 11:22.49 |  5:09.25 |     51199    |    74398
        4  | 16:31.74 |  7:07.58 |     74399    |   106481
        5  | 23:39.57 |  6:23.00 |    106482    |   135206
        6  | 30:02.57 |  5:50.05 |    135207    |   161461
        7  | 35:52.62 |  5:57.62 |    161462    |   188298
        8  | 41:50.49 |  6:13.66 |    188299    |   216339
        9  | 48:04.40 |  8:31.14 |    216340    |   254678
       10  | 56:35.54 |  6:25.20 |    254679    |   283573
       11  | 63:00.74 |  5:03.26 |    283574    |   306324
       12  | 68:04.25 |  7:29.31 |    306325    |   340030
Range status and errors
Selected range
     Filename F:\Enigma - The Platinum Collection - 2009 (3CD)\CD2\Enigma - The Remix Collection - The Platinum Collection CD2.wav
     Peak level 99.8 %
     Range quality 100.0 %
     Test CRC 87E77D9C
     Copy CRC 87E77D9C
     Copy OK
No errors occurred
AccurateRip summary
Track  1  not present in database
Track  2  not present in database
Track  3  not present in database
Track  4  not present in database
Track  5  not present in database
Track  6  not present in database
Track  7  not present in database
Track  8  not present in database
Track  9  not present in database
Track 10  not present in database
Track 11  not present in database
Track 12  not present in database
None of the tracks are present in the AccurateRip database
End of status report

CD 3:

Exact Audio Copy V0.99 prebeta 5 from 4. May 2009
EAC extraction logfile from 25. November 2009, 11:46
Enigma / The Lost Ones - The Platinum Collection CD3
Used drive  : ASUS    DRW-1608P   Adapter: 2  ID: 0
Read mode               : Secure
Utilize accurate stream : Yes
Defeat audio cache      : Yes
Make use of C2 pointers : No
Read offset correction                      : 48
Overread into Lead-In and Lead-Out          : No
Fill up missing offset samples with silence : Yes
Delete leading and trailing silent blocks   : No
Null samples used in CRC calculations       : Yes
Used interface                              : Installed external ASPI interface
Used output format              : User Defined Encoder
Selected bitrate                : 1024 kBit/s
Quality                         : High
Add ID3 tag                     : No
Command line compressor         : C:\Program Files (x86)\Exact Audio Copy\Flac\flac.exe
Additional command line options : -5 -V -T "ARTIST=%a" -T "TITLE=%t" -T "ALBUM=%g" -T "DATE=%y" -T "TRACKNUMBER=%n" -T "GENRE=%m" -T "COMMENT=EAC FLAC -5" %s
TOC of the extracted CD
     Track |   Start  |  Length  | Start sector | End sector
    ---------------------------------------------------------
        1  |  0:00.00 |  3:39.04 |         0    |    16428
        2  |  3:39.04 |  2:13.21 |     16429    |    26424
        3  |  5:52.25 |  3:34.71 |     26425    |    42545
        4  |  9:27.21 |  3:28.54 |     42546    |    58199
        5  | 12:56.00 |  2:31.07 |     58200    |    69531
        6  | 15:27.07 |  2:17.45 |     69532    |    79851
        7  | 17:44.52 |  4:12.65 |     79852    |    98816
        8  | 21:57.42 |  3:59.62 |     98817    |   116803
        9  | 25:57.29 |  3:23.63 |    116804    |   132091
       10  | 29:21.17 |  2:40.67 |    132092    |   144158
       11  | 32:02.09 |  3:50.26 |    144159    |   161434
Range status and errors
Selected range
     Filename F:\Enigma - The Platinum Collection - 2009 (3CD)\CD3\Enigma - The Lost Ones - The Platinum Collection CD3.wav
     Peak level 99.8 %
     Range quality 99.9 %
     Test CRC F9AB7B87
     Copy CRC F9AB7B87
     Copy OK
No errors occurred
AccurateRip summary
Track  1  not present in database
Track  2  not present in database
Track  3  not present in database
Track  4  not present in database
Track  5  not present in database
Track  6  not present in database
Track  7  not present in database
Track  8  not present in database
Track  9  not present in database
Track 10  not present in database
Track 11  not present in database
None of the tracks are present in the AccurateRip database
End of status report
Полиграфия: присутствует
Уровень сжатия аудио кодеком: 5
info [Профиль]  [ЛС] 
Показать сообщения:    
Ответить на тему

Текущее время: 07-Мар 04:03

Часовой пояс: GMT + 4



Вы не можете начинать темы
Вы не можете отвечать на сообщения
Вы не можете редактировать свои сообщения
Вы не можете удалять свои сообщения
Вы не можете голосовать в опросах
Вы не можете прикреплять файлы к сообщениям
Вы не можете скачивать файлы