Ошибка

Metallica & San Francisco Symphony: S&M2 [2020, Thrash Metal/Heavy Metal, BDRip 1080p]

Ответить на тему
 
Автор Сообщение

VelArt

Пол: Пол:Муж

Стаж: 12 лет

Сообщений: 244

Украина
Рейтинг

post 08-Авг-2021 10:36 2[+]

[Цитировать] 

20 YEARS. TOGETHER AGAIN. LIVE




Год выпуска: 2020
Страна: США Rhino/Blackened
Жанр: хэви-метал, трэш-метал, хард-рок
Продолжительность: 2:28:48
Перевод: не требуется
Субтитры: нет
Режиссер: Уейн Айшам
Metallica: Джеймс Хетфилд (Вокал, ритм-гитара), Ларс Ульрих (ударные), Кирк Хаммет (соло-гитара), Роберт Трухильо (бас-гитара)
Аранжировка: Майкл Кеймен, Брюс Коуглин
Дирижеры: Эдвин Аутвотер, Майкл Тилсон-Томас
Электровиолончель: Скотт Пингел
Описание:

  «В 1999 году в "Berkley’s Community Theatre" состоялся легендарный концерт рок-группы "Metallica" с симфоническим оркестром города Сан-Франциско, которым тогда дирижировал маэстро Майкл Кеймен. На том грандиозном шоу прозвучали все хиты из альбомов от «Ride the Lightning» до «ReLoad». Опираясь на записанный на этом концерте материал, был выпущен альбом «S&M», который получил премию "Grammy".

  20 лет спустя, в сентябре 2019 года, "Metallica", вновь выступила с симфоническим оркестром Сан-Франциско на открытии нового стадиона "Chase Center", но уже под управлением дирижеров Эдвина Аутвотера и его наставника Майкла Тилсон-Томаса. Из записи этого выступления был составлен live-альбом «S&M²», в который вошли 20 композиций, продолжительностью почти 2.5 часа. »

 
«20 ЛЕТ СПУСТЯ. СНОВА ВМЕСТЕ. LIVE»



Треклист:
Intro
01. The Ecstasy of Gold
02. The Call of Ktulu
03. For Whom the Bell Tolls
04. The Day That Never Comes
05. The Memory Remains
06. Confusion
07. Moth Into Flame
08. The Outlaw Torn
09. No Leaf Clover
10. Halo on Fire
Intro to Scythian Suite
11. Scythian Suite, Opus 20 II: The Enemy God And The Dance Of The Dark Spirits
Intro to The Iron Foundry
12. The Iron Foundry, Opus 19
13. The Unforgiven III
14. All Within My Hands
15. (Anesthesia) - Pulling Teeth - In memories of Cliff Burton
16. Wherever I May Roam
17. One
18. Master of Puppets
19. Nothing Else Matters
20. Enter Sandman

Качество: BDRip, 1080p
Формат: MKV
Видео: MPEG-4 AVC, 8700 Kбит/с, 1920x1080, 23.976 кадр/с
Audio #1: DTS-HD XXL Master Audio 48000Hz 6ch 6912kbps (dts-hd ma, 48000 Hz, 5.1, s24)
Audio #2: DTS 48000Hz 6ch 1536kbps (dts, 48000 Hz, 5.1, 1536 kb/s)
Audio #3: DOLBY DIGITAL 5.1 48000Hz 6ch 448kbps (ac3, 48000 Hz, 5.1, 448 kb/s)
Audio #4: PCM 48000Hz stereo 2304kbps (pcm_s24le, 48000 Hz, 2 channels, s24, 2304 kb/s)
Audio #5: FLAC (framed) 48000Hz stereo 2304kbps (flac, 48000 Hz, stereo, s24)
Audio #6: AAC 48000Hz stereo (aac lc, 48000 Hz, stereo)
General
Unique ID : 260074518744710538387046921096331694875 (0xC3A887C4828B8A92ABFE67193DBE931B)
Complete name : D:\!Dowlolads\Metallica & San Francisco Symphony - S&M2.mkv
Format : Matroska
Format version : Version 4
File size : 20.7 GiB
Duration : 2 h 28 min
Overall bit rate mode : Variable
Overall bit rate : 20.0 Mb/s
Movie name : Metallica & San Francisco Symphony - S&M2
Encoded date : UTC 2021-08-08 04:59:38
Writing application : mkvmerge v59.0.0 ('Shining Star') 64-bit
Writing library : libebml v1.4.2 + libmatroska v1.6.4
Cover : Yes
Attachments : cover.jpg

Video
ID : 1
Format : AVC
Format/Info : Advanced Video Codec
Format profile : High@L4.1
Format settings : CABAC / 4 Ref Frames
Format settings, CABAC : Yes
Format settings, Reference fra : 4 frames
Codec ID : V_MPEG4/ISO/AVC
Duration : 2 h 28 min
Bit rate : 8 700 kb/s
Width : 1 920 pixels
Height : 1 080 pixels
Display aspect ratio : 16:9
Frame rate mode : Constant
Frame rate : 23.976 (24000/1001) FPS
Color space : YUV
Chroma subsampling : 4:2:0
Bit depth : 8 bits
Scan type : Progressive
Bits/(Pixel*Frame) : 0.175
Stream size : 9.04 GiB (44%)
Writing library : x264 core 152 r2851 ba24899
Encoding settings : cabac=1 / ref=4 / deblock=1:-2:-2 / analyse=0x3:0x133 / me=umh / subme=10 / psy=1 / psy_rd=1.00:0.15 / mixed_ref=1 / me_range=32 / chroma_me=1 / trellis=2 / 8x8dct=1 / cqm=0 / deadzone=21,11 / fast_pskip=1 / chroma_qp_offset=-3 / threads=6 / lookahead_threads=1 / sliced_threads=0 / nr=0 / decimate=1 / interlaced=0 / bluray_compat=0 / constrained_intra=0 / bframes=8 / b_pyramid=2 / b_adapt=2 / b_bias=0 / direct=3 / weightb=1 / open_gop=0 / weightp=2 / keyint=240 / keyint_min=23 / scenecut=40 / intra_refresh=0 / rc_lookahead=60 / rc=2pass / mbtree=1 / bitrate=8700 / ratetol=1.0 / qcomp=0.60 / qpmin=0 / qpmax=69 / qpstep=4 / cplxblur=20.0 / qblur=0.5 / vbv_maxrate=50000 / vbv_bufsize=50000 / nal_hrd=none / filler=0 / ip_ratio=1.40 / aq=1:1.00
Language : English
Default : Yes
Forced : No

Audio #1
ID : 2
Format : DTS XLL
Format/Info : Digital Theater Systems
Commercial name : DTS-HD Master Audio
Codec ID : A_DTS
Duration : 2 h 28 min
Bit rate mode : Variable
Bit rate : 4 917 kb/s
Channel(s) : 6 channels
Channel layout : C L R Ls Rs LFE
Sampling rate : 48.0 kHz
Frame rate : 93.750 FPS (512 SPF)
Bit depth : 24 bits
Compression mode : Lossless
Stream size : 5.11 GiB (25%)
Language : English
Default : Yes
Forced : No

Audio #2
ID : 3
Format : DTS
Format/Info : Digital Theater Systems
Codec ID : A_DTS
Duration : 2 h 28 min
Bit rate mode : Constant
Bit rate : 1 509 kb/s
Channel(s) : 6 channels
Channel layout : C L R Ls Rs LFE
Sampling rate : 48.0 kHz
Frame rate : 93.750 FPS (512 SPF)
Bit depth : 24 bits
Compression mode : Lossy
Stream size : 1.57 GiB (8%)
Language : English
Default : No
Forced : No

Audio #3
ID : 4
Format : AC-3
Format/Info : Audio Coding 3
Commercial name : Dolby Digital
Codec ID : A_AC3
Duration : 2 h 28 min
Bit rate mode : Constant
Bit rate : 448 kb/s
Channel(s) : 6 channels
Channel layout : L R C LFE Ls Rs
Sampling rate : 48.0 kHz
Frame rate : 31.250 FPS (1536 SPF)
Compression mode : Lossy
Stream size : 477 MiB (2%)
Language : English
Service kind : Complete Main
Default : No
Forced : No

Audio #4
ID : 5
Format : PCM
Format settings : Little / Signed
Codec ID : A_PCM/INT/LIT
Duration : 2 h 28 min
Bit rate mode : Constant
Bit rate : 2 304 kb/s
Channel(s) : 2 channels
Sampling rate : 48.0 kHz
Frame rate : 32.000 FPS (1500 SPF)
Bit depth : 24 bits
Stream size : 2.39 GiB (12%)
Language : English
Default : No
Forced : No

Audio #5
ID : 6
Format : FLAC
Format/Info : Free Lossless Audio Codec
Codec ID : A_FLAC
Duration : 2 h 28 min
Bit rate mode : Variable
Bit rate : 1 728 kb/s
Channel(s) : 2 channels
Channel layout : L R
Sampling rate : 48.0 kHz
Frame rate : 11.719 FPS (4096 SPF)
Bit depth : 24 bits
Compression mode : Lossless
Stream size : 1.80 GiB (9%)
Writing library : libFLAC 1.2.1 (UTC 2007-09-17)
Language : English
Default : No
Forced : No

Audio #6
ID : 7
Format : AAC LC
Format/Info : Advanced Audio Codec Low Complexity
Codec ID : A_AAC-2
Duration : 2 h 28 min
Bit rate : 344 kb/s
Channel(s) : 2 channels
Channel layout : L R
Sampling rate : 48.0 kHz
Frame rate : 46.875 FPS (1024 SPF)
Compression mode : Lossy
Delay relative to video : 20 ms
Stream size : 366 MiB (2%)
Language : English
Default : No
Forced : No

Menu
00:00:00.000 : Intro
00:01:38.348 : The Ecstasy of Gold
00:04:34.649 : The Call of Ktulu
00:13:49.620 : For Whom the Bell Tolls
00:18:25.687 : The Day That Never Comes
00:26:52.861 : The Memory Remains
00:32:35.078 : Confusion
00:39:16.395 : Moth Into Flame
00:45:31.645 : The Outlaw Torn
00:55:30.744 : No Leaf Clover
01:01:03.660 : Halo on Fire
01:09:18.737 : Intro to Scythian Suite
01:14:33.427 : Scythian Suite, Opus 20 II: The Enemy God And The Dance Of The Dark Spirits
01:18:13.271 : Intro to The Iron Foundry
01:19:16.084 : The Iron Foundry, Opus 19
01:23:46.187 : The Unforgiven III
01:32:13.152 : All Within My Hands
01:38:35.576 : (Anesthesia) - Pulling Teeth
01:46:00.103 : Wherever I May Roam
01:53:05.904 : One
02:02:27.089 : Master of Puppets
02:10:59.852 : Nothing Else Matters
02:17:40.418 : Enter Sandman
02:24:44.425 : Credits

info [Профиль]  [ЛС] 

VelArt

Пол: Пол:Муж

Стаж: 12 лет

Сообщений: 244

Украина
Рейтинг

post 08-Авг-2021 11:17 (спустя 41 минута) [-]3[+]

[Цитировать] 

Я как фан металлики и в особенности первого "S&M" по занятости пропустил этот концерт, и буквально позавчера наткнулся на его фрагменты на ютубе... Ребятки, это же эпично! Такая атмосфера! Я испытал такие потрясающие эмоции от просмотра и прослушивания что передать немогу. Особенно от "The Unforgiven III" где только Хэтфилд и оркестр... боже, какая потрясающая аранжировка.... А от Анестезии даже пустил слезу....

Знаю, что на трекере уже есть Женькин ремукс, но там одна дорога и размер конский. Я лично считаю, что в подобного рода раздачах важен звук, а картинка чтоб по крайней мере не была стыдной. По этому налепил сюда аудиодорог на любой вкус.

Кто (как и я) не видел и не слышал - качать в обязательном порядке!

_________________
«How can I be lost, if I've got nowhere to go? In searched the seas of gold, how come it's got so cold?
How can I be lost, in remembrance I relive. How can I blame you, when it's me I can't forgive?»
(c) Metallica, Unforgiven III
info [Профиль]  [ЛС] 
Показать сообщения:    
Ответить на тему

Текущее время: 25-Окт 12:14

Часовой пояс: GMT + 4



Вы не можете начинать темы
Вы не можете отвечать на сообщения
Вы не можете редактировать свои сообщения
Вы не можете удалять свои сообщения
Вы не можете голосовать в опросах
Вы не можете прикреплять файлы к сообщениям
Вы не можете скачивать файлы