Ошибка

VA - Bon Jovi: Live at Madison Square Garden [BDRip 720p] [2008 г., Rock, BDRip]

Ответить на тему
 
Автор Сообщение

sisoft_ts

Стаж: 3 месяца 27 дней

Сообщений: 5

Россия
Рейтинг

post 27-Авг-2020 01:02 0[+]

[Цитировать] 

VA - Bon Jovi: Live at Madison Square Garden (2008) [BDRip 720p]

Год выпуска: 2008
Страна: UK
Жанр: Rock
Продолжительность: 02:23:17

Треклист:
01. Lost Highway
02. Born To Be My Baby
03. Blaze Of Glory
04. It's My Life
05. Keep The Faith
06. Raise Your Hands
07. Living In Sin/Chapel Of Love
08. Always
09. Whole Lot Of Lovin'
10. In These Arms
11. We Got It Going On
12. I'll Be There For You
13. (You Want To) Make A Memory
14. Blood On Blood
15. Dry County
16. Have A Nice Day
17. Who Says You Can't Go Home
18. Hallelujah
19. Wanted Dead Or Alive
20. Livin' On A Prayer
Бонусные треки:
21. You Give Love A Bad Name
22. Runaway
23. Bed Of Roses
Описание:
Концертный релиз от Bon Jovi, снятый 23 камерами высокого разрешения. Это возвращение в Madison Square Garden, самое знаковое место в Нью-Йорке, где группа выступала 19 лет назад. Концерт прошел в рамках исторического Lost Highway Tour, официально крупнейшего тура на планете в 2008 году.
Bon Jovi — легендарная американская рок-группа из Нью Джерси, одни из основателей стиля мелодический хард-н-хэви, ставшего популярным в середине 80-х

Происхождение видео: BDRip
Формат: MKV
Видео кодек: X.264
Аудио кодек: AC3
Видео: 1280x720, 23.976 fps, ~6000 Kbps
Аудио #1: English: AC3, 6 ch, 640 kbps, 48.0 KHz
General
Unique ID : 253338242764782679152136533067790012057 (0xBE972BB83B80916488C173B19977CE99)
Complete name : D:\торренты\скачанное\Bon.Jovi.Live.at.Madison.Square.Garden.2008.Blu-ray.DD5.1.x264-HDCLUB.mkv
Format : Matroska
Format version : Version 2
File size : 6.65 GiB
Duration : 2h 23mn
Overall bit rate : 6 641 Kbps
Movie name : Bon Jovi - Live at Madison Square Garden(2008) - Release for HDClub by ulad
Encoded date : UTC 2009-12-03 13:37:04
Writing application : mkvmerge v2.9.8 ('C'est le bon') built on Aug 13 2009 12:49:06
Writing library : libebml v0.7.7 + libmatroska v0.8.1

Video
ID : 1
Format : AVC
Format/Info : Advanced Video Codec
Format profile : High@L4.1
Format settings, CABAC : Yes
Format settings, ReFrames : 5 frames
Codec ID : V_MPEG4/ISO/AVC
Duration : 2h 23mn
Bit rate : 6 000 Kbps
Width : 1 280 pixels
Height : 720 pixels
Display aspect ratio : 16:9
Frame rate mode : Constant
Frame rate : 23.976 fps
Color space : YUV
Chroma subsampling : 4:2:0
Bit depth : 8 bits
Scan type : Progressive
Bits/(Pixel*Frame) : 0.272
Stream size : 5.87 GiB (88%)
Writing library : x264 core 68 r1183M f21daff
Encoding settings : cabac=1 / ref=5 / deblock=1:-3:-3 / analyse=0x3:0x133 / me=umh / subme=7 / psy_rd=1.0:0.0 / mixed_ref=1 / me_range=24 / chroma_me=1 / trellis=1 / 8x8dct=1 / cqm=2 / deadzone=21,11 / chroma_qp_offset=-2 / threads=6 / nr=0 / decimate=0 / mbaff=0 / bframes=3 / b_pyramid=1 / b_adapt=1 / b_bias=0 / direct=3 / wpredb=1 / keyint=250 / keyint_min=25 / scenecut=40 / rc=2pass / bitrate=6000 / ratetol=1.0 / qcomp=0.60 / qpmin=10 / qpmax=51 / qpstep=4 / cplxblur=20.0 / qblur=0.5 / ip_ratio=1.40 / pb_ratio=1.30 / aq=1:1.00
Language : English
Default : No
Forced : No

Audio
ID : 2
Format : AC-3
Format/Info : Audio Coding 3
Mode extension : CM (complete main)
Format settings, Endianness : Big
Codec ID : A_AC3
Duration : 2h 23mn
Bit rate mode : Constant
Bit rate : 640 Kbps
Channel count : 6 channels
Channel positions : Front: L C R, Side: L R, LFE
Sampling rate : 48.0 KHz
Bit depth : 16 bits
Compression mode : Lossy
Stream size : 656 MiB (10%)
Title : AC3 6ch 640Kbps 48KHz
Language : English
Default : Yes
Forced : No

Menu
00:00:00.000 : :Lost Highway
00:04:19.259 : :Born To Be My Baby
00:09:28.193 : :Blaze Of Glory
00:15:35.434 : :It's My Life
00:19:21.160 : :Keep The Faith
00:25:42.541 : :Raise Your Hands
00:30:34.541 : :Living In Sin/Chapel Of Love
00:36:31.606 : :Always
00:43:53.297 : :Whole Lot Of Lovin'
00:48:57.893 : :In These Arms
00:55:22.319 : :We Got It Going On
01:00:07.479 : :I'll Be There For You
01:09:06.142 : :(You Want To) Make A Memory
01:13:47.006 : :Blood On Blood
01:19:49.034 : :Dry County
01:29:45.630 : :Have A Nice Day
01:34:08.852 : :Who Says You Can't Go Home
01:40:13.007 : : Hallelujah
01:49:14.840 : :Wanted Dead Or Alive
01:54:54.137 : : Livin' On A Prayer
02:05:41.200 : :You Give Love A Bad Name
02:09:49.300 : :Runaway
02:15:03.160 : :Bed Of Roses
info [Профиль]  [ЛС] 

Alvatar95

Пол: Пол:Муж

Стаж: 9 лет 2 месяца

Сообщений: 52

Россия
Рейтинг

post 12-Сен-2020 20:02 (спустя 16 дней) [-]0[+]

[Цитировать] 

Джон красавчик!!!!
info [Профиль]  [ЛС] 
Показать сообщения:    
Ответить на тему

Текущее время: 28-Сен 13:12

Часовой пояс: GMT + 4



Вы не можете начинать темы
Вы не можете отвечать на сообщения
Вы не можете редактировать свои сообщения
Вы не можете удалять свои сообщения
Вы не можете голосовать в опросах
Вы не можете прикреплять файлы к сообщениям
Вы не можете скачивать файлы