Ошибка

Ink (Jamin Winans) [2009 | WEB-DL 720p | ENG|SPA] от R.G. GOGFAN

Ответить на тему
 
Автор Сообщение

Svyatovlad21

Пол: Пол:Муж

Стаж: 7 лет 3 месяца

Сообщений: 7798

Россия
Рейтинг

post 26-Апр-2020 11:12 1[+]

[Цитировать] 

Ink


Общая информация:
Дата выхода: 23 января 2009 года
Компания: Double Edge Films
Продолжительность: 107 минут
Цифровая лицензия GOG.com
Страница на IMDB
Страница на КиноПоиск
Язык: English
Субтитры: English, español
Режиссер:
Jamin Winans
Описание:
  Когда свет исчезает и город засыпает, две силы появляются. Они невидимы, но имеют власть над людьми во сне, борясь за наши души через сны. Одна сила дает надежду и силу через хорошие сны, другая вселяется в подсознательное через кошмары. Джон и Эмма, отец и дочь, ворвались в этот фантастический мир мечты, вынуждены бороться за свои души, чтобы вырваться из вечного кошмара. К тому же на своем пути они сталкиваются с необычными символами, которые существуют только в их подсознании.

Информация о файле:
Качество: WEB-DL 720p
Формат: .mp4
Видео кодек: MPEG-4
Аудио кодек: AAC
Видео: 1 280 х 720, 24.000 fps, 1 983 kb/s
Аудио: 48000 Hz, stereo, 157 kb/s

Бонусы:
  • Обои
  • Саундтрек
  • Трейлер
  • Плакат
  • Subtitles Pack

General
Format : MPEG-4
Format profile : Base Media
Codec ID : isom (isom)
File size : 1.59 GiB
Duration : 1 h 46 min
Overall bit rate mode : Variable
Overall bit rate : 2 143 kb/s

Video
ID : 1
Format : AVC
Format/Info : Advanced Video Codec
Format profile : Baseline@L3.1
Format settings, CABAC : No
Format settings, RefFrames : 2 frames
Codec ID : avc1
Codec ID/Info : Advanced Video Coding
Duration : 1 h 46 min
Bit rate mode : Variable
Bit rate : 1 983 kb/s
Maximum bit rate : 2 400 kb/s
Width : 1 280 pixels
Height : 720 pixels
Display aspect ratio : 16:9
Frame rate mode : Constant
Frame rate : 23.976 (24000/1001) FPS
Standard : NTSC
Color space : YUV
Chroma subsampling : 4:2:0
Bit depth : 8 bits
Scan type : Progressive
Bits/(Pixel*Frame) : 0.090
Stream size : 1.47 GiB (93%)
Title : Ink
Language : English
Encoded date : UTC 2014-11-22 14:36:36
Tagged date : UTC 2014-12-16 13:43:42
Color range : Limited

Audio
ID : 2
Format : AAC
Format/Info : Advanced Audio Codec
Format profile : LC
Codec ID : 40
Duration : 1 h 46 min
Bit rate mode : Variable
Bit rate : 157 kb/s
Maximum bit rate : 165 kb/s
Channel(s) : 2 channels
Channel positions : Front: L R
Sampling rate : 48.0 kHz
Frame rate : 46.875 FPS (1024 SPF)
Compression mode : Lossy
Stream size : 120 MiB (7%)
Title : Ink
Language : English
Encoded date : UTC 2014-12-16 13:43:38
Tagged date : UTC 2014-12-16 13:43:42

Text #1
ID : 3
Format : Timed Text
Muxing mode : sbtl
Codec ID : tx3g
Duration : 1 h 41 min
Bit rate mode : Variable
Bit rate : 41 b/s
Stream size : 30.3 KiB (0%)
Title : English
Language : English
Default : Yes
Forced : No
Alternate group : 2
Encoded date : UTC 2014-12-16 13:43:42
Tagged date : UTC 2014-12-16 13:43:42

Text #2
ID : 4
Format : Timed Text
Muxing mode : sbtl
Codec ID : tx3g
Duration : 1 h 41 min
Bit rate mode : Variable
Bit rate : 43 b/s
Stream size : 31.6 KiB (0%)
Title : Spanish
Language : Spanish
Default : Yes
Forced : No
Alternate group : 2
info [Профиль]  [ЛС] 

Svyatovlad21

Пол: Пол:Муж

Стаж: 7 лет 3 месяца

Сообщений: 7798

Россия
Рейтинг

post 26-Апр-2020 15:17 (спустя 4 часа) [-]0[+]

[Цитировать] 

***
info [Профиль]  [ЛС] 
Показать сообщения:    
Ответить на тему

Текущее время: 27-Май 08:59

Часовой пояс: GMT + 4



Вы не можете начинать темы
Вы не можете отвечать на сообщения
Вы не можете редактировать свои сообщения
Вы не можете удалять свои сообщения
Вы не можете голосовать в опросах
Вы не можете прикреплять файлы к сообщениям
Вы не можете скачивать файлы