Ошибка

(Synthwave / Synthpop / Electronic) GUNSHIP - Dark All Day - 2018, FLAC (tracks+.cue), lossless

Ответить на тему
 
Автор Сообщение

Slava2312

Пол: Пол:Муж

Стаж: 4 года 3 месяца

Сообщений: 16

Россия
Рейтинг

post 03-Дек-2018 15:44 1[+]

[Цитировать] 

GUNSHIP - Dark All Day


pic="https://i108.fastpic.ru/big/2018/1204/78/49ec1bbebb012353904dbf23fc920178.jpg"


Жанр: Synthwave / Synthpop / Electronic
Год издания данного носителя: 2018
Страна-производитель носителя: UK
Лейбл: Horsie In The Hedge LLP
Каталоговый номер: HITH008CD
Тип издания: LP
Аудио кодек: FLAC
Тип рипа: tracks+.cue
Битрейт аудио: lossless
Продолжительность: 01:06:41
Источник (релизер): Red [zerorules]
Треклист:
[5:09] 01. GUNSHIP - Woken Furies
[5:27] 02. GUNSHIP - Dark All Day (feat. Tim Cappello & Indiana)
[5:50] 03. GUNSHIP - When You Grow Up, Your Heart Dies
[4:41] 04. GUNSHIP - The Drone Racing League
[5:47] 05. GUNSHIP - Rise the Midnight Girl
[5:15] 06. GUNSHIP - Thrasher
[5:36] 07. GUNSHIP - Black Blood Red Kiss (feat. Kat Von D)
[4:04] 08. GUNSHIP - Time After Time
[4:41] 09. GUNSHIP - Honour Among Thieves (feat. Una Healy)
[4:52] 10. GUNSHIP - Art3mis & Parzival (feat. Stella Le Page)
[3:32] 11. GUNSHIP - Symmetrical (feat. Una Healy)
[6:00] 12. GUNSHIP - Cyber City
[5:46] 13. GUNSHIP - The Gates of Disorder
Exact Audio Copy V1.3 from 2. September 2016 

EAC extraction logfile from 25. October 2018, 19:39

GUNSHIP / Dark All Day

Used drive : HL-DT-STDVDRAM GH24NSD1 Adapter: 1 ID: 0

Read mode : Secure
Utilize accurate stream : Yes
Defeat audio cache : Yes
Make use of C2 pointers : No

Read offset correction : 6
Overread into Lead-In and Lead-Out : No
Fill up missing offset samples with silence : Yes
Delete leading and trailing silent blocks : No
Null samples used in CRC calculations : Yes
Used interface : Native Win32 interface for Win NT & 2000
Gap handling : Appended to previous track

Used output format : User Defined Encoder
Selected bitrate : 1024 kBit/s
Quality : High
Add ID3 tag : No
Command line compressor : C:Program Files (x86)Exact Audio CopyFlacflac.exe
Additional command line options : -8 -e -p -V -T "ARTIST=%artist%" -T "TITLE=%title%" -T "ALBUM=%albumtitle%" -T "DATE=%year%" -T "TRACKNUMBER=%tracknr%" -T "GENRE=%genre%" -T "PERFORMER=%albuminterpret%" -T "COMPOSER=%composer%" %haslyrics%--tag-from-file=LYRICS="%lyricsfile%"%haslyrics% -T "ALBUMARTIST=%albumartist%" -T "DISCNUMBER=%cdnumber%" -T "TOTALDISCS=%totalcds%" -T "TOTALTRACKS=%numtracks%" -T "COMMENT=%comment%" %source% -o %dest%

TOC of the extracted CD

Track | Start | Length | Start sector | End sector
---------------------------------------------------------
1 | 0:00.00 | 5:09.11 | 0 | 23185
2 | 5:09.11 | 5:27.16 | 23186 | 47726
3 | 10:36.27 | 5:49.38 | 47727 | 73939
4 | 16:25.65 | 4:41.06 | 73940 | 95020
5 | 21:06.71 | 5:47.37 | 95021 | 121082
6 | 26:54.33 | 5:15.06 | 121083 | 144713
7 | 32:09.39 | 5:36.31 | 144714 | 169944
8 | 37:45.70 | 4:03.40 | 169945 | 188209
9 | 41:49.35 | 4:40.73 | 188210 | 209282
10 | 46:30.33 | 4:52.14 | 209283 | 231196
11 | 51:22.47 | 3:32.27 | 231197 | 247123
12 | 54:54.74 | 5:59.52 | 247124 | 274100
13 | 60:54.51 | 5:46.04 | 274101 | 300054

Track 1

Filename C:DiskDExtraction�1 - Woken Furies.wav

Pre-gap length 0:00:02.00

Peak level 98.9 %
Extraction speed 4.9 X
Track quality 100.0 %
Test CRC FF0D3FA6
Copy CRC FF0D3FA6
Track not present in AccurateRip database
Copy OK

Track 2

Filename C:DiskDExtraction�2 - Dark All Day (feat. Tim Cappello & Indiana).wav

Peak level 98.9 %
Extraction speed 5.5 X
Track quality 100.0 %
Test CRC FED9E232
Copy CRC FED9E232
Track not present in AccurateRip database
Copy OK

Track 3

Filename C:DiskDExtraction�3 - When You Grow Up, Your Heart Dies.wav

Peak level 98.9 %
Extraction speed 6.0 X
Track quality 100.0 %
Test CRC AF0EF87F
Copy CRC AF0EF87F
Track not present in AccurateRip database
Copy OK

Track 4

Filename C:DiskDExtraction�4 - The Drone Racing League.wav

Peak level 98.9 %
Extraction speed 6.3 X
Track quality 100.0 %
Test CRC C0EAB9A9
Copy CRC C0EAB9A9
Track not present in AccurateRip database
Copy OK

Track 5

Filename C:DiskDExtraction�5 - Rise the Midnight Girl.wav

Peak level 98.9 %
Extraction speed 6.9 X
Track quality 100.0 %
Test CRC BC558D6C
Copy CRC BC558D6C
Track not present in AccurateRip database
Copy OK

Track 6

Filename C:DiskDExtraction�6 - Thrasher.wav

Peak level 98.9 %
Extraction speed 6.6 X
Track quality 99.9 %
Test CRC B7F6026C
Copy CRC B7F6026C
Track not present in AccurateRip database
Copy OK

Track 7

Filename C:DiskDExtraction�7 - Black Blood Red Kiss (feat. Kat Von D).wav

Peak level 98.9 %
Extraction speed 7.7 X
Track quality 100.0 %
Test CRC 4E083370
Copy CRC 4E083370
Track not present in AccurateRip database
Copy OK

Track 8

Filename C:DiskDExtraction�8 - Time After Time.wav

Peak level 98.9 %
Extraction speed 7.8 X
Track quality 100.0 %
Test CRC 1A5D66E8
Copy CRC 1A5D66E8
Track not present in AccurateRip database
Copy OK

Track 9

Filename C:DiskDExtraction�9 - Honour Among Thieves (feat. Una Healy).wav

Peak level 98.9 %
Extraction speed 8.0 X
Track quality 100.0 %
Test CRC C223B38A
Copy CRC C223B38A
Track not present in AccurateRip database
Copy OK

Track 10

Filename C:DiskDExtraction10 - Art3mis & Parzival (feat. Stella Le Page).wav

Peak level 98.9 %
Extraction speed 8.4 X
Track quality 100.0 %
Test CRC 8CE06211
Copy CRC 8CE06211
Track not present in AccurateRip database
Copy OK

Track 11

Filename C:DiskDExtraction11 - Symmetrical (feat. Una Healy).wav

Peak level 98.9 %
Extraction speed 8.2 X
Track quality 100.0 %
Test CRC 81F8B91B
Copy CRC 81F8B91B
Track not present in AccurateRip database
Copy OK

Track 12

Filename C:DiskDExtraction12 - Cyber City.wav

Peak level 98.9 %
Extraction speed 8.9 X
Track quality 100.0 %
Test CRC AE7513F1
Copy CRC AE7513F1
Track not present in AccurateRip database
Copy OK

Track 13

Filename C:DiskDExtraction13 - The Gates of Disorder.wav

Peak level 98.9 %
Extraction speed 9.1 X
Track quality 100.0 %
Test CRC 633CFCB0
Copy CRC 633CFCB0
Track not present in AccurateRip database
Copy OK

None of the tracks are present in the AccurateRip database

No errors occurred

End of status report

---- CUETools DB Plugin V2.1.6

[CTDB TOCID: 4DkniVqqiyl6nhaGHRi18C9KosM-] found
Submit result: 4DkniVqqiyl6nhaGHRi18C9KosM- has been uploaded
Track | CTDB Status
1 | (27/27) Accurately ripped
2 | (27/27) Accurately ripped
3 | (27/27) Accurately ripped
4 | (27/27) Accurately ripped
5 | (26/27) Accurately ripped
6 | (27/27) Accurately ripped
7 | (27/27) Accurately ripped
8 | (27/27) Accurately ripped
9 | (27/27) Accurately ripped
10 | (27/27) Accurately ripped
11 | (27/27) Accurately ripped
12 | (27/27) Accurately ripped
13 | (27/27) Accurately ripped

==== Log checksum 09583FBF16DF8B9E55B246740CF6FAE76F9B5AE99893A43599C20A26C44FEC95 ====
REM GENRE Synthpop 
REM DATE 2018
REM DISCID C20FA00D
REM COMMENT "ExactAudioCopy v1.3"
PERFORMER "GUNSHIP"
TITLE "Dark All Day"
REM COMPOSER ""
FILE "01 - Woken Furies.wav" WAVE
TRACK 01 AUDIO
TITLE "Woken Furies"
PERFORMER "GUNSHIP"
REM COMPOSER ""
INDEX 01 00:00:00
FILE "02 - Dark All Day (feat. Tim Cappello & Indiana).wav" WAVE
TRACK 02 AUDIO
TITLE "Dark All Day (feat. Tim Cappello & Indiana)"
PERFORMER "GUNSHIP"
REM COMPOSER ""
INDEX 01 00:00:00
FILE "03 - When You Grow Up, Your Heart Dies.wav" WAVE
TRACK 03 AUDIO
TITLE "When You Grow Up, Your Heart Dies"
PERFORMER "GUNSHIP"
REM COMPOSER ""
INDEX 01 00:00:00
FILE "04 - The Drone Racing League.wav" WAVE
TRACK 04 AUDIO
TITLE "The Drone Racing League"
PERFORMER "GUNSHIP"
REM COMPOSER ""
INDEX 01 00:00:00
FILE "05 - Rise the Midnight Girl.wav" WAVE
TRACK 05 AUDIO
TITLE "Rise the Midnight Girl"
PERFORMER "GUNSHIP"
REM COMPOSER ""
INDEX 01 00:00:00
FILE "06 - Thrasher.wav" WAVE
TRACK 06 AUDIO
TITLE "Thrasher"
PERFORMER "GUNSHIP"
REM COMPOSER ""
INDEX 01 00:00:00
FILE "07 - Black Blood Red Kiss (feat. Kat Von D).wav" WAVE
TRACK 07 AUDIO
TITLE "Black Blood Red Kiss (feat. Kat Von D)"
PERFORMER "GUNSHIP"
REM COMPOSER ""
INDEX 01 00:00:00
FILE "08 - Time After Time.wav" WAVE
TRACK 08 AUDIO
TITLE "Time After Time"
PERFORMER "GUNSHIP"
REM COMPOSER ""
INDEX 01 00:00:00
FILE "09 - Honour Among Thieves (feat. Una Healy).wav" WAVE
TRACK 09 AUDIO
TITLE "Honour Among Thieves (feat. Una Healy)"
PERFORMER "GUNSHIP"
REM COMPOSER ""
INDEX 01 00:00:00
FILE "10 - Art3mis & Parzival (feat. Stella Le Page).wav" WAVE
TRACK 10 AUDIO
TITLE "Art3mis & Parzival (feat. Stella Le Page)"
PERFORMER "GUNSHIP"
REM COMPOSER ""
INDEX 01 00:00:00
FILE "11 - Symmetrical (feat. Una Healy).wav" WAVE
TRACK 11 AUDIO
TITLE "Symmetrical (feat. Una Healy)"
PERFORMER "GUNSHIP"
REM COMPOSER ""
INDEX 01 00:00:00
FILE "12 - Cyber City.wav" WAVE
TRACK 12 AUDIO
TITLE "Cyber City"
PERFORMER "GUNSHIP"
REM COMPOSER ""
INDEX 01 00:00:00
FILE "13 - The Gates of Disorder.wav" WAVE
TRACK 13 AUDIO
TITLE "The Gates of Disorder"
PERFORMER "GUNSHIP"
REM COMPOSER ""
INDEX 01 00:00:00
info [Профиль]  [ЛС] 

MAX 47

Стаж: 6 лет 2 месяца

Сообщений: 21

Япония
Рейтинг

post 07-Дек-2018 16:07 (спустя 4 дня) [-]1[+]

[Цитировать] 

Time After Time kolob_109

_________________
バスケットは涼しいです!!!
info [Профиль]  [ЛС] 
Показать сообщения:    
Ответить на тему

Текущее время: 14-Дек 20:05

Часовой пояс: GMT + 4



Вы не можете начинать темы
Вы не можете отвечать на сообщения
Вы не можете редактировать свои сообщения
Вы не можете удалять свои сообщения
Вы не можете голосовать в опросах
Вы не можете прикреплять файлы к сообщениям
Вы не можете скачивать файлы