Ошибка

(Electronic, Breakbeat) The Prodigy - No Tourists - 2018, FLAC (tracks+.cue), lossless

Ответить на тему
 
Автор Сообщение

v3rn0n

Пол: Пол:Муж

Стаж: 7 лет 5 месяцев

Сообщений: 245

Россия
Рейтинг

post 04-Ноя-2018 23:44 0[+]

[Цитировать] 

The Prodigy - No Tourists
Жанр: Electronic, Breakbeat
Год издания данного носителя: 2018
Страна-производитель носителя: UK
Лейбл: Take Me To The Hospital
Аудио кодек: FLAC
Тип рипа: tracks+.cue
Битрейт аудио: lossless
Продолжительность: 00:37:48

Треклист:
01. Need Some1
02. Light Up The Sky
03. We Live Forever
04. No Tourists
05. Fight Fire With Fire (Feat. Ho99o9)
06. Timebomb Zone
07. Champions Of London
08. Boom Boom Tap
09. Resonate
10. Give Me A Signal (Feat. Barns Courtney)
Exact Audio Copy V1.1 from 23. June 2015

EAC extraction logfile from 2. November 2018, 23:59

The Prodigy / No Tourists

Used drive : HP DVD Writer 1160d Adapter: 1 ID: 0

Read mode : Secure
Utilize accurate stream : Yes
Defeat audio cache : Yes
Make use of C2 pointers : No

Read offset correction : 6
Overread into Lead-In and Lead-Out : No
Fill up missing offset samples with silence : Yes
Delete leading and trailing silent blocks : No
Null samples used in CRC calculations : Yes
Used interface : Native Win32 interface for Win NT & 2000
Gap handling : Appended to previous track

Used output format : User Defined Encoder
Selected bitrate : 1024 kBit/s
Quality : High
Add ID3 tag : No
Command line compressor : C:\Program Files (x86)\Exact Audio Copy\Flac\flac.exe
Additional command line options : -8 -V -T "ARTIST=%artist%" -T "TITLE=%title%" -T "ALBUM=%albumtitle%" -T "DATE=%year%" -T "TRACKNUMBER=%tracknr%" -T "GENRE=%genre%" -T "PERFORMER=%albuminterpret%" -T "COMPOSER=%composer%" %haslyrics%--tag-from-file=LYRICS="%lyricsfile%"%haslyrics% -T "ALBUMARTIST=%albumartist%" -T "DISCNUMBER=%cdnumber%" -T "TOTALDISCS=%totalcds%" -T "TOTALTRACKS=%numtracks%" -T "COMMENT=%comment%" %source% -o %dest%

TOC of the extracted CD

Track | Start | Length | Start sector | End sector
---------------------------------------------------------
1 | 0:00.00 | 2:43.67 | 0 | 12291
2 | 2:43.67 | 3:19.53 | 12292 | 27269
3 | 6:03.45 | 3:43.62 | 27270 | 44056
4 | 9:47.32 | 4:18.05 | 44057 | 63411
5 | 14:05.37 | 3:28.59 | 63412 | 79070
6 | 17:34.21 | 3:24.69 | 79071 | 94439
7 | 20:59.15 | 4:49.11 | 94440 | 116125
8 | 25:48.26 | 4:05.51 | 116126 | 134551
9 | 29:54.02 | 3:50.44 | 134552 | 151845
10 | 33:44.46 | 4:03.29 | 151846 | 170099

Track 1

Filename R:\CD Rip\1-01 - The Prodigy - Need Some1.wav

Pre-gap length 0:00:02.00

Peak level 64.7 %
Extraction speed 3.8 X
Track quality 100.0 %
Test CRC 555D4ACD
Copy CRC 555D4ACD
Track not present in AccurateRip database
Copy OK

Track 2

Filename R:\CD Rip\1-02 - The Prodigy - Light Up Ther Sky.wav

Peak level 76.7 %
Extraction speed 4.2 X
Track quality 100.0 %
Test CRC C4488877
Copy CRC C4488877
Track not present in AccurateRip database
Copy OK

Track 3

Filename R:\CD Rip\1-03 - The Prodigy - We Live Forever.wav

Peak level 76.8 %
Extraction speed 4.7 X
Track quality 100.0 %
Test CRC F0E83C20
Copy CRC F0E83C20
Track not present in AccurateRip database
Copy OK

Track 4

Filename R:\CD Rip\1-04 - The Prodigy - No Tourists.wav

Peak level 79.6 %
Extraction speed 5.2 X
Track quality 100.0 %
Test CRC 0100D00B
Copy CRC 0100D00B
Track not present in AccurateRip database
Copy OK

Track 5

Filename R:\CD Rip\1-05 - The Prodigy - Fight Fire With Fire (feat. Ho9909).wav

Peak level 73.9 %
Extraction speed 4.5 X
Track quality 99.9 %
Test CRC D0DB9B08
Copy CRC D0DB9B08
Track not present in AccurateRip database
Copy OK

Track 6

Filename R:\CD Rip\1-06 - The Prodigy - Timebomb Zone.wav

Peak level 80.9 %
Extraction speed 5.9 X
Track quality 100.0 %
Test CRC 218FF2C2
Copy CRC 218FF2C2
Track not present in AccurateRip database
Copy OK

Track 7

Filename R:\CD Rip\1-07 - The Prodigy - Champions of London.wav

Peak level 92.2 %
Extraction speed 5.4 X
Track quality 99.9 %
Test CRC E07083D7
Copy CRC E07083D7
Track not present in AccurateRip database
Copy OK

Track 8

Filename R:\CD Rip\1-08 - The Prodigy - Boom Boom Tap.wav

Peak level 78.7 %
Extraction speed 5.5 X
Track quality 99.9 %
Test CRC C87D4468
Copy CRC C87D4468
Track not present in AccurateRip database
Copy OK

Track 9

Filename R:\CD Rip\1-09 - The Prodigy - Resonate.wav

Peak level 79.0 %
Extraction speed 6.8 X
Track quality 100.0 %
Test CRC 14206E41
Copy CRC 14206E41
Track not present in AccurateRip database
Copy OK

Track 10

Filename R:\CD Rip\1-10 - The Prodigy - Give Me A Signal (feat, Barns Courtney).wav

Peak level 87.7 %
Extraction speed 5.9 X
Track quality 99.9 %
Test CRC 9A106857
Copy CRC 9A106857
Track not present in AccurateRip database
Copy OK

None of the tracks are present in the AccurateRip database

No errors occurred

End of status report

---- CUETools DB Plugin V2.1.6

[CTDB TOCID: Nr9WR1mNyjcgUwjVqvabHMQ1AKs-] found
Submit result: Nr9WR1mNyjcgUwjVqvabHMQ1AKs- has been confirmed
Track | CTDB Status
1 | (16/16) Accurately ripped
2 | (16/16) Accurately ripped
3 | (16/16) Accurately ripped
4 | (16/16) Accurately ripped
5 | (16/16) Accurately ripped
6 | (16/16) Accurately ripped
7 | (16/16) Accurately ripped
8 | (16/16) Accurately ripped
9 | (16/16) Accurately ripped
10 | (16/16) Accurately ripped

==== Log checksum 02F89E5A6370525579D759962600EFB73E7F759A4D41E277878283923A955E42 ====
REM GENRE Electronic
REM DATE 2018
REM DISCID 8708DC0A
REM COMMENT "ExactAudioCopy v1.1"
PERFORMER "The Prodigy"
TITLE "No Tourists"
FILE "1-01 - The Prodigy - Need Some1.wav" WAVE
TRACK 01 AUDIO
TITLE "Need Some1"
PERFORMER "The Prodigy"
INDEX 01 00:00:00
FILE "1-02 - The Prodigy - Light Up Ther Sky.wav" WAVE
TRACK 02 AUDIO
TITLE "Light Up Ther Sky"
PERFORMER "The Prodigy"
INDEX 01 00:00:00
FILE "1-03 - The Prodigy - We Live Forever.wav" WAVE
TRACK 03 AUDIO
TITLE "We Live Forever"
PERFORMER "The Prodigy"
INDEX 01 00:00:00
FILE "1-04 - The Prodigy - No Tourists.wav" WAVE
TRACK 04 AUDIO
TITLE "No Tourists"
PERFORMER "The Prodigy"
INDEX 01 00:00:00
FILE "1-05 - The Prodigy - Fight Fire With Fire (feat. Ho9909).wav" WAVE
TRACK 05 AUDIO
TITLE "Fight Fire With Fire (feat. Ho9909)"
PERFORMER "The Prodigy"
INDEX 01 00:00:00
FILE "1-06 - The Prodigy - Timebomb Zone.wav" WAVE
TRACK 06 AUDIO
TITLE "Timebomb Zone"
PERFORMER "The Prodigy"
INDEX 01 00:00:00
FILE "1-07 - The Prodigy - Champions of London.wav" WAVE
TRACK 07 AUDIO
TITLE "Champions of London"
PERFORMER "The Prodigy"
INDEX 01 00:00:00
FILE "1-08 - The Prodigy - Boom Boom Tap.wav" WAVE
TRACK 08 AUDIO
TITLE "Boom Boom Tap"
PERFORMER "The Prodigy"
INDEX 01 00:00:00
FILE "1-09 - The Prodigy - Resonate.wav" WAVE
TRACK 09 AUDIO
TITLE "Resonate"
PERFORMER "The Prodigy"
INDEX 01 00:00:00
FILE "1-10 - The Prodigy - Give Me A Signal (feat, Barns Courtney).wav" WAVE
TRACK 10 AUDIO
TITLE "Give Me A Signal (feat, Barns Courtney)"
PERFORMER "The Prodigy"
INDEX 01 00:00:00
info [Профиль]  [ЛС] 

vofkagerasimov31

Пол: Пол:Муж

Стаж: 9 лет 3 месяца

Сообщений: 73

Предупреждений: 2

Мадагаскар
Рейтинг

post 06-Ноя-2018 19:18 (спустя 1 день 19 часов) [-]0[+]

[Цитировать] 

не возможно загрузить(((
инвалид торент файл

_________________
info [Профиль]  [ЛС] 

HORP

Стаж: 2 месяца 17 дней

Сообщений: 1

Россия
Рейтинг

post 07-Дек-2018 13:24 (спустя 1 месяц) [-]0[+]

[Цитировать] 

vofkagerasimov31 писал(а):

не возможно загрузить(((
инвалид торент файл
Все грузит. Не гони.
info [Профиль]  [ЛС] 
Показать сообщения:    
Ответить на тему

Текущее время: 19-Дек 16:41

Часовой пояс: GMT + 4



Вы не можете начинать темы
Вы не можете отвечать на сообщения
Вы не можете редактировать свои сообщения
Вы не можете удалять свои сообщения
Вы не можете голосовать в опросах
Вы не можете прикреплять файлы к сообщениям
Вы не можете скачивать файлы