Ошибка

(Score) Doom Music (Doom 1 & 2) (by Bobby Prince) - 1997 г., FLAC (image+.cue), lossless

Ответить на тему
 
Автор Сообщение

Hobbit38

Пол: Пол:Муж

Стаж: 4 года 5 месяцев

Сообщений: 664

Предупреждений: 1

Россия
Рейтинг

post 24-Янв-2018 12:21 [-]0[+]

[Цитировать] 


DOOM Music
Официальный диск с саундтреками Doom 1 и 2
Жанр: Score | Год выпуска: 1997 | Композитор: Bobby Prince

Страна-производитель диска: USA | Издатель (лейбл): Robert Prince - Bobby Prince Music, BMI | Номер каталога: N/A

Аудиокодек: FLAC (.flac) | Тип рипа: image+.cue | Битрейт аудио: lossless

Продолжительность: 01:11:34


01. The Healer Stalks (3:17)
02. At Doom's Gate (1:47)
03. Intermission from Doom (2:53)
04. On the Hunt (1:36)
05. The Demons from Adrian's Pen (3:21)
06. Suspense (2:50)
07. Running from Evil (4:10)
08. Waiting for Romero To Play (3:51)
09. Into Sandy's City (4:49)
10. Shawn's Got the Shotgun (4:27)
11. Sinister (3:05)
12. The End of Doom (2:59)
13. Kitchen Ace (And Taking Names) (3:53)
14. Opening to Hell (4:43)
15. They're Going to Get You (4:25)
16. The Demon's Dead (3:31)
17. Dark Halls (4:41)
18. Demons on the Prey (2:40)
19. Doom (4:25)
20. Donna to the Rescue (3:46)
 
X Lossless Decoder version 20130127 (142.3)
XLD extraction logfile from 2013-01-29 19:56:52 +1030
Bobby Prince / Doom Music
Used drive : PIONEER DVD-RW DVR-K06A (revision Q631)
Media type : Pressed CD
Ripper mode : XLD Secure Ripper
Disable audio cache : OK for the drive with a cache less than 1375KiB
Make use of C2 pointers : NO
Read offset correction : 48
Max retry count : 100
Gap status : Analyzed, Appended (except HTOA)
TOC of the extracted CD
Track | Start | Length | Start sector | End sector
---------------------------------------------------------
1 | 00:00:00 | 03:19:08 | 0 | 14932
2 | 03:19:08 | 01:48:67 | 14933 | 23099
3 | 05:08:00 | 02:55:08 | 23100 | 36232
4 | 08:03:08 | 01:38:01 | 36233 | 43583
5 | 09:41:09 | 03:22:00 | 43584 | 58733
6 | 13:03:09 | 02:51:62 | 58734 | 71620
7 | 15:54:71 | 04:11:34 | 71621 | 90479
8 | 20:06:30 | 03:52:25 | 90480 | 107904
9 | 23:58:55 | 04:50:02 | 107905 | 129656
10 | 28:48:57 | 04:28:01 | 129657 | 149757
11 | 33:16:58 | 03:06:33 | 149758 | 163740
12 | 36:23:16 | 03:00:60 | 163741 | 177300
13 | 39:24:01 | 03:54:44 | 177301 | 194894
14 | 43:18:45 | 04:43:50 | 194895 | 216169
15 | 48:02:20 | 04:25:59 | 216170 | 236103
16 | 52:28:04 | 03:31:32 | 236104 | 251960
17 | 55:59:36 | 04:41:26 | 251961 | 273061
18 | 60:40:62 | 02:41:20 | 273062 | 285156
19 | 63:22:07 | 04:25:49 | 285157 | 305080
20 | 67:47:56 | 03:46:36 | 305081 | 322066
AccurateRip Summary (DiscID: 003016b8-02d419d3-1310c614)
Track 01 : OK (v1, confidence 1/1)
Track 02 : OK (v1, confidence 1/1)
Track 03 : OK (v1, confidence 1/1)
Track 04 : OK (v1, confidence 1/1)
Track 05 : OK (v1, confidence 1/1)
Track 06 : OK (v1, confidence 1/1)
Track 07 : OK (v1, confidence 1/1)
Track 08 : OK (v1, confidence 1/1)
Track 09 : OK (v1, confidence 1/1)
Track 10 : OK (v1, confidence 1/1)
Track 11 : OK (v1, confidence 1/1)
Track 12 : OK (v1, confidence 1/1)
Track 13 : OK (v1, confidence 1/1)
Track 14 : OK (v1, confidence 1/1)
Track 15 : OK (v1, confidence 1/1)
Track 16 : OK (v1, confidence 1/1)
Track 17 : OK (v1, confidence 1/1)
Track 18 : OK (v1, confidence 1/1)
Track 19 : OK (v1, confidence 1/1)
Track 20 : OK (v1, confidence 1/1)
->All tracks accurately ripped.
All Tracks
Album gain : -4.24 dB
Peak : 0.966003
Statistics
Read error : 0
Jitter error (maybe fixed) : 0
Retry sector count : 0
Damaged sector count : 0
Track 01
Filename : /Users/Shared/Bobby Prince - Doom Music (1997) [FLAC]/01 The Healer Stalks.flac
Pre-gap length : 00:02:00
Track gain : 3.01 dB
Peak : 0.965973
CRC32 hash (test run) : 0941C35F
CRC32 hash : 0941C35F
CRC32 hash (skip zero) : FDB8BDA3
AccurateRip v1 signature : 0720FBCA
AccurateRip v2 signature : BE2F1B47
->Accurately ripped (v1, confidence 1/1)
Statistics
Read error : 0
Jitter error (maybe fixed) : 0
Retry sector count : 0
Damaged sector count : 0
Track 02
Filename : /Users/Shared/Bobby Prince - Doom Music (1997) [FLAC]/02 At Doom's Gate.flac
Pre-gap length : 00:02:00
Track gain : -5.98 dB
Peak : 0.965576
CRC32 hash (test run) : A450450F
CRC32 hash : A450450F
CRC32 hash (skip zero) : D63BF881
AccurateRip v1 signature : 6DCCD751
AccurateRip v2 signature : 1B7BC581
->Accurately ripped (v1, confidence 1/1)
Statistics
Read error : 0
Jitter error (maybe fixed) : 0
Retry sector count : 0
Damaged sector count : 0
Track 03
Filename : /Users/Shared/Bobby Prince - Doom Music (1997) [FLAC]/03 Intermission From Doom.flac
Pre-gap length : 00:02:00
Track gain : -4.13 dB
Peak : 0.966003
CRC32 hash (test run) : F978CC7B
CRC32 hash : F978CC7B
CRC32 hash (skip zero) : 501D1BC7
AccurateRip v1 signature : 86993B42
AccurateRip v2 signature : 9A02A6BE
->Accurately ripped (v1, confidence 1/1)
Statistics
Read error : 0
Jitter error (maybe fixed) : 0
Retry sector count : 0
Damaged sector count : 0
Track 04
Filename : /Users/Shared/Bobby Prince - Doom Music (1997) [FLAC]/04 On The Hunt.flac
Pre-gap length : 00:02:01
Track gain : -7.02 dB
Peak : 0.966003
CRC32 hash (test run) : 6A7EB483
CRC32 hash : 6A7EB483
CRC32 hash (skip zero) : B782CE4B
AccurateRip v1 signature : 672710B2
AccurateRip v2 signature : CECE46E8
->Accurately ripped (v1, confidence 1/1)
Statistics
Read error : 0
Jitter error (maybe fixed) : 0
Retry sector count : 0
Damaged sector count : 0
Track 05
Filename : /Users/Shared/Bobby Prince - Doom Music (1997) [FLAC]/05 The Demons From Adrian's Pen.flac
Pre-gap length : 00:02:00
Track gain : -1.42 dB
Peak : 0.965424
CRC32 hash (test run) : 25E7C8DD
CRC32 hash : 25E7C8DD
CRC32 hash (skip zero) : A08A00AA
AccurateRip v1 signature : F3F77D37
AccurateRip v2 signature : 60467C13
->Accurately ripped (v1, confidence 1/1)
Statistics
Read error : 0
Jitter error (maybe fixed) : 0
Retry sector count : 0
Damaged sector count : 0
Track 06
Filename : /Users/Shared/Bobby Prince - Doom Music (1997) [FLAC]/06 Suspense.flac
Pre-gap length : 00:02:01
Track gain : 1.50 dB
Peak : 0.965515
CRC32 hash (test run) : 2BB6795F
CRC32 hash : 2BB6795F
CRC32 hash (skip zero) : E173647C
AccurateRip v1 signature : 9D639231
AccurateRip v2 signature : F26BB277
->Accurately ripped (v1, confidence 1/1)
Statistics
Read error : 0
Jitter error (maybe fixed) : 0
Retry sector count : 0
Damaged sector count : 0
Track 07
Filename : /Users/Shared/Bobby Prince - Doom Music (1997) [FLAC]/07 Running From Evil.flac
Pre-gap length : 00:02:00
Track gain : -5.41 dB
Peak : 0.966003
CRC32 hash (test run) : F61920F6
CRC32 hash : F61920F6
CRC32 hash (skip zero) : EA38B808
AccurateRip v1 signature : 2C2CDD68
AccurateRip v2 signature : 74B91216
->Accurately ripped (v1, confidence 1/1)
Statistics
Read error : 0
Jitter error (maybe fixed) : 0
Retry sector count : 0
Damaged sector count : 0
Track 08
Filename : /Users/Shared/Bobby Prince - Doom Music (1997) [FLAC]/08 Waiting For Romero To Play.flac
Pre-gap length : 00:02:00
Track gain : -2.38 dB
Peak : 0.939178
CRC32 hash (test run) : 563FA290
CRC32 hash : 563FA290
CRC32 hash (skip zero) : FFB3AA3E
AccurateRip v1 signature : 89C30547
AccurateRip v2 signature : 6B8347AA
->Accurately ripped (v1, confidence 1/1)
Statistics
Read error : 0
Jitter error (maybe fixed) : 0
Retry sector count : 0
Damaged sector count : 0
Track 09
Filename : /Users/Shared/Bobby Prince - Doom Music (1997) [FLAC]/09 Into Sandy's City.flac
Pre-gap length : 00:02:01
Track gain : 1.32 dB
Peak : 0.683838
CRC32 hash (test run) : 1EE511AF
CRC32 hash : 1EE511AF
CRC32 hash (skip zero) : A45A2D04
AccurateRip v1 signature : 75816CEE
AccurateRip v2 signature : 4CF6CBAC
->Accurately ripped (v1, confidence 1/1)
Statistics
Read error : 0
Jitter error (maybe fixed) : 0
Retry sector count : 0
Damaged sector count : 0
Track 10
Filename : /Users/Shared/Bobby Prince - Doom Music (1997) [FLAC]/10 Shawn's Got The Shotgun.flac
Pre-gap length : 00:02:01
Track gain : -2.12 dB
Peak : 0.966003
CRC32 hash (test run) : 2E1627A5
CRC32 hash : 2E1627A5
CRC32 hash (skip zero) : 6F1A2410
AccurateRip v1 signature : 84C3CF65
AccurateRip v2 signature : B99FB9E5
->Accurately ripped (v1, confidence 1/1)
Statistics
Read error : 0
Jitter error (maybe fixed) : 0
Retry sector count : 0
Damaged sector count : 0
Track 11
Filename : /Users/Shared/Bobby Prince - Doom Music (1997) [FLAC]/11 Sinister.flac
Pre-gap length : 00:02:01
Track gain : -3.35 dB
Peak : 0.966003
CRC32 hash (test run) : 0E2F17D5
CRC32 hash : 0E2F17D5
CRC32 hash (skip zero) : F5EC4291
AccurateRip v1 signature : B3F5B577
AccurateRip v2 signature : 5B9C444B
->Accurately ripped (v1, confidence 1/1)
Statistics
Read error : 0
Jitter error (maybe fixed) : 0
Retry sector count : 0
Damaged sector count : 0
Track 12
Filename : /Users/Shared/Bobby Prince - Doom Music (1997) [FLAC]/12 The End Of Doom.flac
Pre-gap length : 00:02:00
Track gain : -2.49 dB
Peak : 0.965515
CRC32 hash (test run) : C7F01663
CRC32 hash : C7F01663
CRC32 hash (skip zero) : 5BDD49A6
AccurateRip v1 signature : 1C85EB2A
AccurateRip v2 signature : 9B343B91
->Accurately ripped (v1, confidence 1/1)
Statistics
Read error : 0
Jitter error (maybe fixed) : 0
Retry sector count : 0
Damaged sector count : 0
Track 13
Filename : /Users/Shared/Bobby Prince - Doom Music (1997) [FLAC]/13 Kitchen Ace (And Taking Names).flac
Pre-gap length : 00:02:01
Track gain : -4.46 dB
Peak : 0.966003
CRC32 hash (test run) : 7D7981BF
CRC32 hash : 7D7981BF
CRC32 hash (skip zero) : 3E347743
AccurateRip v1 signature : 88C13C0E
AccurateRip v2 signature : 2B92FBCF
->Accurately ripped (v1, confidence 1/1)
Statistics
Read error : 0
Jitter error (maybe fixed) : 0
Retry sector count : 0
Damaged sector count : 0
Track 14
Filename : /Users/Shared/Bobby Prince - Doom Music (1997) [FLAC]/14 Opening To Hell.flac
Pre-gap length : 00:02:01
Track gain : -1.38 dB
Peak : 0.966003
CRC32 hash (test run) : D6FB972E
CRC32 hash : D6FB972E
CRC32 hash (skip zero) : B15B95D2
AccurateRip v1 signature : A6C95B48
AccurateRip v2 signature : CC0E5F51
->Accurately ripped (v1, confidence 1/1)
Statistics
Read error : 0
Jitter error (maybe fixed) : 0
Retry sector count : 0
Damaged sector count : 0
Track 15
Filename : /Users/Shared/Bobby Prince - Doom Music (1997) [FLAC]/15 They're Going To Get You.flac
Pre-gap length : 00:02:00
Track gain : -3.87 dB
Peak : 0.965546
CRC32 hash (test run) : A8E8F926
CRC32 hash : A8E8F926
CRC32 hash (skip zero) : 0088FEB8
AccurateRip v1 signature : 9EBDABF2
AccurateRip v2 signature : B2072D57
->Accurately ripped (v1, confidence 1/1)
Statistics
Read error : 0
Jitter error (maybe fixed) : 0
Retry sector count : 0
Damaged sector count : 0
Track 16
Filename : /Users/Shared/Bobby Prince - Doom Music (1997) [FLAC]/16 The Demon's Dead.flac
Pre-gap length : 00:02:01
Track gain : -1.39 dB
Peak : 0.944977
CRC32 hash (test run) : 5A98B141
CRC32 hash : 5A98B141
CRC32 hash (skip zero) : 72646691
AccurateRip v1 signature : 5D58F7E6
AccurateRip v2 signature : EAD9D31B
->Accurately ripped (v1, confidence 1/1)
Statistics
Read error : 0
Jitter error (maybe fixed) : 0
Retry sector count : 0
Damaged sector count : 0
Track 17
Filename : /Users/Shared/Bobby Prince - Doom Music (1997) [FLAC]/17 Dark Halls.flac
Pre-gap length : 00:02:00
Track gain : -6.99 dB
Peak : 0.966003
CRC32 hash (test run) : 721D9BFF
CRC32 hash : 721D9BFF
CRC32 hash (skip zero) : 7BC77837
AccurateRip v1 signature : 5B74E8D9
AccurateRip v2 signature : 2422E26C
->Accurately ripped (v1, confidence 1/1)
Statistics
Read error : 0
Jitter error (maybe fixed) : 0
Retry sector count : 0
Damaged sector count : 0
Track 18
Filename : /Users/Shared/Bobby Prince - Doom Music (1997) [FLAC]/18 Demons On The Prey.flac
Pre-gap length : 00:02:00
Track gain : 0.87 dB
Peak : 0.966003
CRC32 hash (test run) : FEFF6B6D
CRC32 hash : FEFF6B6D
CRC32 hash (skip zero) : E9D47CC4
AccurateRip v1 signature : 712148EC
AccurateRip v2 signature : F067D302
->Accurately ripped (v1, confidence 1/1)
Statistics
Read error : 0
Jitter error (maybe fixed) : 0
Retry sector count : 0
Damaged sector count : 0
Track 19
Filename : /Users/Shared/Bobby Prince - Doom Music (1997) [FLAC]/19 Doom.flac
Pre-gap length : 00:02:01
Track gain : -3.83 dB
Peak : 0.965637
CRC32 hash (test run) : 326228E4
CRC32 hash : 326228E4
CRC32 hash (skip zero) : B5F21195
AccurateRip v1 signature : CF369DB6
AccurateRip v2 signature : 28B90B7F
->Accurately ripped (v1, confidence 1/1)
Statistics
Read error : 0
Jitter error (maybe fixed) : 0
Retry sector count : 0
Damaged sector count : 0
Track 20
Filename : /Users/Shared/Bobby Prince - Doom Music (1997) [FLAC]/20 Donna To The Rescue.flac
Pre-gap length : 00:02:01
Track gain : -2.58 dB
Peak : 0.966003
CRC32 hash (test run) : 725738E9
CRC32 hash : 725738E9
CRC32 hash (skip zero) : 27C7941E
AccurateRip v1 signature : 377C1142
AccurateRip v2 signature : 1F9ECC16
->Accurately ripped (v1, confidence 1/1)
Statistics
Read error : 0
Jitter error (maybe fixed) : 0
Retry sector count : 0
Damaged sector count : 0
No errors occurred
End of status report

Роберт Принс, также известный как Бобби Принс, композитор и саунд-дизайнер, работавший в качестве независимого эксперта для нескольких компаний, в первую очередь Id Software и Apogee/3D Realms. Создал музыку и звуковые эффекты для следующих игр: Wolfenstein 3D, Doom, Doom II, Duke Nukem II and Duke Nukem 3D и др.

[url]https://ru.wikipedia.org/wiki/Принс,_Роберт[/url]
http://en.wikipedia.org/wiki/Robert_Prince_%28video_game_composer%29
Композитором игры был Бобби Принс, ранее работавший над Commander Keen и Wolfenstein 3D. Изначально Ромеро дал Принсу несколько записей в стиле heavy metal и попросил сделать что-то подобное. Также они решили, что этот стиль подходит не для всех уровней, и Принс сделал несколько треков в стиле «эмбиент».
Озвучка была смикширована частично из звуков животных, частично из записанных Ромеро и Принсом звуков.

https://ru.wikipedia.org/wiki/Doom#.D0.97.D0.B2.D1.83.D0.BA
Музыка в стиле Doom. В чем секрет саундтрека легендарной игры.

Как Alice in Chains, Slayer и Metallica помогли создать музыку к одной из важнейших игр на планете.


На выставке Quake Con, которая пройдет с 17 по 20 июля, состоится премьера перезапуска Doom. Было бы лукавством сказать, что мы почти ничего не знаем о грядущей игре - это же Doom. Судя по аббревиатуре UAC на оружии показанного в трейлере чудовища, мы снова окажемся на Марсе, наводненном демонами. Еще одна тонкая деталь: звук открывающейся двери в ролике - такой же, как в Doom и Doom 2. Этих двух моментов оказалось достаточно для того, чтобы зарядить нас желанием рассказать вам о Doom чуть больше, чем "это игра про коридоры, демонов и дробовик".
https://www.youtube.com/watch?v=cYjR5UzhcZA

Одна из лучших вещей, которые есть в первых двух частях Doom - это саундтрек. С момента выпуска оригинальной игры прошло двадцать лет, а поклонники по-прежнему записывают каверы на композиции, сочиненные Бобби Принсом, и не планируют останавливаться. Минутку... сочиненные? Здесь и начинаются интересные открытия.

Американский композитор Роберт "Бобби" Принс знаменит своей работой над Doom, Doom 2 и Duke Nukem 3D. Принс долгое время сотрундичал с id Software, начав с самой первой Commander Keen, но всегда был внештатным работником. Офису он предпочитал домоседство и изоляцию. Ввиду достаточно долгой истории партнерства, работники id не возражали против такой схемы.

Когда была написана Doom Bible, Том Холл, один из основателей компании, заглянул к Принсу и вручил ему экземпляр. В "Библии", как называли в id этот дизайн-документ, достаточно подробно расписано устройство игры, действующие лица и происходящее в эпизодах. И хоть от многого описанного Холлом в Doom Bible id в итоге отказались по массе причин, Принсу было достаточно данных для вдохновения.

Направить Принса взялся Джон Ромеро. В различных источниках указывается, что однажды он занес композитору кассету с Black Sabbath эпохи Тони Мартина.

Согласно другим данным, кассет было несколько, и на них был записан различный актуальный металл. Сам Принс вспоминает тот эпизод так: "Id хотели, чтобы музыка в Doom была преимущественно тяжелой". Как бы то ни было, в процессе работы Принс совершенно точно слушал не только Black Sabbath, а уж разработчики подкинули ему пару правильных альбомов, или он сам поинтересовался - не имеет никакого значения.

Вот несколько примеров:

Вот несколько примеров.
Doom - E1M1 - Metallica
Пожалуй, самая знаменитая композиция из Doom, которая и открывает игру. Часто указывается, что эту мелодию Принс подрезал из песни "No Remorse" группы Metallica. Сам принцип риффа использовался в металле второй половине восьмидесятых достаточно часто.

Doom - E2M1 - AC/DC
Основу композиции, которая звучит на первом уровне второго эпизода "Shores of Hell", Принс позаимствовал у автралийской группы AC/DC. Песня Big Gun, о которой идет речь, стала заглавной композицией фильма "Последний киногерой" (Last Action Hero) с Арнольдом Шварценеггером в главной роли. На эту песню также был снят самый стыдный в мире клип.
https://www.youtube.com/watch?v=nLsXJitaiVo

Doom - E3M1 - Pantera
Рифф, звучащий на протяжении всей темы первого уровня третьего эпизода Doom "Inferno", украден у американской группы Pantera. Речь идет о песне"Mouth for War" с альбома Vulgar Display of Power.

Doom - E3M3 - Slayer
Действие третьего уровня третьего эпизода разворачивается под дословную цитату песни "Behind the Crooked Cross" группы Slayer.

Doom 2 - Dead Simple - Slayer
Седьмой и последний в первом эпизоде Doom 2 уровень Dead Simple - и снова Slayer, песня "South of Heaven"

Doom 2 - Refueling Base - Black Sabbath
В основу одной из самых мрачных композиций всего саундтрека легла песня "After All (The Dead)" группы Black Sabbath с альбома Dehumanizer 1992 года.

Doom 2 - The Courtyard - Pantera
Здесь Принс снова обратился к Pantera. Песня "This Love".

Doom 2 - Barrels o' Fun - Alice in Chains
В этом треке Принс вдохновился творчеством сиэтлской гранж-команды Alice in Chains. Речь идет о песне "Them Bones" с альбома Dirt - пожалуй, самой тяжелой (и популярной) пластинки группы.

Doom 2 - Bloodfalls - Alice in Chains
Снова Alice in Chains и альбом Dirt, но на этот раз - депрессивный боевик (кажется, так умели только AiC) "Angry Chair".

В интернете принято ругать Принса за плагиат. Здесь важно знать о нескольких вещах. Во-первых, в любом прикладном творчестве - будь то иллюстрации, концепт-арты или саундтреки - есть такое понятие как "референс". Это произведение, которое выдается артисту для ориентира: сделай, как вот тут, но по-другому. Собственно, с этой задачей Принс справился. Интересно, что композитор до старта карьеры музыканта был адвокатом, и доподлинно знал, сколько и как можно украсть, чтобы потом не получить от правообладателей иск.

С учетом того, что все использованные песни были актуальны в конце восьмидесятых - начале девяностых, Принс сделал саундтрек еще и конъюнктурным. А вся хорошая музыка, как известно, на что-то похожа. Если бы в 1993 году мне было достаточно много лет, чтобы сыграть в Doom и узнать в саундтреке мелодии любимых групп, я был бы счастлив.

Сейчас, когда мы играем на устройствах с усредненными техническими возможностями, слово "мультиплатформа" для нас означает лишь то, что кроме пользователей Xbox 360 в Titanfall играют еще и владельцы PC и Xbox One. В девяностых все обстояло иначе, и на разных платформах игры выглядели и звучали подчас совсем по-разному. Doom из их числа.

Петр Сальников 14 июля 2014 14:11

info [Профиль]  [ЛС] 

The Buzzhorn

Пол: Пол:Муж

Стаж: 8 лет

Сообщений: 1052

Германия
Рейтинг

post 24-Янв-2018 21:32 (спустя 9 часов) [-]0[+]

[Цитировать] 

Цитата:

Тип рипа: image+.cue
В описании раздачи указан лог от потрекового рипа + отсутствует файл разметки в описании.

 !  The Buzzhorn:
! Неточный рип
info [Профиль]  [ЛС] 

Hobbit38

Пол: Пол:Муж

Стаж: 4 года 5 месяцев

Сообщений: 664

Предупреждений: 1

Россия
Рейтинг

post 25-Янв-2018 16:21 (спустя 18 часов) [-]0[+]

[Цитировать] 

The Buzzhorn
Добавил файл разметки в описание.
info [Профиль]  [ЛС] 

Молескин

Пол: Пол:Муж

Стаж: 9 месяцев 12 дней

Сообщений: 118

Россия
Рейтинг

post 25-Янв-2018 21:46 (спустя 5 часов) [-]0[+]

[Цитировать] 

Hobbit38 писал(а):

The Buzzhorn
Добавил файл разметки в описание.
куй от образа с CUETools, вот родной потрековый с XLD изначально рип был потрековый 2013-01-29 и риповался XLD альтернативой EAC в UNIX
TITLE "Doom Music" 
PERFORMER "Bobby Prince"
REM GENRE "Soundtrack"
REM DATE "1997"
REM DISCNUMBER 1
REM TOTALDISCS 1
REM DISCID 1310C614
REM REPLAYGAIN_ALBUM_GAIN -4.24 dB
REM REPLAYGAIN_ALBUM_PEAK 0.966003
FILE "01 The Healer Stalks.flac" WAVE
TRACK 01 AUDIO
TITLE "The Healer Stalks"
SONGWRITER "Bobby Prince"
REM REPLAYGAIN_TRACK_GAIN 3.01 dB
REM REPLAYGAIN_TRACK_PEAK 0.965973
INDEX 01 00:00:00
TRACK 02 AUDIO
TITLE "At Doom's Gate"
SONGWRITER "Bobby Prince"
REM REPLAYGAIN_TRACK_GAIN -5.98 dB
REM REPLAYGAIN_TRACK_PEAK 0.965576
INDEX 00 03:17:08
FILE "02 At Doom's Gate.flac" WAVE
INDEX 01 00:00:00
TRACK 03 AUDIO
TITLE "Intermission From Doom"
SONGWRITER "Bobby Prince"
REM REPLAYGAIN_TRACK_GAIN -4.13 dB
REM REPLAYGAIN_TRACK_PEAK 0.966003
INDEX 00 01:46:67
FILE "03 Intermission From Doom.flac" WAVE
INDEX 01 00:00:00
TRACK 04 AUDIO
TITLE "On The Hunt"
SONGWRITER "Bobby Prince"
REM REPLAYGAIN_TRACK_GAIN -7.02 dB
REM REPLAYGAIN_TRACK_PEAK 0.966003
INDEX 00 02:53:07
FILE "04 On The Hunt.flac" WAVE
INDEX 01 00:00:00
TRACK 05 AUDIO
TITLE "The Demons From Adrian's Pen"
SONGWRITER "Bobby Prince"
REM REPLAYGAIN_TRACK_GAIN -1.42 dB
REM REPLAYGAIN_TRACK_PEAK 0.965424
INDEX 00 01:36:01
FILE "05 The Demons From Adrian's Pen.flac" WAVE
INDEX 01 00:00:00
TRACK 06 AUDIO
TITLE "Suspense"
SONGWRITER "Bobby Prince"
REM REPLAYGAIN_TRACK_GAIN 1.50 dB
REM REPLAYGAIN_TRACK_PEAK 0.965515
INDEX 00 03:19:74
FILE "06 Suspense.flac" WAVE
INDEX 01 00:00:00
TRACK 07 AUDIO
TITLE "Running From Evil"
SONGWRITER "Bobby Prince"
REM REPLAYGAIN_TRACK_GAIN -5.41 dB
REM REPLAYGAIN_TRACK_PEAK 0.966003
INDEX 00 02:49:62
FILE "07 Running From Evil.flac" WAVE
INDEX 01 00:00:00
TRACK 08 AUDIO
TITLE "Waiting For Romero To Play"
SONGWRITER "Bobby Prince"
REM REPLAYGAIN_TRACK_GAIN -2.38 dB
REM REPLAYGAIN_TRACK_PEAK 0.939178
INDEX 00 04:09:34
FILE "08 Waiting For Romero To Play.flac" WAVE
INDEX 01 00:00:00
TRACK 09 AUDIO
TITLE "Into Sandy's City"
SONGWRITER "Bobby Prince"
REM REPLAYGAIN_TRACK_GAIN 1.32 dB
REM REPLAYGAIN_TRACK_PEAK 0.683838
INDEX 00 03:50:24
FILE "09 Into Sandy's City.flac" WAVE
INDEX 01 00:00:00
TRACK 10 AUDIO
TITLE "Shawn's Got The Shotgun"
SONGWRITER "Bobby Prince"
REM REPLAYGAIN_TRACK_GAIN -2.12 dB
REM REPLAYGAIN_TRACK_PEAK 0.966003
INDEX 00 04:48:01
FILE "10 Shawn's Got The Shotgun.flac" WAVE
INDEX 01 00:00:00
TRACK 11 AUDIO
TITLE "Sinister"
SONGWRITER "Bobby Prince"
REM REPLAYGAIN_TRACK_GAIN -3.35 dB
REM REPLAYGAIN_TRACK_PEAK 0.966003
INDEX 00 04:26:00
FILE "11 Sinister.flac" WAVE
INDEX 01 00:00:00
TRACK 12 AUDIO
TITLE "The End Of Doom"
SONGWRITER "Bobby Prince"
REM REPLAYGAIN_TRACK_GAIN -2.49 dB
REM REPLAYGAIN_TRACK_PEAK 0.965515
INDEX 00 03:04:33
FILE "12 The End Of Doom.flac" WAVE
INDEX 01 00:00:00
TRACK 13 AUDIO
TITLE "Kitchen Ace (And Taking Names)"
SONGWRITER "Bobby Prince"
REM REPLAYGAIN_TRACK_GAIN -4.46 dB
REM REPLAYGAIN_TRACK_PEAK 0.966003
INDEX 00 02:58:59
FILE "13 Kitchen Ace (And Taking Names).flac" WAVE
INDEX 01 00:00:00
TRACK 14 AUDIO
TITLE "Opening To Hell"
SONGWRITER "Bobby Prince"
REM REPLAYGAIN_TRACK_GAIN -1.38 dB
REM REPLAYGAIN_TRACK_PEAK 0.966003
INDEX 00 03:52:43
FILE "14 Opening To Hell.flac" WAVE
INDEX 01 00:00:00
TRACK 15 AUDIO
TITLE "They're Going To Get You"
SONGWRITER "Bobby Prince"
REM REPLAYGAIN_TRACK_GAIN -3.87 dB
REM REPLAYGAIN_TRACK_PEAK 0.965546
INDEX 00 04:41:50
FILE "15 They're Going To Get You.flac" WAVE
INDEX 01 00:00:00
TRACK 16 AUDIO
TITLE "The Demon's Dead"
SONGWRITER "Bobby Prince"
REM REPLAYGAIN_TRACK_GAIN -1.39 dB
REM REPLAYGAIN_TRACK_PEAK 0.944977
INDEX 00 04:23:58
FILE "16 The Demon's Dead.flac" WAVE
INDEX 01 00:00:00
TRACK 17 AUDIO
TITLE "Dark Halls"
SONGWRITER "Bobby Prince"
REM REPLAYGAIN_TRACK_GAIN -6.99 dB
REM REPLAYGAIN_TRACK_PEAK 0.966003
INDEX 00 03:29:32
FILE "17 Dark Halls.flac" WAVE
INDEX 01 00:00:00
TRACK 18 AUDIO
TITLE "Demons On The Prey"
SONGWRITER "Bobby Prince"
REM REPLAYGAIN_TRACK_GAIN 0.87 dB
REM REPLAYGAIN_TRACK_PEAK 0.966003
INDEX 00 04:39:26
FILE "18 Demons On The Prey.flac" WAVE
INDEX 01 00:00:00
TRACK 19 AUDIO
TITLE "Doom"
SONGWRITER "Bobby Prince"
REM REPLAYGAIN_TRACK_GAIN -3.83 dB
REM REPLAYGAIN_TRACK_PEAK 0.965637
INDEX 00 02:39:19
FILE "19 Doom.flac" WAVE
INDEX 01 00:00:00
TRACK 20 AUDIO
TITLE "Donna To The Rescue"
SONGWRITER "Bobby Prince"
REM REPLAYGAIN_TRACK_GAIN -2.58 dB
REM REPLAYGAIN_TRACK_PEAK 0.966003
INDEX 00 04:23:48
FILE "20 Donna To The Rescue.flac" WAVE
INDEX 01 00:00:00
info [Профиль]  [ЛС] 

post 22-Фев-2018 00:00 (спустя 27 дней) [-]0[+]

Топик был перенесен из форума Саундтреки к играм (lossless) в форум Архив (Саундтреки)

The Buzzhorn
 
Показать сообщения:    
Ответить на тему

Текущее время: 20-Окт 22:24

Часовой пояс: GMT + 4



Вы не можете начинать темы
Вы не можете отвечать на сообщения
Вы не можете редактировать свои сообщения
Вы не можете удалять свои сообщения
Вы не можете голосовать в опросах
Вы не можете прикреплять файлы к сообщениям
Вы не можете скачивать файлы