Ошибка

(Rock) Wolf Hoffmann - Headbangers Symphony - 2016, FLAC (tracks+.cue), lossless

Ответить на тему
 
Автор Сообщение

Молескин

Пол: Пол:Муж

Стаж: 5 месяцев 12 дней

Сообщений: 105

Россия
Рейтинг

post 14-Янв-2018 03:25 1[+]

[Цитировать] 

Wolf Hoffmann - Headbangers Symphony

Жанр: Rock
Год издания данного носителя: 2016
Страна-производитель носителя: Germany
Лейбл: Nuclear Blast
Каталоговый номер: NB 3698-0, 27361 36980
Аудио кодек: FLAC
Тип рипа: tracks+.cue
Битрейт аудио: lossless
Продолжительность: 00:48:22
Источник: CD
Полиграфия: Присутствует


Треклист:
01. Scherzo
02. Night on Bald Mountain
03. Je Crois Entendre Encore
04. Double Cello Concerto in G Minor
05. Adagio
06. Symphony No. 40
07. Swan Lake
08. Madame Butterfly
09. Pathétique
10. Meditation
11. Air on the G String


Exact Audio Copy V1.1 from 23. June 2015 

EAC extraction logfile from 14. July 2016, 21:25

Wolf Hoffmann / Headbangers Symphony

Used drive : PLEXTOR DVDR PX-891SA Adapter: 1 ID: 0

Read mode : Secure
Utilize accurate stream : Yes
Defeat audio cache : Yes
Make use of C2 pointers : No

Read offset correction : 6
Overread into Lead-In and Lead-Out : No
Fill up missing offset samples with silence : Yes
Delete leading and trailing silent blocks : No
Null samples used in CRC calculations : Yes
Used interface : Native Win32 interface for Win NT & 2000
Gap handling : Appended to previous track

Used output format : User Defined Encoder
Selected bitrate : 1024 kBit/s
Quality : High
Add ID3 tag : No
Command line compressor : C:\Program Files (x86)\Exact Audio Copy\Flac\flac.exe
Additional command line options : -0 -V -T "ARTIST=%artist%" -T "TITLE=%title%" -T "ALBUM=%albumtitle%" -T "DATE=%year%" -T "TRACKNUMBER=%tracknr%" -T "TOTALTRACKS=%numtracks%" -T "GENRE=%genre%" -T "COMMENT=Naftamusic Release!" %source%

TOC of the extracted CD

Track | Start | Length | Start sector | End sector
---------------------------------------------------------
1 | 0:00.00 | 5:22.41 | 0 | 24190
2 | 5:22.41 | 4:22.03 | 24191 | 43843
3 | 9:44.44 | 4:17.03 | 43844 | 63121
4 | 14:01.47 | 3:31.45 | 63122 | 78991
5 | 17:33.17 | 5:45.72 | 78992 | 104938
6 | 23:19.14 | 4:10.59 | 104939 | 123747
7 | 27:29.73 | 4:45.60 | 123748 | 145182
8 | 32:15.58 | 3:57.27 | 145183 | 162984
9 | 36:13.10 | 5:14.31 | 162985 | 186565
10 | 41:27.41 | 4:04.73 | 186566 | 204938
11 | 45:32.39 | 2:50.08 | 204939 | 217696

Track 1

Filename E:\Nafta Releases\Wolf Hoffmann - Headbangers Symphony (2016)[FLAC] - Naftamusic\01 - Scherzo.wav

Pre-gap length 0:00:02.00

Peak level 92.2 %
Extraction speed 2.0 X
Track quality 100.0 %
Test CRC 20C2258B
Copy CRC 20C2258B
Track not present in AccurateRip database
Copy OK

Track 2

Filename E:\Nafta Releases\Wolf Hoffmann - Headbangers Symphony (2016)[FLAC] - Naftamusic\02 - Night on Bald Mountain.wav

Pre-gap length 0:00:01.37

Peak level 92.9 %
Extraction speed 2.2 X
Track quality 100.0 %
Test CRC C12A212B
Copy CRC C12A212B
Track not present in AccurateRip database
Copy OK

Track 3

Filename E:\Nafta Releases\Wolf Hoffmann - Headbangers Symphony (2016)[FLAC] - Naftamusic\03 - Je Crois Entendre Encore.wav

Pre-gap length 0:00:02.00

Peak level 92.2 %
Extraction speed 2.4 X
Track quality 100.0 %
Test CRC A20093EF
Copy CRC A20093EF
Track not present in AccurateRip database
Copy OK

Track 4

Filename E:\Nafta Releases\Wolf Hoffmann - Headbangers Symphony (2016)[FLAC] - Naftamusic\04 - Double Cello Concerto in G Minor.wav

Pre-gap length 0:00:02.00

Peak level 92.2 %
Extraction speed 2.5 X
Track quality 100.0 %
Test CRC CB90221D
Copy CRC CB90221D
Track not present in AccurateRip database
Copy OK

Track 5

Filename E:\Nafta Releases\Wolf Hoffmann - Headbangers Symphony (2016)[FLAC] - Naftamusic\05 - Adagio.wav

Pre-gap length 0:00:01.56

Peak level 92.2 %
Extraction speed 2.8 X
Track quality 100.0 %
Test CRC E780A8AA
Copy CRC E780A8AA
Track not present in AccurateRip database
Copy OK

Track 6

Filename E:\Nafta Releases\Wolf Hoffmann - Headbangers Symphony (2016)[FLAC] - Naftamusic\06 - Symphony No. 40.wav

Pre-gap length 0:00:02.37

Peak level 92.2 %
Extraction speed 2.9 X
Track quality 100.0 %
Test CRC AEF3F207
Copy CRC AEF3F207
Track not present in AccurateRip database
Copy OK

Track 7

Filename E:\Nafta Releases\Wolf Hoffmann - Headbangers Symphony (2016)[FLAC] - Naftamusic\07 - Swan Lake.wav

Pre-gap length 0:00:02.30

Peak level 92.2 %
Extraction speed 3.1 X
Track quality 100.0 %
Test CRC 62EE8E95
Copy CRC 62EE8E95
Track not present in AccurateRip database
Copy OK

Track 8

Filename E:\Nafta Releases\Wolf Hoffmann - Headbangers Symphony (2016)[FLAC] - Naftamusic\08 - Madame Butterfly.wav

Pre-gap length 0:00:02.00

Peak level 92.2 %
Extraction speed 2.3 X
Track quality 99.9 %
Test CRC F89212BA
Copy CRC F89212BA
Track not present in AccurateRip database
Copy OK

Track 9

Filename E:\Nafta Releases\Wolf Hoffmann - Headbangers Symphony (2016)[FLAC] - Naftamusic\09 - Pathétique.wav

Pre-gap length 0:00:01.18

Peak level 92.2 %
Extraction speed 2.7 X
Track quality 99.9 %
Test CRC 372DC752
Copy CRC 372DC752
Track not present in AccurateRip database
Copy OK

Track 10

Filename E:\Nafta Releases\Wolf Hoffmann - Headbangers Symphony (2016)[FLAC] - Naftamusic\10 - Meditation.wav

Pre-gap length 0:00:03.00

Peak level 92.2 %
Extraction speed 3.5 X
Track quality 100.0 %
Test CRC A8DB90E9
Copy CRC A8DB90E9
Track not present in AccurateRip database
Copy OK

Track 11

Filename E:\Nafta Releases\Wolf Hoffmann - Headbangers Symphony (2016)[FLAC] - Naftamusic\11 - Air on the G String.wav

Pre-gap length 0:00:01.30

Peak level 92.2 %
Extraction speed 3.4 X
Track quality 100.0 %
Test CRC 5F9FA0B8
Copy CRC 5F9FA0B8
Track not present in AccurateRip database
Copy OK

None of the tracks are present in the AccurateRip database

No errors occurred

End of status report

==== Log checksum 30AEE2DFE56E8C7C1D74780A2D24DE01C022FD7A461FC21955B373877B923BC7 ====

REM GENRE Pop/Rock 
REM DATE 2016
REM DISCID 950B560B
REM COMMENT "ExactAudioCopy v1.1"
PERFORMER "Wolf Hoffmann"
TITLE "Headbangers Symphony"
FILE "01 - Scherzo.wav" WAVE
TRACK 01 AUDIO
TITLE "Scherzo"
PERFORMER "Wolf Hoffmann"
INDEX 01 00:00:00
TRACK 02 AUDIO
TITLE "Night on Bald Mountain"
PERFORMER "Wolf Hoffmann"
INDEX 00 05:21:04
FILE "02 - Night on Bald Mountain.wav" WAVE
INDEX 01 00:00:00
TRACK 03 AUDIO
TITLE "Je Crois Entendre Encore"
PERFORMER "Wolf Hoffmann"
INDEX 00 04:20:03
FILE "03 - Je Crois Entendre Encore.wav" WAVE
INDEX 01 00:00:00
TRACK 04 AUDIO
TITLE "Double Cello Concerto in G Minor"
PERFORMER "Wolf Hoffmann"
INDEX 00 04:15:03
FILE "04 - Double Cello Concerto in G Minor.wav" WAVE
INDEX 01 00:00:00
TRACK 05 AUDIO
TITLE "Adagio"
PERFORMER "Wolf Hoffmann"
INDEX 00 03:29:64
FILE "05 - Adagio.wav" WAVE
INDEX 01 00:00:00
TRACK 06 AUDIO
TITLE "Symphony No. 40"
PERFORMER "Wolf Hoffmann"
INDEX 00 05:43:35
FILE "06 - Symphony No. 40.wav" WAVE
INDEX 01 00:00:00
TRACK 07 AUDIO
TITLE "Swan Lake"
PERFORMER "Wolf Hoffmann"
INDEX 00 04:08:29
FILE "07 - Swan Lake.wav" WAVE
INDEX 01 00:00:00
TRACK 08 AUDIO
TITLE "Madame Butterfly"
PERFORMER "Wolf Hoffmann"
INDEX 00 04:43:60
FILE "08 - Madame Butterfly.wav" WAVE
INDEX 01 00:00:00
TRACK 09 AUDIO
TITLE "Pathйtique"
PERFORMER "Wolf Hoffmann"
INDEX 00 03:56:09
FILE "09 - Pathetique.wav" WAVE
INDEX 01 00:00:00
TRACK 10 AUDIO
TITLE "Meditation"
PERFORMER "Wolf Hoffmann"
INDEX 00 05:11:31
FILE "10 - Meditation.wav" WAVE
INDEX 01 00:00:00
TRACK 11 AUDIO
TITLE "Air on the G String"
PERFORMER "Wolf Hoffmann"
INDEX 00 04:03:43
FILE "11 - Air on the G String.wav" WAVE
INDEX 01 00:00:00


Discogs

          
info [Профиль]  [ЛС] 
Показать сообщения:    
Ответить на тему

Текущее время: 20-Июн 19:26

Часовой пояс: GMT + 4



Вы не можете начинать темы
Вы не можете отвечать на сообщения
Вы не можете редактировать свои сообщения
Вы не можете удалять свои сообщения
Вы не можете голосовать в опросах
Вы не можете прикреплять файлы к сообщениям
Вы не можете скачивать файлы