Ошибка
Загрузка...

(Pop Rock) VA - DetcКий CaD. Штаны На Лямках - 2002, FLAC (tracks+.cue), lossless

Ответить на тему
 
Автор Сообщение

Молескин

Пол: Пол:Муж

Стаж: 8 месяцев 13 дней

Сообщений: 117

Россия
Рейтинг

post 14-Янв-2018 02:31 0[+]

[Цитировать] 

VA - DetcКий CaD. Штаны На Лямках

Жанр: Pop Rock
Год издания данного носителя: 2002
Страна-производитель носителя: Россия
Лейбл: Real Records
Каталоговый номер: RR-196-CD
Аудио кодек: FLAC
Тип рипа: tracks+.cue
Битрейт аудио: lossless
Продолжительность: 00:57:52
Источник: CD
Полиграфия: Присутствует


Треклист:
01. Ключи - Облака!
02. Приключения Электроников - Прекрасное далеко
03. Элизиум - Три белых коня
04. Леприконсы - Песенка зайца и волка на карнавале
05. Тайм-Аут - Бу-ра-ти-но
06. Distemper - Первая песня разбойников
07. Чичерина - Ветер перемен
08. Borzov`s & Yalta Electric Band - Мария, Мирабела
09. Мультfильмы - Крылатые качели
10. Drugly Cats - Серенада Трубадура
11. Дети Picasso - Песня Красной Шапочки
12. 2ва Самолета - Песня Львенка и Черепахи
13. Каберне Денев - Какое мне дело
14. Ногу свело - Я шагаю по Москве
15. Юта - Песня Забавы
16. Плед - Песенка Мамонтенка
17. Дубы-колдуны - Парад заграничных певцов
18. Jeff и Краденое Солнце - Кручу педали
19. Седьмой Прохожий - Первая песня разбойников


Exact Audio Copy V1.0 beta 3 from 29. August 2011 

EAC extraction logfile from 2. August 2015, 17:26

Various Artists / DetcКий CaD. Штаны На Лямках

Used drive : TSSTcorpCDDVDW SH-224DB Adapter: 0 ID: 1

Read mode : Secure
Utilize accurate stream : Yes
Defeat audio cache : Yes
Make use of C2 pointers : No

Read offset correction : 6
Overread into Lead-In and Lead-Out : No
Fill up missing offset samples with silence : Yes
Delete leading and trailing silent blocks : No
Null samples used in CRC calculations : Yes
Used interface : Installed external ASPI interface
Gap handling : Appended to previous track

Used output format : User Defined Encoder
Selected bitrate : 1024 kBit/s
Quality : High
Add ID3 tag : No
Command line compressor : D:\Program Files\Foobar2000\encoders\flac.exe
Additional command line options : -V -8 -T "Date=%year%" -T "Genre=%genre%" %source%

TOC of the extracted CD

Track | Start | Length | Start sector | End sector
---------------------------------------------------------
1 | 0:00.00 | 2:44.18 | 0 | 12317
2 | 2:44.18 | 1:40.61 | 12318 | 19878
3 | 4:25.04 | 2:26.58 | 19879 | 30886
4 | 6:51.62 | 2:50.48 | 30887 | 43684
5 | 9:42.35 | 3:01.58 | 43685 | 57317
6 | 12:44.18 | 3:22.67 | 57318 | 72534
7 | 16:07.10 | 3:05.61 | 72535 | 86470
8 | 19:12.71 | 3:45.69 | 86471 | 103414
9 | 22:58.65 | 5:22.32 | 103415 | 127596
10 | 28:21.22 | 2:23.55 | 127597 | 138376
11 | 30:45.02 | 3:38.67 | 138377 | 154793
12 | 34:23.69 | 2:58.66 | 154794 | 168209
13 | 37:22.60 | 2:48.60 | 168210 | 180869
14 | 40:11.45 | 2:59.52 | 180870 | 194346
15 | 43:11.22 | 3:14.37 | 194347 | 208933
16 | 46:25.59 | 2:43.33 | 208934 | 221191
17 | 49:09.17 | 2:48.63 | 221192 | 233854
18 | 51:58.05 | 2:30.52 | 233855 | 245156
19 | 54:28.57 | 3:23.33 | 245157 | 260414

Track 1

Filename D:\Desktop\VA - DetcКий CaD. Штаны На Лямках (2002)\01. Ключи - Облака!.wav

Pre-gap length 0:00:02.00

Peak level 89.1 %
Extraction speed 4.6 X
Track quality 100.0 %
Test CRC 278BE229
Copy CRC 278BE229
Accurately ripped (confidence 1) [878405CE] (AR v2)
Copy OK

Track 2

Filename D:\Desktop\VA - DetcКий CaD. Штаны На Лямках (2002)\02. Приключения Электроников - Прекрасное далеко.wav

Pre-gap length 0:00:02.00

Peak level 85.9 %
Extraction speed 4.2 X
Track quality 100.0 %
Test CRC 08CEB550
Copy CRC 08CEB550
Accurately ripped (confidence 1) [47DF075E] (AR v2)
Copy OK

Track 3

Filename D:\Desktop\VA - DetcКий CaD. Штаны На Лямках (2002)\03. Элизиум - Три белых коня.wav

Pre-gap length 0:00:02.00

Peak level 85.9 %
Extraction speed 4.9 X
Track quality 100.0 %
Test CRC 7383BB9D
Copy CRC 7383BB9D
Accurately ripped (confidence 1) [B9C19A7D] (AR v2)
Copy OK

Track 4

Filename D:\Desktop\VA - DetcКий CaD. Штаны На Лямках (2002)\04. Леприконсы - Песенка зайца и волка на карнавале.wav

Pre-gap length 0:00:02.00

Peak level 85.9 %
Extraction speed 3.8 X
Track quality 99.9 %
Test CRC EA161057
Copy CRC EA161057
Accurately ripped (confidence 1) [E797A140] (AR v2)
Copy OK

Track 5

Filename D:\Desktop\VA - DetcКий CaD. Штаны На Лямках (2002)\05. Тайм-Аут - Бу-ра-ти-но.wav

Pre-gap length 0:00:02.00

Peak level 85.9 %
Extraction speed 5.5 X
Track quality 100.0 %
Test CRC 1EC89D3A
Copy CRC 1EC89D3A
Accurately ripped (confidence 1) [6FD374F9] (AR v2)
Copy OK

Track 6

Filename D:\Desktop\VA - DetcКий CaD. Штаны На Лямках (2002)\06. Distemper - Первая песня разбойников.wav

Pre-gap length 0:00:02.00

Peak level 85.9 %
Extraction speed 5.9 X
Track quality 100.0 %
Test CRC C3FBD4BC
Copy CRC C3FBD4BC
Accurately ripped (confidence 1) [7D629BCE] (AR v2)
Copy OK

Track 7

Filename D:\Desktop\VA - DetcКий CaD. Штаны На Лямках (2002)\07. Чичерина - Ветер перемен.wav

Pre-gap length 0:00:02.00

Peak level 85.9 %
Extraction speed 6.1 X
Track quality 100.0 %
Test CRC 64937DC9
Copy CRC 64937DC9
Accurately ripped (confidence 1) [A351D022] (AR v2)
Copy OK

Track 8

Filename D:\Desktop\VA - DetcКий CaD. Штаны На Лямках (2002)\08. Borzov's & Yalta Electric Band - Мария, Мирабела.wav

Pre-gap length 0:00:02.00

Peak level 85.9 %
Extraction speed 6.6 X
Track quality 100.0 %
Test CRC 0B059159
Copy CRC 0B059159
Accurately ripped (confidence 1) [8EF9CEB2] (AR v2)
Copy OK

Track 9

Filename D:\Desktop\VA - DetcКий CaD. Штаны На Лямках (2002)\09. Мультfильмы - Крылатые качели.wav

Pre-gap length 0:00:02.00

Peak level 85.9 %
Extraction speed 7.2 X
Track quality 100.0 %
Test CRC 26F4974D
Copy CRC 26F4974D
Accurately ripped (confidence 1) [F2CE8223] (AR v2)
Copy OK

Track 10

Filename D:\Desktop\VA - DetcКий CaD. Штаны На Лямках (2002)\10. Drugly Cats - Серенада Трубадура.wav

Pre-gap length 0:00:02.00

Peak level 85.9 %
Extraction speed 4.6 X
Track quality 99.9 %
Test CRC 11FC7AE3
Copy CRC 11FC7AE3
Accurately ripped (confidence 1) [3DDDD1AC] (AR v2)
Copy OK

Track 11

Filename D:\Desktop\VA - DetcКий CaD. Штаны На Лямках (2002)\11. Дети Picasso - Песня Красной Шапочки.wav

Pre-gap length 0:00:02.00

Peak level 74.9 %
Extraction speed 7.3 X
Track quality 100.0 %
Test CRC F1E31957
Copy CRC F1E31957
Accurately ripped (confidence 1) [093B21C5] (AR v2)
Copy OK

Track 12

Filename D:\Desktop\VA - DetcКий CaD. Штаны На Лямках (2002)\12. 2ва Самолета - Песня Львенка и Черепахи.wav

Pre-gap length 0:00:02.00

Peak level 85.9 %
Extraction speed 7.2 X
Track quality 100.0 %
Test CRC 445068C1
Copy CRC 445068C1
Accurately ripped (confidence 1) [E0D990DA] (AR v2)
Copy OK

Track 13

Filename D:\Desktop\VA - DetcКий CaD. Штаны На Лямках (2002)\13. Каберне Денев - Какое мне дело.wav

Pre-gap length 0:00:02.00

Peak level 86.5 %
Extraction speed 7.3 X
Track quality 100.0 %
Test CRC FCD2EBD8
Copy CRC FCD2EBD8
Accurately ripped (confidence 1) [D234F5BC] (AR v2)
Copy OK

Track 14

Filename D:\Desktop\VA - DetcКий CaD. Штаны На Лямках (2002)\14. Ногу свело - Я шагаю по Москве.wav

Pre-gap length 0:00:02.01

Peak level 86.5 %
Extraction speed 7.5 X
Track quality 100.0 %
Test CRC BBC09E08
Copy CRC BBC09E08
Accurately ripped (confidence 1) [8162B607] (AR v2)
Copy OK

Track 15

Filename D:\Desktop\VA - DetcКий CaD. Штаны На Лямках (2002)\15. Юта - Песня Забавы.wav

Pre-gap length 0:00:02.00

Peak level 100.0 %
Extraction speed 7.8 X
Track quality 100.0 %
Test CRC 9FF17A85
Copy CRC 9FF17A85
Accurately ripped (confidence 1) [67ED5396] (AR v2)
Copy OK

Track 16

Filename D:\Desktop\VA - DetcКий CaD. Штаны На Лямках (2002)\16. Плед - Песенка Мамонтенка.wav

Pre-gap length 0:00:02.00

Peak level 85.9 %
Extraction speed 7.7 X
Track quality 100.0 %
Test CRC 09CE8882
Copy CRC 09CE8882
Accurately ripped (confidence 1) [F8E68E14] (AR v2)
Copy OK

Track 17

Filename D:\Desktop\VA - DetcКий CaD. Штаны На Лямках (2002)\17. Дубы-колдуны - Парад заграничных певцов.wav

Pre-gap length 0:00:02.00

Peak level 86.5 %
Extraction speed 7.9 X
Track quality 100.0 %
Test CRC B4BA20BF
Copy CRC B4BA20BF
Accurately ripped (confidence 1) [EB20C34F] (AR v2)
Copy OK

Track 18

Filename D:\Desktop\VA - DetcКий CaD. Штаны На Лямках (2002)\18. Jeff и Краденое Солнце - Кручу педали.wav

Pre-gap length 0:00:02.00

Peak level 85.9 %
Extraction speed 5.5 X
Track quality 99.9 %
Test CRC 7BD78A7C
Copy CRC 7BD78A7C
Accurately ripped (confidence 1) [74130DD3] (AR v2)
Copy OK

Track 19

Filename D:\Desktop\VA - DetcКий CaD. Штаны На Лямках (2002)\19. Седьмой Прохожий - Первая песня разбойников.wav

Pre-gap length 0:00:02.00

Peak level 85.9 %
Extraction speed 8.4 X
Track quality 100.0 %
Test CRC C46EEB48
Copy CRC C46EEB48
Accurately ripped (confidence 1) [D29F3C21] (AR v2)
Copy OK

All tracks accurately ripped

No errors occurred

End of status report

==== Log checksum C390C940A2CA63D930D984E778C097A97085B08E524B984BAC4C6AF38AAB67B8 ====

REM GENRE Rock 
REM DATE 2002
REM DISCID 0A0D9013
REM COMMENT "ExactAudioCopy v1.0b3"
PERFORMER "Various Artists"
TITLE "DetcКий CaD. Штаны На Лямках"
FILE "01. Ключи - Облака!.wav" WAVE
TRACK 01 AUDIO
TITLE "Ключи - Облака!"
PERFORMER "Various Artists"
INDEX 01 00:00:00
TRACK 02 AUDIO
TITLE "Приключения Электроников - Прекрасное далеко"
PERFORMER "Various Artists"
INDEX 00 02:42:18
FILE "02. Приключения Электроников - Прекрасное далеко.wav" WAVE
INDEX 01 00:00:00
TRACK 03 AUDIO
TITLE "Элизиум - Три белых коня"
PERFORMER "Various Artists"
INDEX 00 01:38:61
FILE "03. Элизиум - Три белых коня.wav" WAVE
INDEX 01 00:00:00
TRACK 04 AUDIO
TITLE "Леприконсы - Песенка зайца и волка на карнавале"
PERFORMER "Various Artists"
INDEX 00 02:24:58
FILE "04. Леприконсы - Песенка зайца и волка на карнавале.wav" WAVE
INDEX 01 00:00:00
TRACK 05 AUDIO
TITLE "Тайм-Аут - Бу-ра-ти-но"
PERFORMER "Various Artists"
INDEX 00 02:48:48
FILE "05. Тайм-Аут - Бу-ра-ти-но.wav" WAVE
INDEX 01 00:00:00
TRACK 06 AUDIO
TITLE "Distemper - Первая песня разбойников"
PERFORMER "Various Artists"
INDEX 00 02:59:58
FILE "06. Distemper - Первая песня разбойников.wav" WAVE
INDEX 01 00:00:00
TRACK 07 AUDIO
TITLE "Чичерина - Ветер перемен"
PERFORMER "Various Artists"
INDEX 00 03:20:67
FILE "07. Чичерина - Ветер перемен.wav" WAVE
INDEX 01 00:00:00
TRACK 08 AUDIO
TITLE "Borzov's & Yalta Electric Band - Мария, Мирабела"
PERFORMER "Various Artists"
INDEX 00 03:03:61
FILE "08. Borzov's & Yalta Electric Band - Мария, Мирабела.wav" WAVE
INDEX 01 00:00:00
TRACK 09 AUDIO
TITLE "Мультfильмы - Крылатые качели"
PERFORMER "Various Artists"
INDEX 00 03:43:69
FILE "09. Мультfильмы - Крылатые качели.wav" WAVE
INDEX 01 00:00:00
TRACK 10 AUDIO
TITLE "Drugly Cats - Серенада Трубадура"
PERFORMER "Various Artists"
INDEX 00 05:20:32
FILE "10. Drugly Cats - Серенада Трубадура.wav" WAVE
INDEX 01 00:00:00
TRACK 11 AUDIO
TITLE "Дети Picasso - Песня Красной Шапочки"
PERFORMER "Various Artists"
INDEX 00 02:21:55
FILE "11. Дети Picasso - Песня Красной Шапочки.wav" WAVE
INDEX 01 00:00:00
TRACK 12 AUDIO
TITLE "2ва Самолета - Песня Львенка и Черепахи"
PERFORMER "Various Artists"
INDEX 00 03:36:67
FILE "12. 2ва Самолета - Песня Львенка и Черепахи.wav" WAVE
INDEX 01 00:00:00
TRACK 13 AUDIO
TITLE "Каберне Денев - Какое мне дело?"
PERFORMER "Various Artists"
INDEX 00 02:56:66
FILE "13. Каберне Денев - Какое мне дело.wav" WAVE
INDEX 01 00:00:00
TRACK 14 AUDIO
TITLE "Ногу свело - Я шагаю по Москве"
PERFORMER "Various Artists"
INDEX 00 02:46:59
FILE "14. Ногу свело - Я шагаю по Москве.wav" WAVE
INDEX 01 00:00:00
TRACK 15 AUDIO
TITLE "Юта - Песня Забавы"
PERFORMER "Various Artists"
INDEX 00 02:57:52
FILE "15. Юта - Песня Забавы.wav" WAVE
INDEX 01 00:00:00
TRACK 16 AUDIO
TITLE "Плед - Песенка Мамонтенка"
PERFORMER "Various Artists"
INDEX 00 03:12:37
FILE "16. Плед - Песенка Мамонтенка.wav" WAVE
INDEX 01 00:00:00
TRACK 17 AUDIO
TITLE "Дубы-колдуны - Парад заграничных певцов"
PERFORMER "Various Artists"
INDEX 00 02:41:33
FILE "17. Дубы-колдуны - Парад заграничных певцов.wav" WAVE
INDEX 01 00:00:00
TRACK 18 AUDIO
TITLE "Jeff и Краденое Солнце - Кручу педали"
PERFORMER "Various Artists"
INDEX 00 02:46:63
FILE "18. Jeff и Краденое Солнце - Кручу педали.wav" WAVE
INDEX 01 00:00:00
TRACK 19 AUDIO
TITLE "Седьмой Прохожий - Первая песня разбойников"
PERFORMER "Various Artists"
INDEX 00 02:28:52
FILE "19. Седьмой Прохожий - Первая песня разбойников.wav" WAVE
INDEX 01 00:00:00


Discogs

          
info [Профиль]  [ЛС] 
Показать сообщения:    
Ответить на тему

Текущее время: 22-Сен 16:09

Часовой пояс: GMT + 4



Вы не можете начинать темы
Вы не можете отвечать на сообщения
Вы не можете редактировать свои сообщения
Вы не можете удалять свои сообщения
Вы не можете голосовать в опросах
Вы не можете прикреплять файлы к сообщениям
Вы не можете скачивать файлы