Ошибка

Slipknot - Day Of The Gusano [2017 г., Nu Metal, BDRip 1080p]

Ответить на тему
 
Автор Сообщение

BlackSunVRN

Пол: Пол:Муж

Стаж: 7 лет 7 месяцев

Сообщений: 435

Ямайка
Рейтинг

post 27-Окт-2017 05:03 0[+]

[Цитировать] 

Slipknot - Day Of The Gusano

Страна: США
Жанр: Nu Metal
Год выпуска: 2017
Продолжительность: 01:23:51
Описание: Recorded live at Knotfest, Mexico 2015, Mexico City. Saturday December 5th 2015. The full show from the band's first Knotfest Mexico.
Треклист:
1 Sarcastrophe
2 The Heretic Anthem
3 Psychosocial
4 The Devil In I
5 Me Inside
6 Vermilion
7 Wait And Bleed
8 Prosthetics
9 Before I Forget
10 Eeyore
11 Duality
12 Custer
13 Spit It Out
14 Medley: Metabolic / 742617000027
15 (Sic)
16 People = Shit
17 Medley: Surfacing / Til We Die
Качество видео: BDRip 1080p
Формат: MKV
Видео кодек: H.264
Аудио кодек: DTS
Видео: AVC 1920x816 (2,35:1) 9685Kbps 29,970fps
Аудио: DTS 1509kbps 48.0kHz 6ch

Код:

Общее
Уникальный идентификатор                 : 215607253193685178213470235161442264946 (0xA234724ED34C3CF8A5CD0CDC551E2772)
Полное имя                               : E:\Загрузки\µTorrent\Slipknot - Day Of The Gusano (2017).mkv
Формат                                   : Matroska
Версия формата                           : Version 4 / Version 2
Размер файла                             : 6,56 Гбайт
Продолжительность                        : 1 ч. 23 м.
Общий поток                              : 11,2 Мбит/сек
Дата кодирования                         : UTC 2017-10-24 19:32:19
Программа кодирования                    : mkvmerge v8.1.0 ('Psychedelic Postcard') 64bit
Библиотека кодирования                   : libebml v1.3.1 + libmatroska v1.4.2

Видео
Идентификатор                            : 1
Формат                                   : AVC
Формат/Информация                        : Advanced Video Codec
Профиль формата                          : High@L4.1
Параметр CABAC формата                   : Да
Параметр ReFrames формата                : 5 кадров
Идентификатор кодека                     : V_MPEG4/ISO/AVC
Продолжительность                        : 1 ч. 23 м.
Битрейт                                  : 9685 Кбит/сек
Ширина                                   : 1920 пикселей
Высота                                   : 816 пикселей
Соотношение сторон                       : 2,35:1
Режим частоты кадров                     : Постоянный
Частота кадров                           : 29,970 (30000/1001) кадров/сек
Цветовое пространство                    : YUV
Субдискретизация насыщенности            : 4:2:0
Битовая глубина                          : 8 бит
Тип развёртки                            : Прогрессивная
Бит/(Пиксели*Кадры)                      : 0.206
Размер потока                            : 5,67 Гбайт (87%)
Библиотека кодирования                   : x264 core 152 r2851 ba24899
Настройки программы                      : cabac=1 / ref=5 / deblock=1:0:0 / analyse=0x3:0x113 / me=umh / subme=8 / psy=1 / psy_rd=1.00:0.00 / mixed_ref=1 / me_range=16 / chroma_me=1 / trellis=2 / 8x8dct=1 / cqm=0 / deadzone=21,11 / fast_pskip=0 / chroma_qp_offset=-2 / threads=12 / lookahead_threads=2 / sliced_threads=0 / nr=0 / decimate=1 / interlaced=0 / bluray_compat=0 / constrained_intra=0 / bframes=3 / b_pyramid=2 / b_adapt=1 / b_bias=0 / direct=3 / weightb=1 / open_gop=0 / weightp=2 / keyint=250 / keyint_min=25 / scenecut=40 / intra_refresh=0 / rc_lookahead=50 / rc=2pass / mbtree=1 / bitrate=9685 / ratetol=1.0 / qcomp=0.60 / qpmin=0 / qpmax=69 / qpstep=4 / cplxblur=20.0 / qblur=0.5 / ip_ratio=1.40 / aq=1:1.00
Язык                                     : English
Default                                  : Да
Forced                                   : Нет

Аудио
Идентификатор                            : 2
Формат                                   : DTS
Формат/Информация                        : Digital Theater Systems
Режим                                    : 16
Параметр Endianness формата              : Big
Идентификатор кодека                     : A_DTS
Продолжительность                        : 1 ч. 23 м.
Вид битрейта                             : Постоянный
Битрейт                                  : 1509 Кбит/сек
Каналы                                   : 6 каналов
Расположение каналов                     : Front: L C R, Side: L R, LFE
Частота                                  : 48,0 КГц
Частота кадров                           : 93,750 кадра/сек (512 spf)
Битовая глубина                          : 24 бит
Метод сжатия                             : С потерями
Размер потока                            : 904 Мбайт (13%)
Язык                                     : English
Default                                  : Да
Forced                                   : Нет

Меню
00:00:00.000                             : en:00:00:00.000
00:04:53.293                             : en:00:04:53.293
00:08:48.695                             : en:00:08:48.695
00:15:13.579                             : en:00:15:13.579
00:21:54.313                             : en:00:21:54.313
00:24:38.477                             : en:00:24:38.477
00:29:54.860                             : en:00:29:54.860
00:32:48.967                             : en:00:32:48.967
00:38:59.337                             : en:00:38:59.337
00:43:26.270                             : en:00:43:26.270
00:46:50.541                             : en:00:46:50.541
00:52:05.990                             : en:00:52:05.990
00:57:06.189                             : en:00:57:06.189
01:03:50.827                             : en:01:03:50.827
01:07:52.735                             : en:01:07:52.735
01:08:44.120                             : en:01:08:44.120
01:12:52.368                             : en:01:12:52.368
01:18:07.616                             : en:01:18:07.616

info [Профиль]  [ЛС] 

fantom1808

Пол: Пол:Муж

Стаж: 4 года 8 месяцев

Сообщений: 4

Украина
Рейтинг

post 27-Окт-2017 20:26 (спустя 15 часов) [-]0[+]

[Цитировать] 

На раздачу ещё кого нибудь бы , вообще было бы шикарно )) kolob_109

_________________
Я закрывал глаза и видел вас в авариях
Где сраные хирурги ублюдков бы не собрали!
info [Профиль]  [ЛС] 

Joe053

Пол: Пол:Муж

Стаж: 7 лет 8 месяцев

Сообщений: 13

Россия
Рейтинг

post 05-Ноя-2017 14:22 (спустя 8 дней) [-]0[+]

[Цитировать] 

а почему звука нет?
info [Профиль]  [ЛС] 
Показать сообщения:    
Ответить на тему

Текущее время: 17-Ноя 23:39

Часовой пояс: GMT + 4



Вы не можете начинать темы
Вы не можете отвечать на сообщения
Вы не можете редактировать свои сообщения
Вы не можете удалять свои сообщения
Вы не можете голосовать в опросах
Вы не можете прикреплять файлы к сообщениям
Вы не можете скачивать файлы