Ошибка

Руки вверх! - 20 лет. Юбилейный концерт [2017, pop, HDTV, 1080i]

Ответить на тему
 
Автор Сообщение

GaRI61

Пол: Пол:Муж

Стаж: 3 года

Сообщений: 244

Россия
Рейтинг

post 04-Сен-2017 20:32 1[+]

[Цитировать] 



Жанр: pop
Продолжительность: 01:37:37
Год выпуска: 2017

Описание: В 2016 году популярной группе «Руки Вверх!» исполнилось 20 лет.
За это время музыканты скопили огромный багаж народных хитов: «18 мне уже»,
«Он тебя целует», «Алешка», «Уходи», «Отель» и многие другие песни,
которым подпевают миллионы. В Москве Сергей Жуков и его друзья отметили
юбилей в начале ноября в Крокус Сити Холле в окружении преданных
многочисленных поклонников. Это масштабное праздничное действо,
которое напомнит о временах юности, а заводные ритмы заставят танцевать всю ночь.


Треклист:
01. Вступление
02. Танцуй
03. Молодой и красивый
04. Вернись
05. Он тебя целует
06. Люби меня, люби (исп. Отпетые мошенники)
07. Отель
08. Так тебе и надо
09. Чужие губы
10. Танцуют все
11. Мужички (исп. С.Жуков и Э.Жуков)
12. Песенка (исп. Л.Роднянская и Bombina)
13. Пропадаешь зря
14. Ты мое море (исп. С.Жуков и М.Жуков)
15. Медуза (исп. С.Жуков и М.Жуков)
16. Лишь о тебе мечтая
17. Алешка (исп. С.Жуков и А.Потехин)
18. Уходи
19. Поппури
20. 18 мне уже
21. Когда мы были молодыми


Качество: HDTV
Разрешение видео/развертка: 1080i
Контейнер: MKV
Видео кодек: H.264
Аудио кодек: MP2
Видео: H.264, 1920x1080, 25.000 fps, 11300 Kbps
Аудио: MP2, 2.0 ch, 48000 Hz, 192 Kbps
General
Unique ID : 14575935452744163344165246653896901991 (0xAF7391A2BCE4F4F824F5865C018C567)
Complete name : E:\Скаченное с Интернета\µTorrent новые\Руки вверх! 20 лет. Юбилейный концерт.mkv
Format : Matroska
Format version : Version 4 / Version 2
File size : 8.03 GiB
Duration : 1 h 37 min
Overall bit rate : 11.8 Mb/s
Encoded date : UTC 2017-01-01 21:55:16
Writing application : TMPGEnc MPEG Smart Renderer 4 Version 4.2.4.68
Writing library : TMPGEnc MPEG Smart Renderer 4 Version 4.2.4.68

Video
ID : 1
Format : AVC
Format/Info : Advanced Video Codec
Format profile : Main@L4
Format settings, CABAC : Yes
Format settings, ReFrames : 4 frames
Codec ID : V_MPEG4/ISO/AVC
Duration : 1 h 37 min
Bit rate : 11.3 Mb/s
Width : 1 920 pixels
Height : 1 080 pixels
Display aspect ratio : 16:9
Frame rate mode : Constant
Frame rate : 25.000 FPS
Standard : Component
Color space : YUV
Chroma subsampling : 4:2:0
Bit depth : 8 bits
Scan type : Interlaced
Scan type, store method : Separated fields
Scan order : Top Field First
Bits/(Pixel*Frame) : 0.219
Stream size : 7.73 GiB (96%)
Default : Yes
Forced : No
Color range : Limited
Color primaries : BT.709
Transfer characteristics : BT.709
Matrix coefficients : BT.709

Audio
ID : 2
Format : MPEG Audio
Format version : Version 1
Format profile : Layer 2
Codec ID : A_MPEG/L2
Codec ID/Hint : MP2
Duration : 1 h 37 min
Bit rate mode : Constant
Bit rate : 192 kb/s
Channel(s) : 2 channels
Sampling rate : 48.0 kHz
Compression mode : Lossy
Stream size : 134 MiB (2%)
Language : Russian
Default : Yes
Forced : No

Menu
info [Профиль]  [ЛС] 

Zarjofrap

Пол: Пол:Муж

Стаж: 8 лет 2 месяца

Сообщений: 234

Предупреждений: 1

Россия
Рейтинг

post 05-Сен-2017 20:52 (спустя 1 день) [-]0[+]

[Цитировать] 

А я продааал, машину в Car Priiiiice. Тачку пригнал - деньги забрал.

_________________
Intel Core i5 4690K // Asus Radeon R9290X // 8gb DDR3 Crucial Ballistix // Samsung SSD 850 Pro 128Gb // Samsung UHD 28"

Вы хотите войны, дети? Я и есть война, если здесь есть правила, их устанавливаю я..
info [Профиль]  [ЛС] 

mr.Grim

Стаж: 8 лет 2 месяца

Сообщений: 39

СССР
Рейтинг

post 05-Сен-2017 21:39 (спустя 46 минут) [-]2[+]

[Цитировать] 

хех помню себя 20 лет назад "да вы че этож попса, группа однодневка, етс..." а спустя 20лет - "эх детство"....смотрите дети под что ваш папка плясал на гопотеках....

_________________
info [Профиль]  [ЛС] 

xohllenok

Пол: Пол:Муж

Стаж: 2 года 8 месяцев

Сообщений: 1160

Россия
Рейтинг

post 05-Сен-2017 22:02 (спустя 22 минуты) [-]0[+]

[Цитировать] 

дайте золото! это ведь легенда

_________________
info [Профиль]  [ЛС] 

Mr.Brightside

Пол: Пол:Муж

Стаж: 8 лет 3 месяца

Сообщений: 326

Великобритания
Рейтинг

post 05-Сен-2017 22:14 (спустя 11 минут) [-]0[+]

[Цитировать] 

Не понял,а где Крошка моя?))
info [Профиль]  [ЛС] 

LeopoldAB

Пол: Пол:Муж

Стаж: 3 года 6 месяцев

Сообщений: 4

Украина
Рейтинг

post 06-Сен-2017 01:25 (спустя 3 часа) [-]0[+]

[Цитировать] 

А где же "Студент"? Это ж самый огонь из первого альбома! Улыбаюсь
info [Профиль]  [ЛС] 

VAlenOK45

Стаж: 8 лет 2 месяца

Сообщений: 136

Рейтинг

post 06-Сен-2017 01:42 (спустя 16 минут) [-]0[+]

[Цитировать] 

В Поппури наверное Крошка и Студент
info [Профиль]  [ЛС] 

Zivers

Пол: Пол:Муж

Стаж: 3 года

Сообщений: 199

Предупреждений: 2

Россия
Рейтинг

post 06-Сен-2017 03:05 (спустя 1 час 22 минуты) [-]0[+]

[Цитировать] 

Ну наконец-то!
info [Профиль]  [ЛС] 
Показать сообщения:    
Ответить на тему

Текущее время: 24-Ноя 11:46

Часовой пояс: GMT + 4



Вы не можете начинать темы
Вы не можете отвечать на сообщения
Вы не можете редактировать свои сообщения
Вы не можете удалять свои сообщения
Вы не можете голосовать в опросах
Вы не можете прикреплять файлы к сообщениям
Вы не можете скачивать файлы