Ошибка

Rammstein - Paris: Live [2017 г., Industrial, BDRip 1080p]

Ответить на тему
 
Автор Сообщение

BlackSunVRN

Пол: Пол:Муж

Стаж: 7 лет 3 месяца

Сообщений: 410

Ямайка
Рейтинг

post 22-Май-2017 03:35 4[+]

[Цитировать] 

Rammstein - Paris: Live

Страна: Германия
Жанр: Industrial
Год выпуска: 2017
Продолжительность: 02:08:09
Описание: German industrial metallers RAMMSTEIN are preparing to release a new concert DVD and Blu-ray, "Paris". The set was recorded at the then-named Palais Omnisports de Paris-Bercy in Paris (now AccorHotels Arena) during RAMMSTEIN's "Made In Germany" tour, and was helmed by the band's longtime collaborator, Swedish director Jonas Åkerlund. RAMMSTEIN last year played a number of concerts where the band opened each show with a brand new song, presently only known as "Ramm 4". The track contains lyrics that seem to be a combination of various titles of previous RAMMSTEIN songs.
Треклист:
1. Intro
2. Sonne
3. Wollt Ihr Das Bett In Flammen Sehen
4. Keine Lust
5. Sehnsucht
6. Asche Zu Asche
7. Feuer Frei!
8. Mutter
9. Mein Teil
10. Du Riechst So gut
11. Links 2-3-4
12. Du Hast
13. Haifisch
14. Bück Dich
15. Mann Gegen Mann
16. Ohne Dich
17. Mein Herz Brennt
18. Amerika
19. Ich Will
20. Engel
21. Pussy
22. Frühling In Paris

Качество видео: BDRip 1080p
Формат: MKV
Видео кодек: MPEG-4 AVC
Аудио кодек: PCM/DTS
Видео: MPEG-4 AVC / 1920*1080 / 16:9 / 9300 kbps / 25.0 fps
Аудио#1: PCM /2304 kbps / 48.0 khz / 2 ch
Аудио#2: DTS /1509 kbps / 48.0 khz / 6 ch

Код:

Общее
Уникальный идентификатор                 : 240314731932441286959257207098527412397 (0xB4CAEF0F85D16C80B5F25ECCCCCB70AD)
Полное имя                               : D:\Video\Rammstein - Paris 1080p.mkv
Формат                                   : Matroska
Версия формата                           : Version 4 / Version 2
Размер файла                             : 11,7 Гбайт
Продолжительность                        : 2 ч. 8 м.
Общий поток                              : 13,1 Мбит/сек
Дата кодирования                         : UTC 2017-05-21 17:59:39
Программа кодирования                    : mkvmerge v7.1.0 ('Good Love') 64bit built on Jul 27 2014 13:06:55
Библиотека кодирования                   : libebml v1.3.0 + libmatroska v1.4.1

Видео
Идентификатор                            : 1
Формат                                   : AVC
Формат/Информация                        : Advanced Video Codec
Профиль формата                          : High@L4.1
Параметр CABAC формата                   : Да
Параметр ReFrames формата                : 4 кадра
Идентификатор кодека                     : V_MPEG4/ISO/AVC
Продолжительность                        : 2 ч. 8 м.
Битрейт                                  : 9300 Кбит/сек
Ширина                                   : 1920 пикселей
Высота                                   : 1080 пикселей
Соотношение сторон                       : 16:9
Режим частоты кадров                     : Постоянный
Частота кадров                           : 25,000 кадров/сек
Цветовое пространство                    : YUV
Субдискретизация насыщенности            : 4:2:0
Битовая глубина                          : 8 бит
Тип развёртки                            : Прогрессивная
Бит/(Пиксели*Кадры)                      : 0.179
Размер потока                            : 8,32 Гбайт (71%)
Библиотека кодирования                   : x264 core 148 r2744 b97ae06
Настройки программы                      : cabac=1 / ref=4 / deblock=1:-1:-1 / analyse=0x3:0x133 / me=umh / subme=9 / psy=1 / psy_rd=1.00:0.15 / mixed_ref=1 / me_range=32 / chroma_me=1 / trellis=2 / 8x8dct=1 / cqm=0 / deadzone=21,11 / fast_pskip=1 / chroma_qp_offset=-3 / threads=6 / lookahead_threads=1 / sliced_threads=0 / nr=0 / decimate=1 / interlaced=0 / bluray_compat=0 / constrained_intra=0 / bframes=6 / b_pyramid=2 / b_adapt=2 / b_bias=0 / direct=3 / weightb=1 / open_gop=0 / weightp=2 / keyint=250 / keyint_min=25 / scenecut=40 / intra_refresh=0 / rc_lookahead=60 / rc=2pass / mbtree=1 / bitrate=9300 / ratetol=1.0 / qcomp=0.60 / qpmin=0 / qpmax=69 / qpstep=4 / cplxblur=20.0 / qblur=0.5 / vbv_maxrate=50000 / vbv_bufsize=50000 / nal_hrd=none / filler=0 / ip_ratio=1.40 / aq=1:1.00
Default                                  : Да
Forced                                   : Нет

Аудио #1
Идентификатор                            : 2
Формат                                   : PCM
Идентификатор кодека                     : A_PCM/INT/LIT
Продолжительность                        : 2 ч. 8 м.
Вид битрейта                             : Постоянный
Битрейт                                  : 2304 Кбит/сек
Каналы                                   : 2 канала
Частота                                  : 48,0 КГц
Частота кадров                           : 32,000 кадра/сек (1500 spf)
Битовая глубина                          : 24 бит
Размер потока                            : 2,06 Гбайт (18%)
Default                                  : Да
Forced                                   : Нет

Аудио #2
Идентификатор                            : 3
Формат                                   : DTS
Формат/Информация                        : Digital Theater Systems
Режим                                    : 16
Параметр Endianness формата              : Big
Идентификатор кодека                     : A_DTS
Продолжительность                        : 2 ч. 8 м.
Вид битрейта                             : Постоянный
Битрейт                                  : 1509 Кбит/сек
Каналы                                   : 6 каналов
Расположение каналов                     : Front: L C R, Side: L R, LFE
Частота                                  : 48,0 КГц
Частота кадров                           : 93,750 кадра/сек (512 spf)
Битовая глубина                          : 24 бит
Метод сжатия                             : С потерями
Размер потока                            : 1,35 Гбайт (12%)
Default                                  : Нет
Forced                                   : Нет

Меню
00:00:00.000                             : en:Intro
00:05:45.040                             : en:Sonne
00:10:46.400                             : en:Wollt Ihr Das Bett In Flammen Sehen
00:15:47.560                             : en:Keine Lust
00:19:57.000                             : en:Sehnsucht
00:24:21.960                             : en:Asche Zu Asche
00:28:29.359                             : en:Feuer Frei!
00:32:02.840                             : en:Mutter
00:37:26.080                             : en:Mein Teil
00:45:10.000                             : en:Du Riechst So gut
00:50:38.479                             : en: Links 2-3-4
00:55:41.520                             : en:Du Hast
00:59:59.960                             : en:Haifisch
01:06:57.560                             : en:BГјck Dich
01:14:52.400                             : en:Mann Gegen Mann
01:19:07.840                             : en:Ohne Dich
01:27:21.120                             : en:Mein Herz Brennt
01:32:27.600                             : en:Amerika
01:37:21.920                             : en:Ich Will
01:41:26.160                             : en:Engel
01:46:42.120                             : en: Pussy
02:01:47.600                             : en:FrГјhling In Paris

info [Профиль]  [ЛС] 

Freeman89

Стаж: 7 лет 4 месяца

Сообщений: 2

Рейтинг

post 22-Май-2017 20:34 (спустя 16 часов) [-]3[+]

[Цитировать] 

Ништяк, спасибо!
Я в кинотеатр ходил, но там звук был не очень
info [Профиль]  [ЛС] 
Показать сообщения:    
Ответить на тему

Текущее время: 25-Июн 19:28

Часовой пояс: GMT + 4



Вы не можете начинать темы
Вы не можете отвечать на сообщения
Вы не можете редактировать свои сообщения
Вы не можете удалять свои сообщения
Вы не можете голосовать в опросах
Вы не можете прикреплять файлы к сообщениям
Вы не можете скачивать файлы