Ошибка

Ария - 30 Лет. Юбилейный концерт - 2016 [2016 г., Heavy Metal, DVDRip]

Ответить на тему
 
Автор Сообщение

CooL

Пол: Пол:Муж

Стаж: 6 лет 11 месяцев

Сообщений: 1248

СССР
Рейтинг

post 11-Дек-2016 20:22 2[+]

[Цитировать] 

Ария - 30 Лет

Юбилейный концерт

Год выпуска: 2016
Жанр: Heavy Metal
Происхождение исполнителя: Россия
Продолжительность: 01:15:05+01:07:04

Лейбл: М2БА
Описание: В честь тридцатилетия АРИИ музыканты пригласили бывших участников коллектива и совместно исполнили лучшие песни из репертуара группы. Уникальное выступление прошло в рамках празднования юбилея на ARIA FEST 2015. Аншлаговый концерт был записан на видео 28 ноября 2015 года в Москве в концертном зале «Stadium Live», и в ноябре 2016 года выходит на DVD.

Гости концерта: Валерий Кипелов – вокал, Сергей Маврин – гитара, Сергей Терентьев – гитара, Александр Манякин – барабаны, Алик Грановский – бас.

Издание выходит в формате Digibook, в который войдут два DVD с полной видео версией концерта, два аудио CD и 16-ти страничный буклет. Общий хронометраж концерта: 2 часа 22 минуты (24 песни).

За исходник DVD 9 огромное спасибо semenos1!
Автор рипа:
Происхождение видео: DVDRip
Формат: AVI
Видео кодек: XviD
Аудио кодек: AC3 [взято с исходника]

Видео диск 1:720x396 (1.82:1), 25 fps, XviD MPEG-4 ~1478 kbps avg, 0.21 bit/pixel
Аудио Диск 1:48 kHz, AC3 Dolby Digital, 2/0 (L,R) ch, ~192 kbps

Видео диск 2:720x396 (1.82:1), 25 fps, XviD MPEG-4 ~1818 kbps avg, 0.26 bit/pixel
Аудио Диск 2:48 kHz, AC3 Dolby Digital, 2/0 (L,R) ch, ~192 kbps
Disk 1:
01. Через Все Времена
02. Ангелы Неба
03. Колизей
04. Паранойя
05. Меченый Злом
06. Точка Невозврата
07. Феникс
08. Обман
09. Крещение Огнём
10. Ночь Короче Дня
11. Штиль
12. Небо Тебя Найдёт
13. Реквием

Disk 2:
01. Раскачаем Этот Мир
02. 1100
03. Осколок Льда
04. Бой Продолжается
05. Баллада О Древнерусском Воине
06. Улица Роз
07. Тореро
08. Следуй За Мной
09. Грязь
10. Герой Асфальта
11. Дай Жару
Disk 1
Михаил Житняков - Вокал
Владимир Холстинин - Гитара
Виталий Дубинин - Бас гитара, Вокал
Сергей Попов - Гитара
Максим "Утконос" Удалов - Ударные
Disk 2
Михаил Житняков - Вокал
Владимир Холстинин - Гитара
Виталий Дубинин - Бас гитара, Вокал
Сергей Попов - Гитара
Максим "Утконос" Удалов - Ударные
Валерий Кипелов - Вокал
Алик Грановский - Бас гитара
Сергей Маврин - Гитара
Сергей Терентьев - Гитара
Александр Манякин - Ударные

ормат : AVI
Формат/Информация : Audio Video Interleave
Размер файла : 903 Мбайт
Продолжительность : 1 ч. 15 м.
Общий поток : 1681 Кбит/сек
Программа кодирования : VirtualDubMod 1.5.10.2 (build 2540/release)
Библиотека кодирования : VirtualDubMod build 2540/release

Видео
Идентификатор : 0
Формат : MPEG-4 Visual
Профиль формата : Advanced Simple@L5
Параметр BVOP формата : 1
Параметр QPel формата : Нет
Параметр GMC формата : Без точки перехода
Параметр матрицы формата : Выборочная
Режим смешивания : Сжатый битовый поток
Идентификатор кодека : XVID
Идентификатор кодека/Подсказка : XviD
Продолжительность : 1 ч. 15 м.
Битрейт : 1479 Кбит/сек
Ширина : 720 пикселей
Высота : 396 пикселей
Соотношение сторон : 16:9
Частота кадров : 25,000 кадров/сек
Цветовое пространство : YUV
Субдискретизация насыщенности : 4:2:0
Битовая глубина : 8 бит
Тип развёртки : Прогрессивная
Метод сжатия : С потерями
Бит/(Пиксели*Кадры) : 0.207
Размер потока : 794 Мбайт (88%)
Библиотека кодирования : XviD 64

Аудио
Идентификатор : 1
Формат : AC-3
Формат/Информация : Audio Coding 3
Расширение режима : CM (complete main)
Параметр Endianness формата : Big
Идентификатор кодека : 2000
Продолжительность : 1 ч. 15 м.
Вид битрейта : Постоянный
Битрейт : 192 Кбит/сек
Каналы : 2 канала
Расположение каналов : Front: L R
Частота : 48,0 КГц
Битовая глубина : 16 бит
Метод сжатия : С потерями
Размер потока : 103 Мбайт (11%)
Выравнивание : Разделение по промежуткам
Продолжительность промежутка : 40 мс. (1,00 видеокадр)
Время предзагрузки промежутка : 500 мс.
ормат : AVI
Формат/Информация : Audio Video Interleave
Размер файла : 969 Мбайт
Продолжительность : 1 ч. 7 м.
Общий поток : 2021 Кбит/сек
Программа кодирования : VirtualDubMod 1.5.10.2 (build 2540/release)
Библиотека кодирования : VirtualDubMod build 2540/release

Видео
Идентификатор : 0
Формат : MPEG-4 Visual
Профиль формата : Advanced Simple@L5
Параметр BVOP формата : 1
Параметр QPel формата : Нет
Параметр GMC формата : Без точки перехода
Параметр матрицы формата : Выборочная
Режим смешивания : Сжатый битовый поток
Идентификатор кодека : XVID
Идентификатор кодека/Подсказка : XviD
Продолжительность : 1 ч. 7 м.
Битрейт : 1819 Кбит/сек
Ширина : 720 пикселей
Высота : 396 пикселей
Соотношение сторон : 16:9
Частота кадров : 25,000 кадров/сек
Цветовое пространство : YUV
Субдискретизация насыщенности : 4:2:0
Битовая глубина : 8 бит
Тип развёртки : Прогрессивная
Метод сжатия : С потерями
Бит/(Пиксели*Кадры) : 0.255
Размер потока : 873 Мбайт (90%)
Библиотека кодирования : XviD 64

Аудио
Идентификатор : 1
Формат : AC-3
Формат/Информация : Audio Coding 3
Расширение режима : CM (complete main)
Параметр Endianness формата : Big
Идентификатор кодека : 2000
Продолжительность : 1 ч. 7 м.
Вид битрейта : Постоянный
Битрейт : 192 Кбит/сек
Каналы : 2 канала
Расположение каналов : Front: L R
Частота : 48,0 КГц
Битовая глубина : 16 бит
Метод сжатия : С потерями
Размер потока : 92,1 Мбайт (10%)
Выравнивание : Разделение по промежуткам
Продолжительность промежутка : 40 мс. (1,00 видеокадр)
Время предзагрузки промежутка : 500 мс.

info [Профиль]  [ЛС] 
Показать сообщения:    
Ответить на тему

Текущее время: 20-Фев 14:59

Часовой пояс: GMT + 4



Вы не можете начинать темы
Вы не можете отвечать на сообщения
Вы не можете редактировать свои сообщения
Вы не можете удалять свои сообщения
Вы не можете голосовать в опросах
Вы не можете прикреплять файлы к сообщениям
Вы не можете скачивать файлы