Ошибка

(Industrial Metal, Aggrotech, EBM) Combichrist - This Is Where Death Begins - 2016, FLAC (tracks), lossless

Ответить на тему
 
Автор Сообщение

Pray

Пол: Пол:Муж

Стаж: 5 лет 4 месяца

Сообщений: 875

Предупреждений: 1

Украина
Рейтинг

post 02-Ноя-2016 21:00 0[+]

[Цитировать] 

Combichrist - This Is Where Death Begins


Год выпуска: 2016
Страна производитель диска: Norway
Жанр: Industrial Metal, Aggrotech, EBM
Аудиокодек: FLAC (*.flac)
Тип рипа: tracks
Битрейт аудио: lossless
Продолжительность: 00:59:27
Треклист:
01. We Are the Plague (4:17)
02. My Life My Rules (4:20)
03. Glitchteeth (2:59)
04. Exit Eternity (4:49)
05. Skullcrusher (3:52)
06. Time Again (4:30)
07. Destroy Everything (3:57)
08. Tired of Hating You (3:54)
09. Don't Care How You Feel About It (5:36)
10. Blackened Heart (3:53)
11. Pay to Play (3:35)
12. Slakt (3:17)
13. Black Tar Dove, Pt. 1 (1:21)
14. Black Tar Dove, Pt. 2 (4:09)
15. Homeward (4:57)

Код:

-----------------------

DON'T MODIFY THIS FILE

-----------------------

PERFORMER: auCDtect Task Manager, ver. 1.5.1RC6 build 1.5.1.7
Copyright (c) 2008-2010 y-soft. All rights reserved
http://y-soft.org

ANALYZER: auCDtect: CD records authenticity detector, version 0.8.2
Copyright (c) 2004 Oleg Berngardt. All rights reserved.
Copyright (c) 2004 Alexander Djourik. All rights reserved.

FILE: 01 - We Are the Plague.flac
  Size: 32442338 Hash: C1632629A7BD17C57F350414B1FEFC02 Accuracy: -m8
  Conclusion: CDDA 100%
  Signature: 49C499EE54280CCE6BDC5491684B7E5CCAA3E622
FILE: 02 - My Life My Rules.flac
  Size: 34789023 Hash: BC14B1AFE50F35CBF22D6AEE18CC8064 Accuracy: -m8
  Conclusion: CDDA 100%
  Signature: 73AB4FCF0D7BAE432B80FE370941B8C42F5F61CE
FILE: 03 - Glitchteeth.flac
  Size: 19264524 Hash: 402F15A003930A4CC7368FEFB2C1F4BB Accuracy: -m8
  Conclusion: CDDA 99%
  Signature: F8979BFBB3B95C1ADC4027DF0D1ADAE1E97D733E
FILE: 04 - Exit Eternity.flac
  Size: 35710572 Hash: 83E91984F58A8241E17F817D7CD70ED8 Accuracy: -m8
  Conclusion: CDDA 100%
  Signature: E1BAC017B6FD764E7000969572418F6A0978B429
FILE: 05 - Skullcrusher.flac
  Size: 28106909 Hash: C27145788E7BA553AB2CA202968D868F Accuracy: -m8
  Conclusion: CDDA 100%
  Signature: 2058978F37A745F05746EB2E57D7361B6CA6C248
FILE: 06 - Time Again.flac
  Size: 31281221 Hash: C845B45E0A8E61DD19862413EBEB9E96 Accuracy: -m8
  Conclusion: CDDA 100%
  Signature: 1D998F122416A5282391943DCE5BA9369EE96E34
FILE: 07 - Destroy Everything.flac
  Size: 29351245 Hash: 1C0CAEE598FC8E1824986994DBDDA7D8 Accuracy: -m8
  Conclusion: CDDA 100%
  Signature: 4228D9850EBB02D1F07592C5A2EAEDE0A67ECAC1
FILE: 08 - Tired of Hating You.flac
  Size: 28616146 Hash: 90D4FD317706C04C1E1F046CBE34BCC6 Accuracy: -m8
  Conclusion: CDDA 100%
  Signature: 811AF05D835805D6C0CF8B6865AB81FED35BC047
FILE: 09 - Don't Care How You Feel About It.flac
  Size: 41785905 Hash: F76D2AC53332E775454B6DD56F64F744 Accuracy: -m8
  Conclusion: CDDA 100%
  Signature: 836886BFB45F05E6F54E53B09CAB23E126D0E81A
FILE: 10 - Blackened Heart.flac
  Size: 29824082 Hash: 44CBE14A01503007E1521E4B56EA4786 Accuracy: -m8
  Conclusion: CDDA 100%
  Signature: FFE861149500B0756200B7F2F5E94E9CA5417340
FILE: 11 - Pay to Play.flac
  Size: 26093943 Hash: 1936E104D1F0E0BD1123F866D04DD4D5 Accuracy: -m8
  Conclusion: CDDA 100%
  Signature: 7015F88E6B9568E74C76FE38FA842DAD22D3317D
FILE: 12 - Slakt.flac
  Size: 24329574 Hash: 17E436102A93699A3D33B9018CD8A8F6 Accuracy: -m8
  Conclusion: CDDA 100%
  Signature: 2ACCB815E1B3D33B0166BF1F2D9255A486CF7CF0
FILE: 13 - Black Tar Dove, Pt. 1.flac
  Size: 7255486 Hash: 083DD19B4FC6A40DD75B1F45B8D31558 Accuracy: -m8
  Conclusion: CDDA 100%
  Signature: C75E9760D48A86E013F279E9A9A95DE3DB6DBE5F
FILE: 14 - Black Tar Dove, Pt. 2.flac
  Size: 27891723 Hash: 818AF30C6D134A93125CE63ACEBC6696 Accuracy: -m8
  Conclusion: CDDA 100%
  Signature: 3EF73AB2307500365A99CF758018015584344868
FILE: 15 - Homeward.flac
  Size: 30829460 Hash: 58357AD0C1D5959A28BC9E4F37CB64F7 Accuracy: -m8
  Conclusion: CDDA 100%
  Signature: BC3D127468E5C41BD7114E7A314C3E735AEC8609

Код:

foobar2000 1.3.8 / Dynamic Range Meter 1.1.1
log date: 2016-06-03 07:05:29

--------------------------------------------------------------------------------
Analyzed: Combichrist / This Is Where Death Begins
--------------------------------------------------------------------------------

DR         Peak         RMS     Duration Track
--------------------------------------------------------------------------------
DR4       -0.86 dB    -6.27 dB      4:17 01-We Are the Plague
DR4       -0.83 dB    -5.74 dB      4:20 02-My Life My Rules
DR3       -0.89 dB    -6.48 dB      2:59 03-Glitchteeth
DR5       -0.94 dB    -7.47 dB      4:49 04-Exit Eternity
DR5       -0.90 dB    -7.31 dB      3:52 05-Skullcrusher
DR5       -0.95 dB    -7.00 dB      4:30 06-Time Again
DR4       -0.90 dB    -6.55 dB      3:57 07-Destroy Everything
DR4       -0.95 dB    -6.73 dB      3:54 08-Tired of Hating You
DR4       -0.91 dB    -7.30 dB      5:36 09-Don't Care How You Feel About It
DR5       -0.90 dB    -7.49 dB      3:53 10-Blackened Heart
DR4       -0.92 dB    -7.08 dB      3:35 11-Pay to Play
DR4       -0.92 dB    -6.72 dB      3:17 12-Slakt
DR10      -2.56 dB   -15.96 dB      1:21 13-Black Tar Dove, Pt. 1
DR3       -0.92 dB    -6.67 dB      4:09 14-Black Tar Dove, Pt. 2
DR6       -0.97 dB   -10.37 dB      4:57 15-Homeward
--------------------------------------------------------------------------------

          
          
info [Профиль]  [ЛС] 

Pray

Пол: Пол:Муж

Стаж: 5 лет 4 месяца

Сообщений: 875

Предупреждений: 1

Украина
Рейтинг

post 03-Ноя-2016 00:57 (спустя 3 часа) [-]0[+]

[Цитировать] 

Что-то, не впечатлил меня альбом. Единственно, один сингл понравился "Homeward".

_________________
MSI Z77A-G43 / Intel Core i5 3570K 3.4 ГГц / Gigabyte GeForce GTX 770 OC 4 Гб Rev. 2.0 / 8 Гб ОЗУ
Steam
info [Профиль]  [ЛС] 
Показать сообщения:    
Ответить на тему

Текущее время: 03-Дек 13:37

Часовой пояс: GMT + 4



Вы не можете начинать темы
Вы не можете отвечать на сообщения
Вы не можете редактировать свои сообщения
Вы не можете удалять свои сообщения
Вы не можете голосовать в опросах
Вы не можете прикреплять файлы к сообщениям
Вы не можете скачивать файлы