Ошибка

(Rock) Кукрыниксы - Артист - 2016, FLAC (image+.cue)+cover, lossless

Ответить на тему
 
Автор Сообщение

SaintFalen

Пол: Пол:Муж

Стаж: 2 года

Сообщений: 270

Россия
Рейтинг

post 12-Авг-2016 16:04 1[+]

[Цитировать] 

Кукрыниксы - Артист

pic="http://i78.fastpic.ru/big/2016/0812/e1/723459d2066b166ea5bfbb9c6686ace1.png"


Жанр: Rock
Год издания: 2016
Страна: Russia
Лейбл: soyuz music
Аудио кодек: FLAC
Тип рипа: image+.cue
Битрейт аудио: lossless
Продолжительность: 48:56 min
Полиграфия: Присутствует
Треклист:
01. Артист (3:54)
02. Шторм (4:04)
03. Вера (4:36)
04. Надежда (4:03)
05. Экклезиаст (3:36)
06. Выход из роли (3:24)
07. Наше время (4:03)
08. Коммивояжер (3:25)
09. Обнимай (4:17)
10. Ну вот, и ты ко мне спиной! (5:43)
11. Смоктуновский (3:50)
12. Последняя песня (4:03)
Exact Audio Copy V1.0 beta 3 from 29. August 2011 

Отчёт EAC об извлечении, выполненном 7. августа 2016, 17:21

Кукрыниксы / Артист

Дисковод: PIONEER DVD-RW DVR-221L Adapter: 3 ID: 0

Режим чтения : Достоверность
Использование точного потока : Да
Отключение кэша аудио : Да
Использование указателей C2 : Нет

Коррекция смещения при чтении : 6
Способность читать области Lead-in и Lead-out : Нет
Заполнение пропущенных сэмплов тишиной : Да
Удаление блоков с тишиной в начале и конце : Нет
При вычислениях CRC использовались нулевые сэмплы : Да
Интерфейс : Встроенный Win32-интерфейс для Win NT/2000

Выходной формат : Пользовательский кодировщик
Выбранный битрейт : 768 kBit/s
Качество : Высокий
Добавление ID3-тега : Нет
Утилита сжатия : C:Program Files (x86)Exact Audio CopyFLACFLAC.EXE
Дополнительные параметры : -6 -V -T "ARTIST=%artist%" -T "TITLE=%title%" -T "ALBUM=%albumtitle%" -T "DATE=%year%" -T "TRACKNUMBER=%tracknr%" -T "GENRE=%genre%" -T "COMMENT=%comment%" -T "BAND=%albuminterpret%" -T "ALBUMARTIST=%albuminterpret%" -T "COMPOSER=%composer%" %haslyrics%--tag-from-file=LYRICS="%lyricsfile%"%haslyrics% -T "DISCNUMBER=%cdnumber%" -T "TOTALDISCS=%totalcds%" -T "TOTALTRACKS=%numtracks%" %hascover%--picture="%coverfile%"%hascover% %source% -o %dest%

TOC извлечённого CD

Трек | Старт | Длительность | Начальный сектор | Конечный сектор
---------------------------------------------------------------------
1 | 0:00.00 | 3:54.00 | 0 | 17549
2 | 3:54.00 | 4:03.74 | 17550 | 35848
3 | 7:57.74 | 4:35.74 | 35849 | 56547
4 | 12:33.73 | 4:02.38 | 56548 | 74735
5 | 16:36.36 | 3:35.45 | 74736 | 90905
6 | 20:12.06 | 3:24.00 | 90906 | 106205
7 | 23:36.06 | 4:02.67 | 106206 | 124422
8 | 27:38.73 | 3:24.65 | 124423 | 139787
9 | 31:03.63 | 4:17.00 | 139788 | 159062
10 | 35:20.63 | 5:42.51 | 159063 | 184763
11 | 41:03.39 | 3:50.00 | 184764 | 202013
12 | 44:53.39 | 4:02.74 | 202014 | 220237

Характеристики диапазона извлечения и сообщения об ошибках

Выбранный диапазон

Имя файла E:торрентКукрыниксы-Артист (2016)Кукрыниксы - Артист.wav

Пиковый уровень 100.0 %
Скорость извлечения 4.7 X
Качество диапазона 99.9 %
CRC теста 37727FB1
CRC копии 37727FB1
Копирование... OK

Ошибок не произошло

AccurateRip: сводка

Трек 1 отсутствует в базе данных
Трек 2 отсутствует в базе данных
Трек 3 отсутствует в базе данных
Трек 4 отсутствует в базе данных
Трек 5 отсутствует в базе данных
Трек 6 отсутствует в базе данных
Трек 7 отсутствует в базе данных
Трек 8 отсутствует в базе данных
Трек 9 отсутствует в базе данных
Трек 10 отсутствует в базе данных
Трек 11 отсутствует в базе данных
Трек 12 отсутствует в базе данных

Ни одного трека нет в базе AccurateRip

Конец отчёта
REM GENRE Rock 
REM DATE 2016
REM DISCID B10B780C
REM COMMENT "ExactAudioCopy v1.0b3"
PERFORMER "Кукрыниксы"
TITLE "Артист"
FILE "Кукрыниксы - Артист.flac" WAVE
TRACK 01 AUDIO
TITLE "Артист"
PERFORMER "Кукрыниксы"
INDEX 01 00:00:00
TRACK 02 AUDIO
TITLE "Шторм"
PERFORMER "Кукрыниксы"
INDEX 01 03:54:00
TRACK 03 AUDIO
TITLE "Вера"
PERFORMER "Кукрыниксы"
INDEX 01 07:57:74
TRACK 04 AUDIO
TITLE "Надежда"
PERFORMER "Кукрыниксы"
INDEX 01 12:33:73
TRACK 05 AUDIO
TITLE "Экклезиаст"
PERFORMER "Кукрыниксы"
INDEX 01 16:36:36
TRACK 06 AUDIO
TITLE "Выход из роли"
PERFORMER "Кукрыниксы"
INDEX 01 20:12:06
TRACK 07 AUDIO
TITLE "Наше время"
PERFORMER "Кукрыниксы"
INDEX 01 23:36:06
TRACK 08 AUDIO
TITLE "Коммивояжер"
PERFORMER "Кукрыниксы"
INDEX 01 27:38:73
TRACK 09 AUDIO
TITLE "Обнимай"
PERFORMER "Кукрыниксы"
INDEX 01 31:03:63
TRACK 10 AUDIO
TITLE "Ну вот, и ты ко мне спиной!"
PERFORMER "Кукрыниксы"
INDEX 01 35:20:63
TRACK 11 AUDIO
TITLE "Смоктуновский"
PERFORMER "Кукрыниксы"
INDEX 01 41:03:39
TRACK 12 AUDIO
TITLE "Последняя песня"
PERFORMER "Кукрыниксы"
INDEX 01 44:53:39
info [Профиль]  [ЛС] 

dejawu

Стаж: 7 лет 6 месяцев

Сообщений: 304

Великобритания
Рейтинг

post 12-Авг-2016 22:30 (спустя 6 часов) [-]0[+]

[Цитировать] 

благодарствую

_________________
info [Профиль]  [ЛС] 

vlast37

Пол: Пол:Муж

Стаж: 7 лет 3 месяца

Сообщений: 144

Россия
Рейтинг

post 14-Авг-2016 00:39 (спустя 1 день 2 часа) [-]0[+]

[Цитировать] 

Классный альбом. Спасибо!
info [Профиль]  [ЛС] 
Показать сообщения:    
Ответить на тему

Текущее время: 07-Дек 22:30

Часовой пояс: GMT + 4



Вы не можете начинать темы
Вы не можете отвечать на сообщения
Вы не можете редактировать свои сообщения
Вы не можете удалять свои сообщения
Вы не можете голосовать в опросах
Вы не можете прикреплять файлы к сообщениям
Вы не можете скачивать файлы