Ошибка

(Atmospheric Black Metal / Ambient) Lustre - Blossom & Phantom (LE) - 2015, FLAC (image+.cue)+cover, lossless

Ответить на тему
 
Автор Сообщение

SaintFalen

Пол: Пол:Муж

Стаж: 2 года

Сообщений: 268

Россия
Рейтинг

post 29-Июл-2016 19:32 1[+]

[Цитировать] 

Lustre - Blossom & Phantom (LE)

pic="http://i78.fastpic.ru/big/2016/0729/d7/ca3ae5fd35030de384f3f0cffd80b6d7.jpg"


Жанр: Atmospheric Black Metal / Ambient
Год издания: 2015
Страна: Sweden
Лейбл: Nordvis Produktion
Каталоговый номер: NVP019BP
Аудио кодек: FLAC
Тип рипа: image+.cue
Битрейт аудио: lossless
Продолжительность: 1:01:21 min
Полиграфия: Присутствует
01. Part 1 (8:54)
02. Part 2 (8:38)
03. Part 3 (9:42)
04. Part 4 (5:47)
Exact Audio Copy V1.0 beta 6 from 9. April 2015 

EAC extraction logfile from 6. May 2015, 17:55

Lustre / Blossom

Used drive : PIONEER DVD-RW DVR-112D Adapter: 1 ID: 1

Read mode : Secure
Utilize accurate stream : Yes
Defeat audio cache : Yes
Make use of C2 pointers : No

Read offset correction : 48
Overread into Lead-In and Lead-Out : No
Fill up missing offset samples with silence : Yes
Delete leading and trailing silent blocks : No
Null samples used in CRC calculations : Yes
Used interface : Native Win32 interface for Win NT & 2000

Used output format : User Defined Encoder
Selected bitrate : 128 kBit/s
Quality : High
Add ID3 tag : No
Command line compressor : C:Program Files (x86)Exact Audio CopyFLACFLAC.EXE
Additional command line options : -8 -V -T "ARTIST=%artist%" -T "TITLE=%title%" -T "ALBUM=%albumtitle%" -T "DATE=%year%" -T "TRACKNUMBER=%tracknr%" -T "GENRE=%genre%" -T "COMMENT=EAC FLAC -8" %source%

TOC of the extracted CD

Track | Start | Length | Start sector | End sector
---------------------------------------------------------
1 | 0:00.00 | 8:53.74 | 0 | 40048
2 | 8:53.74 | 8:38.00 | 40049 | 78898
3 | 17:31.74 | 9:42.00 | 78899 | 122548
4 | 27:13.74 | 5:47.00 | 122549 | 148573

Range status and errors

Selected range

Filename H:dimonamartLustre - BlossomLustre - Blossom.wav

Peak level 95.0 %
Extraction speed 2.4 X
Range quality 99.9 %
Test CRC 3572A282
Copy CRC 3572A282
Copy OK

No errors occurred

AccurateRip summary

Track 1 not present in database
Track 2 not present in database
Track 3 not present in database
Track 4 not present in database

None of the tracks are present in the AccurateRip database

End of status report

---- CUETools DB Plugin V2.1.6

[CTDB TOCID: lk0iiK72hiB24CTGfcTpQccT0WM-] found
Submit result: lk0iiK72hiB24CTGfcTpQccT0WM- has been confirmed
Track | CTDB Status
1 | (1/1) Accurately ripped
2 | (1/1) Accurately ripped
3 | (1/1) Accurately ripped
4 | (1/1) Accurately ripped

==== Log checksum 26B9222B9EF9BCC88F32AFCA190DE889D9BCFEFB344CAA4D074AE7C684D46788 ====
REM GENRE "Atmospheric Black Metal/Ambient" 
REM DATE 2015
REM DISCID 2707BC04
REM COMMENT "ExactAudioCopy v1.0b6"
PERFORMER "Lustre"
TITLE "Blossom"
FILE "Lustre - Blossom.flac" WAVE
TRACK 01 AUDIO
TITLE "Part 1"
PERFORMER "Lustre"
FLAGS DCP
INDEX 01 00:00:00
TRACK 02 AUDIO
TITLE "Part 2"
PERFORMER "Lustre"
FLAGS DCP
INDEX 01 08:53:74
TRACK 03 AUDIO
TITLE "Part 3"
PERFORMER "Lustre"
FLAGS DCP
INDEX 01 17:31:74
TRACK 04 AUDIO
TITLE "Part 4"
PERFORMER "Lustre"
FLAGS DCP
INDEX 01 27:13:74
01. Part 1 (14:11)
02. Part 2 (14:11)
Exact Audio Copy V1.0 beta 6 from 9. April 2015

EAC extraction logfile from 6. May 2015, 18:08

Lustre / Phantom

Used drive : PIONEER DVD-RW DVR-112D Adapter: 1 ID: 1

Read mode : Secure
Utilize accurate stream : Yes
Defeat audio cache : Yes
Make use of C2 pointers : No

Read offset correction : 48
Overread into Lead-In and Lead-Out : No
Fill up missing offset samples with silence : Yes
Delete leading and trailing silent blocks : No
Null samples used in CRC calculations : Yes
Used interface : Native Win32 interface for Win NT & 2000

Used output format : User Defined Encoder
Selected bitrate : 128 kBit/s
Quality : High
Add ID3 tag : No
Command line compressor : C:\Program Files (x86)\Exact Audio Copy\FLAC\FLAC.EXE
Additional command line options : -8 -V -T "ARTIST=%artist%" -T "TITLE=%title%" -T "ALBUM=%albumtitle%" -T "DATE=%year%" -T "TRACKNUMBER=%tracknr%" -T "GENRE=%genre%" -T "COMMENT=EAC FLAC -8" %source%

TOC of the extracted CD

Track | Start | Length | Start sector | End sector
---------------------------------------------------------
1 | 0:00.00 | 14:10.54 | 0 | 63803
2 | 14:10.54 | 14:10.61 | 63804 | 127614

Range status and errors

Selected range

Filename H:\dimonamart\Lustre - Phantom\Lustre - Phantom.wav

Peak level 100.0 %
Extraction speed 6.3 X
Range quality 100.0 %
Test CRC 6C84DF4A
Copy CRC 6C84DF4A
Copy OK

No errors occurred

AccurateRip summary

Track 1 not present in database
Track 2 not present in database

None of the tracks are present in the AccurateRip database

End of status report

---- CUETools DB Plugin V2.1.6

[CTDB TOCID: oBq25oylzEuSzNswK5abCFhkJT0-] found
Submit result: oBq25oylzEuSzNswK5abCFhkJT0- has been confirmed
Track | CTDB Status
1 | (3/3) Accurately ripped
2 | (3/3) Accurately ripped

==== Log checksum 0B1E4F6FE2875DB3FC701EC6687777BE23F00EE5B15935A7A5D5398EEB4D4652 ====
REM GENRE "Atmospheric Black Metal/Ambient"
REM DATE 2015
REM DISCID 1106A502
REM COMMENT "ExactAudioCopy v1.0b6"
PERFORMER "Lustre"
TITLE "Phantom"
FILE "Lustre - Phantom.flac" WAVE
TRACK 01 AUDIO
TITLE "Part 1"
PERFORMER "Lustre"
FLAGS DCP
INDEX 01 00:00:00
TRACK 02 AUDIO
TITLE "Part 2"
PERFORMER "Lustre"
FLAGS DCP
INDEX 01 14:10:54

Exclusive limited slipcase edition featuring the previously unreleased EP “Phantom”. Limited to 300 copies.
info [Профиль]  [ЛС] 

SaintFalen

Пол: Пол:Муж

Стаж: 2 года

Сообщений: 268

Россия
Рейтинг

post 30-Июл-2016 05:48 (спустя 10 часов) [-]0[+]

[Цитировать] 

          

_________________
行く先へ手を伸ばす
info [Профиль]  [ЛС] 
Показать сообщения:    
Ответить на тему

Текущее время: 04-Дек 10:03

Часовой пояс: GMT + 4



Вы не можете начинать темы
Вы не можете отвечать на сообщения
Вы не можете редактировать свои сообщения
Вы не можете удалять свои сообщения
Вы не можете голосовать в опросах
Вы не можете прикреплять файлы к сообщениям
Вы не можете скачивать файлы