Ошибка

[iPad] Игра Эндера / Ender's Game (Гэвин Худ / Gavin Hood) [2013, США, фантастика, боевик, приключения, HDRip, SD (576p)] Dub + Original + sub (rus, eng)

Ответить на тему
 
Автор Сообщение

Ravox

Пол: Пол:Муж

Стаж: 6 лет 8 месяцев

Сообщений: 421

Россия
Рейтинг

post 21-Май-2016 17:06 0[+]

[Цитировать] 

Игра Эндера / Ender's Game
««Это не игра»»

Год выпуска: 2013
Страна: США
Жанр: фантастика, боевик, приключения
Продолжительность: 01:53:49
Перевод: Профессиональный (полное дублирование)
Оригинальная аудиодорожка: есть
Cубтитры: русские и английские
Режиссер: Гэвин Худ / Gavin Hood
В ролях: Харрисон Форд, Бен Кингсли, Эйса Баттерфилд, Эбигейл Бреслин, Хейли Стайнфелд, Виола Дэвис, Мойзес Ариас, Нонсо Анози, Арамис Найт, Брэндон Су Ху
Описание:
Действие происходит в 2135 году. Человечество пережило два вторжения инопланетной расы «жукеров», лишь чудом уцелев, и готовится к очередному вторжению.

Для поиска пилотов и военачальников, способных принести Земле победу, создаётся военная школа, в которую отправляют самых талантливых детей.
Среди этих детей Эндрю (Эндер) Виггин, будущий полководец Международного флота Земли и единственная надежда человечества на спасение.
Качество исходника: BDRip 1080p (Enders.Game.2013.1080p.BDRip.3xRus.Eng.HDCLUB)
Качество: HDRip
Тип: SD (576р)
Формат: m4v
Видео кодек: H.264
Аудио кодек: AAC
Видео: H264, 1024x426 (2.40:1), 2300kbps, 23.976fps, 0.220bpp
Аудио:
  • AAC / 2.0 / 128 Kbps / 48.0 KHz
  • AAC / 2.0 / 128 Kbps / 48.0 KHz

 
Общее
Формат : MPEG-4
Профиль формата : Base Media / Version 2
Идентификатор кодека : mp42 (isom/iso2/avc1/mp41)
Размер файла : 2,04 Гбайт
Продолжительность : 1 ч. 53 м.
Режим общего битрейта : Переменный
Общий поток : 2565 Кбит/сек
Название фильма : Игра Эндера
Режиссёр : Gavin Hood / Anne Rapp
Исполнитель : Asa Butterfield (Ender Wiggin) / Harrison Ford (Colonel Hyrum Graff) / Hailee Steinfeld (Petra Arkanian) / Abigail Breslin (Valentine Wiggin) /
Ben Kingsley (Mazer Rackham) / Viola Davis (Major Gwen Anderson) / Aramis Knight (Bean) / Suraj Partha (Alai) / Moisés Arias (Bonzo Madrid) / Khylin Rhambo (Dink Meeker) /
Jimmy 'Jax' Pinchak (Peter Wiggin) / Conor Carroll (Bernard) / Nonso Anozie (Sergeant Dap) / Stevie Ray Dallimore (John Wiggin) / Andrea Powell (Theresa Wiggin) / Brandon Soo Hoo (Fly Molo) /
Han Soto (Lieutenant Soto) / Tony Mirrcandani (Admiral Chjamrajnagar)
Сценарист : Gavin Hood / Orson Scott Card
Продюсер : Orson Scott Card / Robert Chartoff / Lynn Hendee / Alex Kurtzman / Linda McDonough / Roberto Orci / Gigi Pritzker / Ed Ulbrich / John Papsidera / Kate Dowd /
Sean J. Donnelly / Jason Waggenspack
Жанр : фантастика & боевик & приключения
Тип содержимого : Short Film
Описание : Действие происходит в 2135 году. Человечество пережило два вторжения инопланетной расы «жукеров» (англ. buggers), лишь чудом уцелев,
и готовится к очередному вторжению. Для поиска пилотов и военачальников, способных принести Земле победу, создаётся в
Дата записи : 2013-10-23
Дата кодирования : UTC 2016-05-21 00:53:12
Дата пометки : UTC 2016-05-21 12:34:16
Обложка : Yes
Title/Sort : Ender's Game
LongDescription : Действие происходит в 2135 году. Человечество пережило два вторжения инопланетной расы «жукеров» (англ. buggers), лишь чудом уцелев,
и готовится к очередному вторжению. Для поиска пилотов и военачальников, способных принести Земле победу, создаётся военная школа, в которую отправляют самых талантливых
детей с раннего возраста. Среди этих детей Эндрю (Эндер) Виггин, будущий полководец Международного флота Земли и единственная надежда человечества на спасение.
HDVideo : Yes
Vendor : Apple:vendor_id:2013-tt1731141
ContentRating : mpaa|PG-13|300|

Видео
Идентификатор : 1
Формат : AVC
Формат/Информация : Advanced Video Codec
Профиль формата : High@L3.1
Параметр CABAC формата : Да
Параметр ReFrames формата : 9 кадров
Идентификатор кодека : avc1
Идентификатор кодека/Информация : Advanced Video Coding
Продолжительность : 1 ч. 53 м.
Битрейт : 2300 Кбит/сек
Ширина : 1024 пикселя
Высота : 426 пикселей
Соотношение сторон : 2,40:1
Режим частоты кадров : Переменный
Частота кадров : 23,976 (24000/1001) кадра/сек
Минимальная частота кадров : 23,974 кадра/сек
Максимальная частота кадров : 23,981 кадра/сек
Цветовое пространство : YUV
Субдискретизация насыщенности : 4:2:0
Битовая глубина : 8 бит
Тип развёртки : Прогрессивная
Бит/(Пиксели*Кадры) : 0.220
Размер потока : 1,83 Гбайт (90%)
Библиотека кодирования : x264 core 142 r2479 dd79a61
Настройки программы : cabac=1 / ref=9 / deblock=1:0:0 / analyse=0x3:0x113 / me=umh / subme=9 / psy=1 / psy_rd=1.00:0.00 / mixed_ref=1 / me_range=32 /
chroma_me=1 / trellis=1 / 8x8dct=1 / cqm=0 / deadzone=21,11 / fast_pskip=1 / chroma_qp_offset=-2 / threads=12 / lookahead_threads=2 / sliced_threads=0 / nr=0 / decimate=1 /
interlaced=0 / bluray_compat=0 / constrained_intra=0 / bframes=8 / b_pyramid=2 / b_adapt=2 / b_bias=0 / direct=1 / weightb=1 / open_gop=0 / weightp=2 / keyint=240 / keyint_min=24 /
scenecut=40 / intra_refresh=0 / rc_lookahead=40 / rc=2pass / mbtree=1 / bitrate=2300 / ratetol=1.0 / qcomp=0.60 / qpmin=0 / qpmax=69 / qpstep=4 / cplxblur=20.0 / qblur=0.5 /
vbv_maxrate=17500 / vbv_bufsize=17500 / nal_hrd=none / filler=0 / ip_ratio=1.40 / aq=1:1.00
Дата кодирования : UTC 2016-05-21 00:53:12
Дата пометки : UTC 2016-05-21 00:53:12
Цветовой диапазон : Limited
Основные цвета : BT.709
Характеристики трансфера : BT.709
Коэффициенты матрицы : BT.709
Menus : 7

Аудио #1
Идентификатор : 2
Формат : AAC
Формат/Информация : Advanced Audio Codec
Профиль формата : LC
Идентификатор кодека : 40
Продолжительность : 1 ч. 53 м.
Вид битрейта : Переменный
Битрейт : 128 Кбит/сек
Максимальный битрейт : 148 Кбит/сек
Каналы : 2 канала
Расположение каналов : Front: L R
Частота : 48,0 КГц
Частота кадров : 46,875 кадров/сек (1024 spf)
Метод сжатия : С потерями
Размер потока : 104 Мбайт (5%)
Заголовок : DUB / DUB
Язык : Russian
Default : Да
Alternate group : 1
Дата кодирования : UTC 2016-05-21 00:53:12
Дата пометки : UTC 2016-05-21 00:53:12
Menus : 6

Аудио #2
Идентификатор : 3
Формат : AAC
Формат/Информация : Advanced Audio Codec
Профиль формата : LC
Идентификатор кодека : 40
Продолжительность : 1 ч. 53 м.
Вид битрейта : Переменный
Битрейт : 128 Кбит/сек
Максимальный битрейт : 145 Кбит/сек
Каналы : 2 канала
Расположение каналов : Front: L R
Частота : 48,0 КГц
Частота кадров : 46,875 кадров/сек (1024 spf)
Метод сжатия : С потерями
Размер потока : 104 Мбайт (5%)
Заголовок : Original / Original
Язык : English
Default : Нет
Alternate group : 1
Дата кодирования : UTC 2016-05-21 00:53:12
Дата пометки : UTC 2016-05-21 00:53:12
Menus : 6

Текст #1
Идентификатор : 4
Формат : Timed Text
Режим смешивания : sbtl
Идентификатор кодека : tx3g
Продолжительность : 1 ч. 45 м.
Вид битрейта : Переменный
Битрейт : 93 бит/сек
Размер потока : 71,9 Кбайт (0%)
Язык : Russian
Default : Да
Forced : Нет
Alternate group : 2
Дата кодирования : UTC 2016-05-21 00:53:12
Дата пометки : UTC 2016-05-21 00:53:12
Menus : 6

Текст #2
Идентификатор : 5
Формат : Timed Text
Режим смешивания : sbtl
Идентификатор кодека : tx3g
Продолжительность : 1 ч. 45 м.
Вид битрейта : Переменный
Битрейт : 60 бит/сек
Размер потока : 46,4 Кбайт (0%)
Язык : English
Default : Нет
Forced : Нет
Alternate group : 2
Дата кодирования : UTC 2016-05-21 00:53:12
Дата пометки : UTC 2016-05-21 00:53:12
Menus : 6

Меню
Идентификатор : 7
Идентификатор кодека : text
Продолжительность : 1 ч. 53 м.
Дата кодирования : UTC 2016-05-21 12:34:16
Дата пометки : UTC 2016-05-21 12:34:16
Вид битрейта : CBR
Menu For : 1
00:00:00.000 : 00:00:00.000
00:06:10.704 : 00:06:10.579
00:14:18.649 : 00:14:18.566
00:19:06.228 : 00:19:06.145
00:28:07.269 : 00:28:07.144
00:33:22.751 : 00:33:22.667
00:39:34.789 : 00:39:34.664
00:45:43.491 : 00:45:43.407
00:53:37.798 : 00:53:37.714
01:02:15.815 : 01:02:15.607
01:09:22.033 : 01:09:21.949
01:15:16.971 : 01:15:16.887
01:23:38.430 : 01:23:38.305
01:30:54.908 : 01:30:54.824
01:35:43.363 : 01:35:43.279
01:41:12.942 : 01:41:12.858
 
Media Type: Movie
Sort Name: Ender's Game
XID: Apple:vendor_id:2013-tt1731141
ScreenWriters: Gavin Hood, Orson Scott Card
Producers: Orson Scott Card, Robert Chartoff, Lynn Hendee, Alex Kurtzman, Linda McDonough, Roberto Orci, Gigi Pritzker, Ed Ulbrich, John Papsidera, Kate Dowd, Sean J. Donnelly, Jason Waggenspack
Director: Gavin Hood, Anne Rapp
Cast: Asa Butterfield (Ender Wiggin), Harrison Ford (Colonel Hyrum Graff), Hailee Steinfeld (Petra Arkanian), Abigail Breslin (Valentine Wiggin), Ben Kingsley (Mazer Rackham), Viola Davis (Major Gwen Anderson), Aramis Knight (Bean), Suraj Partha (Alai), Moisés Arias (Bonzo Madrid), Khylin Rhambo (Dink Meeker), Jimmy 'Jax' Pinchak (Peter Wiggin), Conor Carroll (Bernard), Nonso Anozie (Sergeant Dap), Stevie Ray Dallimore (John Wiggin), Andrea Powell (Theresa Wiggin), Brandon Soo Hoo (Fly Molo), Han Soto (Lieutenant Soto), Tony Mirrcandani (Admiral Chjamrajnagar)
Rating: PG-13
Long Description: Действие происходит в 2135 году. Человечество пережило два вторжения инопланетной расы «жукеров» (англ. buggers), лишь чудом уцелев, и готовится к очередному вторжению. Для поиска пилотов и военачальников, способных принести Земле победу, создаётся военная школа, в которую отправляют самых талантливых детей с раннего возраста. Среди этих детей Эндрю (Эндер) Виггин, будущий полководец Международного флота Земли и единственная надежда человечества на спасение.
Description: Действие происходит в 2135 году. Человечество пережило два вторжения инопланетной расы «жукеров» (англ. buggers), лишь чудом уцелев, и готовится к очередному вторжению. Для поиска пилотов и военачальников, способных принести Земле победу, создаётся в
Release Date: 2013-10-23
Genre: фантастика & боевик & приключения
Name: Игра Эндера
 
x264 [info]: frame I:1893 Avg QP:11.56 size: 80180
x264 [info]: frame P:38188 Avg QP:14.62 size: 24881
x264 [info]: frame B:123648 Avg QP:16.91 size: 6954
x264 [info]: consecutive B-frames: 4.1% 3.7% 8.7% 20.4% 15.6% 35.0% 5.8% 2.7% 4.2%
x264 [info]: mb I I16..4: 12.1% 63.3% 24.6%
x264 [info]: mb P I16..4: 1.8% 9.2% 3.0% P16..4: 31.2% 26.2% 17.0% 0.0% 0.0% skip:11.6%
x264 [info]: mb B I16..4: 0.2% 0.9% 0.5% B16..8: 35.1% 11.7% 3.5% direct: 4.4% skip:43.8% L0:43.7% L1:43.2% BI:13.1%
x264 [info]: 8x8 transform intra:63.6% inter:67.4%
x264 [info]: coded y,uvDC,uvAC intra: 85.9% 88.3% 74.7% inter: 24.1% 25.3% 8.6%
x264 [info]: i16 v,h,dc,p: 32% 15% 6% 48%
x264 [info]: i8 v,h,dc,ddl,ddr,vr,hd,vl,hu: 10% 10% 6% 9% 13% 12% 14% 11% 14%
x264 [info]: i4 v,h,dc,ddl,ddr,vr,hd,vl,hu: 8% 9% 4% 9% 16% 13% 15% 11% 15%
x264 [info]: i8c dc,h,v,p: 47% 22% 15% 16%
x264 [info]: Weighted P-Frames: Y:6.3% UV:2.5%
x264 [info]: ref P L0: 50.0% 10.3% 16.5% 6.6% 5.1% 3.9% 3.4% 2.0% 1.8% 0.4% 0.0%
x264 [info]: ref B L0: 71.4% 13.0% 6.5% 3.2% 2.4% 2.1% 1.1% 0.3%
x264 [info]: ref B L1: 91.4% 8.6%
x264 [info]: kb/s:2298.26

Релиз подготовлен для просмотра на Apple TV, iPad, iPhone, iPod Touch.
Для просмотра данного релиза на компьютере с ОС Windows рекомендуется использовать VLC media player
info [Профиль]  [ЛС] 

post 22-Май-2016 06:00 (спустя 12 часов) [-]0[+]

Топик был перенесен из форума Анонсы в форум Видео (iPhone/iPod Touch/iPad)

TATOSHCA
 
Показать сообщения:    
Ответить на тему

Текущее время: 04-Дек 16:22

Часовой пояс: GMT + 4



Вы не можете начинать темы
Вы не можете отвечать на сообщения
Вы не можете редактировать свои сообщения
Вы не можете удалять свои сообщения
Вы не можете голосовать в опросах
Вы не можете прикреплять файлы к сообщениям
Вы не можете скачивать файлы