Ошибка

[iPad] Бегущий в лабиринте: Испытание огнём / The Maze Runner: The Scorch Trials (Уэс Болл / Wes Ball) [2015, США, фантастика, триллер, приключения, HDRip, SD (576p)] Dub + Original + sub (rus, eng)

Ответить на тему
 
Автор Сообщение

Ravox

Пол: Пол:Муж

Стаж: 6 лет 8 месяцев

Сообщений: 421

Россия
Рейтинг

post 03-Май-2016 12:47 0[+]

[Цитировать] 

Бегущий в лабиринте: Испытание огнём / The Maze Runner: The Scorch Trials
«Лабиринт был всего лишь началом»

pic="http://i78.fastpic.ru/big/2016/0503/a9/5cf4fa2b645261fa7f892d4147a2c1a9.jpg"
Год выпуска: 2015
Страна: США
Жанр: фантастика, триллер, приключения
Продолжительность: 02:11:43
Перевод: Профессиональный (полное дублирование)
Оригинальная аудиодорожка: есть
Cубтитры: русские и английские
Режиссер: Уэс Болл / Wes Ball
В ролях: Дилан О’Брайен, Кая Скоделарио, Ки Хонг Ли, Томас Сэнгстер, Декстер Дарден, Алекс Дж. Флорес, Джейкоб Лофленд, Роза Салазар, Джанкарло Эспозито, Патришия Кларксон
Описание:
Лабиринт пройден, но Томасу, Терезе, Минхо и прочим глэйдерам не приходится расслабляться. Таинственное руководство ПОРОКА — секретной организации, устроившей гонки на выживание — назначает ребятам новые, смертельно опасные испытания. На сей раз их ждет переход по раскаленной пустыне и встреча с жертвами неизлечимой болезни, которые отличаются буйным нравом и непредсказуемым поведением.
Качество исходника: BDRip 1080p (Maze.Runner.The.Scorch.Trials.2015.1080p.BluRay.Rus.Ukr.Eng.HDCLUB)
Качество: HDRip
Тип: SD (576р)
Формат: m4v
Видео кодек: H.264
Аудио кодек: AAC
Видео: H264, 1024x428 (2.40:1), 2320kbps, 23.976fps, 0.221bpp
Аудио: Русский/Дублированный, AAC / 2.0 / 128 Kbps / 48.0 KHz
Аудио: Английский/Оригинальная дорожка, AAC / 2.0 / 128 Kbps / 48.0 KHz
Media Type: Movie 
Sort Name: Maze Runner: The Scorch Trials
XID: Apple:vendor_id:2015-tt4046784
ScreenWriters: James Dashner, T.S. Nowlin
Producers: Wes Ball, T.S. Nowlin, Lindsay Williams, Edward Gamarra, Ellen Goldsmith-Vein, Wyck Godfrey, Marty Bowen, Lee Stollman, Joe Hartwick Jr., Denise Chamian, Beth Day, Liz Ludwitzke
Director: Wes Ball, Steve Gehrke
Cast: Dylan O'Brien (Thomas), Kaya Scodelario (Teresa), Thomas Brodie-Sangster (Newt), Giancarlo Esposito (Jorge), Aidan Gillen (Janson), Barry Pepper (Vince),
Lili Taylor (Mary Cooper), Patricia Clarkson (Ava Paige), Ki Hong Lee (Minho), Dexter Darden (Frypan), Jacob Lofland (Aris Jones), Nathalie Emmanuel (Harriet), Katherine McNamara (Sonya), Lora Martinez-Cunningham (Thomas' Mother),
Rosa Salazar (Brenda), Tatanka Means (Joe), Keith Jardine (Scavenger Guard (Jim)), Jenny Gabrielle (Ponytail), Bryce Romero (Jack), Alan Tudyk (Blondie), Shawn Prince (David), Terry Dale Parks (Carl (Masked Man))
Rating: PG-13
Long Description: Лабиринт пройден, но Томасу, Терезе, Минхо и прочим глэйдерам не приходится расслабляться. Таинственное руководство ПОРОКА — секретной организации, устроившей гонки на выживание — назначает ребятам новые, смертельно опасные испытания.
На сей раз их ждет переход по раскаленной пустыне и встреча с жертвами неизлечимой болезни, которые отличаются буйным нравом и непредсказуемым поведением.
Description: Лабиринт пройден, но Томасу, Терезе, Минхо и прочим глэйдерам не приходится расслабляться.
Таинственное руководство ПОРОКА — секретной организации, устроившей гонки на выживание — назначает ребятам новые, смертельно опасные испытания. На сей раз их ж
Release Date: 2015-09-09
Genre: боевик & фантастика & триллер
Name: Бегущий в лабиринте: Испытание огнём
 
General
Video
ID : 1
Format : AVC
Format/Info : Advanced Video Codec
Format profile : High@L3.1
Format settings, CABAC : Yes
Format settings, ReFrames : 9 frames
Codec ID : avc1
Codec ID/Info : Advanced Video Coding
Duration : 2h 11mn
Bit rate : 2 320 Kbps
Width : 1 024 pixels
Height : 428 pixels
Display aspect ratio : 2.40:1
Frame rate mode : Variable
Frame rate : 23.976 fps
Minimum frame rate : 23.974 fps
Maximum frame rate : 23.981 fps
Color space : YUV
Chroma subsampling : 4:2:0
Bit depth : 8 bits
Scan type : Progressive
Bits/(Pixel*Frame) : 0.221
Stream size : 2.13 GiB (90%)
Writing library : x264 core 142 r2479 dd79a61
Encoding settings : cabac=1 / ref=9 / deblock=1:0:0 / analyse=0x3:0x113 / me=umh / subme=9 / psy=1 / psy_rd=1.00:0.00 / mixed_ref=1 /
me_range=32 / chroma_me=1 / trellis=1 / 8x8dct=1 / cqm=0 / deadzone=21,11 / fast_pskip=1 / chroma_qp_offset=-2 / threads=12 / lookahead_threads=1 /
sliced_threads=0 / nr=0 / decimate=1 / interlaced=0 / bluray_compat=0 / constrained_intra=0 / bframes=6 / b_pyramid=2 / b_adapt=2 / b_bias=0 / direct=1 /
weightb=1 / open_gop=0 / weightp=2 / keyint=240 / keyint_min=24 / scenecut=40 / intra_refresh=0 / rc_lookahead=40 / rc=2pass / mbtree=1 / bitrate=2320 /
ratetol=1.0 / qcomp=0.60 / qpmin=0 / qpmax=69 / qpstep=4 / cplxblur=20.0 / qblur=0.5 / vbv_maxrate=17500 / vbv_bufsize=17500 / nal_hrd=none / filler=0 /
ip_ratio=1.40 / aq=1:1.00
Encoded date : UTC 2016-05-02 21:51:37
Tagged date : UTC 2016-05-02 21:51:37
Color range : Limited
Color primaries : BT.709
Transfer characteristics : BT.709
Matrix coefficients : BT.709

Audio #1
ID : 2
Format : AAC
Format/Info : Advanced Audio Codec
Format profile : LC
Codec ID : 40
Duration : 2h 11mn
Bit rate mode : Variable
Bit rate : 128 Kbps
Maximum bit rate : 155 Kbps
Channel(s) : 2 channels
Channel positions : Front: L R
Sampling rate : 48.0 KHz
Compression mode : Lossy
Stream size : 121 MiB (5%)
Title : Дубляж / Дубляж
Language : Russian
Encoded date : UTC 2016-05-02 21:51:37
Tagged date : UTC 2016-05-02 21:51:37

Audio #2
ID : 3
Format : AAC
Format/Info : Advanced Audio Codec
Format profile : LC
Codec ID : 40
Duration : 2h 11mn
Bit rate mode : Variable
Bit rate : 128 Kbps
Maximum bit rate : 157 Kbps
Channel(s) : 2 channels
Channel positions : Front: L R
Sampling rate : 48.0 KHz
Compression mode : Lossy
Stream size : 121 MiB (5%)
Title : Оригинал / Оригинал
Language : English
Encoded date : UTC 2016-05-02 21:51:37
Tagged date : UTC 2016-05-02 21:51:37

Text #1
ID : 4
Format : Timed Text
Muxing mode : sbtl
Codec ID : tx3g
Duration : 2h 3mn
Bit rate mode : Variable
Bit rate : 69 bps
Stream size : 63.0 KiB (0%)
Language : Russian
Encoded date : UTC 2016-05-02 21:51:37
Tagged date : UTC 2016-05-02 21:51:37

Text #2
ID : 5
Format : Timed Text
Muxing mode : sbtl
Codec ID : tx3g
Duration : 2h 3mn
Bit rate mode : Variable
Bit rate : 47 bps
Stream size : 42.7 KiB (0%)
Language : English
Encoded date : UTC 2016-05-02 21:51:37
Tagged date : UTC 2016-05-02 21:51:37

Menu
ID : 7
Codec ID : text
Duration : 2h 11mn
Encoded date : UTC 2016-05-03 07:55:43
Tagged date : UTC 2016-05-03 07:55:43
Bit rate mode : CBR
00:00:00.000 : 00:00:00.000
00:04:05.245 : 00:04:05.120
00:05:59.985 : 00:05:59.818
00:09:09.048 : 00:09:08.798
00:11:56.049 : 00:11:55.840
00:17:32.843 : 00:17:32.677
00:23:21.275 : 00:23:21.191
00:27:36.113 : 00:27:36.029
00:33:10.322 : 00:33:10.238
00:37:06.808 : 00:37:06.683
00:41:31.072 : 00:41:30.988
00:45:47.620 : 00:45:47.370
00:51:57.865 : 00:51:57.781
00:56:01.858 : 00:56:01.775
01:00:56.403 : 01:00:56.319
01:03:50.744 : 01:03:50.535
01:07:29.379 : 01:07:29.254
01:11:19.317 : 01:11:19.192
01:15:32.987 : 01:15:32.820
01:20:15.144 : 01:20:15.060
01:27:47.679 : 01:27:47.471
01:30:17.412 : 01:30:17.287
01:34:04.097 : 01:34:04.013
01:38:29.987 : 01:38:29.904
01:40:52.630 : 01:40:52.546
01:44:13.247 : 01:44:13.122
01:51:51.997 : 01:51:51.872
01:56:51.463 : 01:56:51.213
02:01:02.839 : 02:01:02.714
02:04:05.229 : 02:04:05.146
 
x264 [info]: frame I:1561 Avg QP:10.93 size: 69599
x264 [info]: frame P:54251 Avg QP:14.04 size: 22258
x264 [info]: frame B:133668 Avg QP:15.99 size: 7293
x264 [info]: consecutive B-frames: 6.8% 6.3% 12.1% 33.0% 15.0% 19.1% 7.8%
x264 [info]: mb I I16..4: 9.4% 68.5% 22.1%
x264 [info]: mb P I16..4: 3.0% 13.8% 3.4% P16..4: 31.4% 24.4% 14.4% 0.0% 0.0% skip: 9.5%
x264 [info]: mb B I16..4: 0.3% 1.4% 0.4% B16..8: 38.5% 14.7% 3.8% direct: 5.7% skip:35.1% L0:42.5% L1:44.8% BI:12.6%
x264 [info]: 8x8 transform intra:67.7% inter:69.2%
x264 [info]: coded y,uvDC,uvAC intra: 77.7% 82.3% 67.1% inter: 28.7% 25.7% 6.5%
x264 [info]: i16 v,h,dc,p: 33% 12% 7% 48%
x264 [info]: i8 v,h,dc,ddl,ddr,vr,hd,vl,hu: 11% 8% 10% 9% 12% 13% 12% 12% 13%
x264 [info]: i4 v,h,dc,ddl,ddr,vr,hd,vl,hu: 10% 7% 5% 10% 16% 15% 14% 12% 13%
x264 [info]: i8c dc,h,v,p: 47% 21% 18% 14%
x264 [info]: Weighted P-Frames: Y:9.3% UV:4.6%
x264 [info]: ref P L0: 53.3% 8.9% 15.3% 6.6% 4.7% 3.8% 2.9% 1.9% 1.8% 0.7% 0.1%
x264 [info]: ref B L0: 78.4% 10.7% 4.7% 2.2% 1.6% 1.2% 0.8% 0.3%
x264 [info]: ref B L1: 93.0% 7.0%
x264 [info]: kb/s:2319.17

Релиз подготовлен для просмотра на Apple TV, iPad, iPhone, iPod Touch.
Для просмотра данного релиза на компьютере с ОС Windows рекомендуется использовать VLC media player
info [Профиль]  [ЛС] 
Показать сообщения:    
Ответить на тему

Текущее время: 08-Дек 14:01

Часовой пояс: GMT + 4



Вы не можете начинать темы
Вы не можете отвечать на сообщения
Вы не можете редактировать свои сообщения
Вы не можете удалять свои сообщения
Вы не можете голосовать в опросах
Вы не можете прикреплять файлы к сообщениям
Вы не можете скачивать файлы