Ошибка

(Hip-Hop / East Coast Rap) Mobb Deep - Discography [7 Albums - 1993-2006], FLAC (tracks), lossless

Ответить на тему
 
Автор Сообщение

aNtOof!

Пол: Пол:Муж

Стаж: 7 лет 7 месяцев

Сообщений: 336

Россия
Рейтинг

post 24-Ноя-2015 09:46 1[+]

[Цитировать] 

Mobb Deep - Discography


Жанр: Hip-Hop/East Coast Rap
Год выпуска диска: 1993 - 2006 || Производитель диска: USA
Аудио кодек: FLAC (*.flac) || Тип рипа: tracks || Битрейт аудио: lossless || Продолжительность: 7:14:04
01. Intro (00:47)
02. Me & My Crew (04:47)
03. Locked in Spofford (03:51)
04. Peer Pressure (04:15)
05. Skit #1 (00:19)
06. Hold Down the Fort (04:08)
07. Bitch Ass Nigga (03:24)
08. Hit It from the Back (04:14)
09. Skit #2 (00:44)
10. Stomp Em Out (03:34)
11. Skit #3 (00:15)
12. Peer Pressure [The Large Professor Remix] (04:14)
13. Project Hallways (04:12)
14. Flavor for the Non Believes (03:57)
01. The Start Of Your Ending (41st Side) (04:24)
02. [The Infamous Prelude] (02:13)
03. Survival Of The Fittest (03:44)
04. Eye For A Eye (Your Beef Is Mines) (feat. Nas & Raekwon) (04:48)
05. (Just Step Prelude) (feat. Big Noyd) (01:11)
06. Give Up the Goods (Just Step) (feat. Big Noyd) (03:58)
07. Temperature's Rising (feat. Crystal Johnson) (05:00)
08. Up North Trip (04:58)
09. Trife Life (05:20)
10. Q.U. - Hectic (04:47)
11. Right Back At You (feat. Ghostface, Raekwon & Big Noyd) (04:53)
12. [The Grave Prelude] (00:31)
13. Cradle To The Grave (05:16)
14. Drink Away The Pain (Situations) (feat. Q-Tip) (04:46)
15. Shook Ones Pt. II (05:26)
16. Party Over (feat. Big Noyd) (05:41)
01. Animal Instinct (03:30)
02. Drop A Gem On 'em (04:18)
03. Bloodsport (03:35)
04. Extortion (03:32)
05. More Trife Life (03:45)
06. Man Down (05:03)
07. Can't Get Enough Of It (04:52)
08. Nighttime Vultures (04:29)
09. G.O.D. Pt. III (05:17)
10. Get Dealt With (03:56)
11. Hell On Earth (Front Lines) (04:34)
12. Give It Up Fast (04:01)
13. Still Shinin' (04:11)
14. Apostle's Warning (04:02)
01. Intro (00:44)
02. Street Raised Me (ft. Big Noyd, Chinky) (04:34)
03. What's Ya Poison (ft. Cormega) (03:45)
04. Spread Love (04:04)
05. Let a Ho Be a Ho (03:35)
06. I'm Going Out (ft. Lil' Cease) (03:45)
07. Allustrious (04:10)
08. Adrenaline (04:42)
09. Where Ya From (ft. Eightball) (04:02)
10. Quiet Storm (04:25)
11. Where Ya Heart At (04:28)
12. Noyd Interlude (00:20)
13. Can't Fuck Wit (ft. Raekwon) (04:12)
14. Thug Muzik (ft. Infamous Mobb, Chinky) (04:35)
15. Murda Muzik (04:11)
16. The Realest (ft. Kool G Rap) (04:21)
17. U.S.A. [Aiight Then] (04:04)
18. It's Mine (ft. NaS) (04:24)
19. Quiet Storm [Remix] (04:05)
01. Pray for Me (03:23)
02. Get Away (03:40)
03. Bounce (04:13)
04. Clap (04:54)
05. Kill That Nigga (03:48)
06. My Gats Splitting (04:34)
07. Handcuffs (03:34)
08. Hey Love (Anything) (04:04)
09. The Learning (Burn) (04:18)
10. Live Foul (04:24)
11. Hurt Niggas (03:30)
12. Get at Me (03:34)
13. I Won't Fall (04:21)
14. Crawlin' (04:07)
15. Nothing Like Home (04:27)
16. There I Go Again (10:17)
01. Amerikaz Nightmare (04:57)
02. Win Or Lose (03:12)
03. Flood The Block (02:56)
04. Dump (03:18)
05. Got It Twisted (03:42)
06. When You Hear The (02:54)
07. Real Niggaz (04:39)
08. Shorty Wop (03:34)
09. Real Gangstaz (04:08)
10. One Of Ours Part 2 (04:22)
11. On The Run (03:46)
12. Throw Your Hands In The Air (03:57)
13. Get Me (04:31)
14. We Up (02:59)
15. Neva Change (03:55)
16. Got It Twisted (Remix) (04:43)
01. Smoke It (02:58)
02. Put Em in Their Place (03:57)
03. Stole Something (ft. Lloyd Banks) (03:57)
04. Creep (ft. 50 Cent) (04:02)
05. Speakin So Freely (03:11)
06. Backstage Pass (03:06)
07. Give It to Me (ft. Young Buck) (03:08)
08. Click Click (ft. Tony Yayo) (04:25)
09. Pearly Gates (ft. 50 Cent) (04:17)
10. Capital P, Capital H (04:16)
11. Daydreamin' (03:08)
12. The Infamous (ft. 50 Cent) (03:53)
13. In Love with the Moula (03:13)
14. It's Alright (ft. 50 Cent, Mary J. Blige) (04:25)
15. Have a Party (ft. 50 Cent, Nate Dogg) [Bonus Track] (04:01)
16. Outta Control [Remix] (ft. 50 Cent) [Bonus Track] (04:08)
EAC extraction logfile from 11. July 2006, 10:16 for CD 
Mobb Deep / Juvenile Hell

Used drive : _NEC DVD_RW ND-2500A Adapter: 1 ID: 0
Read mode : Secure with NO C2, accurate stream, disable cache
Read offset correction : 48
Overread into Lead-In and Lead-Out : No

Used output format : C:\Program Files\FLAC\flac.exe (User Defined Encoder)
128 kBit/s
Additional command line options : -V -8 -T "artist=%a" -T "title=%t" -T "album=%g" -T "date=%y" -T "tracknumber=%n" -T "genre=%m" %s

Other options :
Fill up missing offset samples with silence : Yes
Delete leading and trailing silent blocks : No
Installed external ASPI interface

Track 1
Filename C:\01 - Intro.wav

Pre-gap length 0:00:02.42

Peak level 66.9 %
Track quality 99.7 %
Test CRC 7B1A0526
Copy CRC 7B1A0526
Copy OK

Track 2
Filename C:\02 - Me & My Crew.wav

Peak level 72.0 %
Track quality 99.9 %
Test CRC A378B399
Copy CRC A378B399
Copy OK

Track 3
Filename C:\03 - Locked in Spofford.wav

Peak level 100.0 %
Track quality 100.0 %
Test CRC 35146AE1
Copy CRC 35146AE1
Copy OK

Track 4
Filename C:\04 - Peer Pressure.wav

Pre-gap length 0:00:00.01

Peak level 78.6 %
Track quality 100.0 %
Test CRC D02EBD14
Copy CRC D02EBD14
Copy OK

Track 5
Filename C:\05 - Skit #1.wav

Peak level 87.3 %
Track quality 100.0 %
Test CRC ABF2B647
Copy CRC ABF2B647
Copy OK

Track 6
Filename C:\06 - Hold Down the Fort.wav

Peak level 100.0 %
Track quality 100.0 %
Test CRC E489BA58
Copy CRC E489BA58
Copy OK

Track 7
Filename C:\07 - Bitch Ass Nigga.wav

Peak level 100.0 %
Track quality 100.0 %
Test CRC 2A0C7FD1
Copy CRC 2A0C7FD1
Copy OK

Track 8
Filename C:\08 - Hit It from the Back.wav

Pre-gap length 0:00:00.01

Peak level 88.6 %
Track quality 100.0 %
Test CRC 276CC673
Copy CRC 276CC673
Copy OK

Track 9
Filename C:\09 - Skit #2.wav

Peak level 86.3 %
Track quality 100.0 %
Test CRC 90068432
Copy CRC 90068432
Copy OK

Track 10
Filename C:\10 - Stomp Em Out.wav

Pre-gap length 0:00:01.26

Peak level 97.8 %
Track quality 100.0 %
Test CRC D30C9543
Copy CRC D30C9543
Copy OK

Track 11
Filename C:\11 - Skit #3.wav

Pre-gap length 0:00:00.17

Peak level 81.5 %
Track quality 100.0 %
Test CRC 8BF227BE
Copy CRC 8BF227BE
Copy OK

Track 12
Filename C:\12 - Peer Pressure [The Large Professor Remix].wav

Peak level 97.8 %
Track quality 100.0 %
Test CRC 514BC192
Copy CRC 514BC192
Copy OK

Track 13
Filename C:\13 - Project Hallways.wav

Pre-gap length 0:00:00.60

Peak level 97.8 %
Track quality 100.0 %
Test CRC 91959931
Copy CRC 91959931
Copy OK

Track 14
Filename C:\14 - Flavor for the Non Believes.wav

Peak level 76.5 %
Track quality 100.0 %
Test CRC 5C242A6D
Copy CRC 5C242A6D
Copy OK

No errors occured

End of status report
EAC extraction logfile from 1. December 2007, 18:25 for CD 
Mobb Deep / The Infamous...

Used drive : LITE-ON LTR-48246S Adapter: 0 ID: 2
Read mode : Secure with NO C2, accurate stream, disable cache
Read offset correction : 6
Overread into Lead-In and Lead-Out : No

Used output format : C:\Program Files\FLAC\flac.exe (User Defined Encoder)
192 kBit/s
Additional command line options : -V -8 -T "artist=%a" -T "title=%t" -T "album=%g" -T "date=%y" -T "tracknumber=%n" -T "genre=%m" %s

Other options :
Fill up missing offset samples with silence : Yes
Delete leading and trailing silent blocks : No
Native Win32 interface for Win NT & 2000

Track 1
Filename C:\New RIPS\(1995) Mobb Deep - The Infamous [FLAC]\01 - The Start Of Your Ending (41st Side).wav

Pre-gap length 0:00:02.00

Peak level 88.2 %
Track quality 100.0 %
Test CRC 6ACAC72A
Copy CRC 6ACAC72A
Copy OK

Track 2
Filename C:\New RIPS\(1995) Mobb Deep - The Infamous [FLAC]\02 - [The Infamous Prelude].wav

Peak level 86.0 %
Track quality 100.0 %
Test CRC B2DF589F
Copy CRC B2DF589F
Copy OK

Track 3
Filename C:\New RIPS\(1995) Mobb Deep - The Infamous [FLAC]\03 - Survival Of The Fittest.wav

Peak level 90.8 %
Track quality 100.0 %
Test CRC E3D8C538
Copy CRC E3D8C538
Copy OK

Track 4
Filename C:\New RIPS\(1995) Mobb Deep - The Infamous [FLAC]\04 - Eye For A Eye (Your Beef Is Mines).wav

Pre-gap length 0:00:00.73

Peak level 92.9 %
Track quality 100.0 %
Test CRC 0A1F3061
Copy CRC 0A1F3061
Copy OK

Track 5
Filename C:\New RIPS\(1995) Mobb Deep - The Infamous [FLAC]\05 - (Just Step Prelude).wav

Peak level 52.1 %
Track quality 100.0 %
Test CRC 200A77F5
Copy CRC 200A77F5
Copy OK

Track 6
Filename C:\New RIPS\(1995) Mobb Deep - The Infamous [FLAC]\06 - Give Up the Goods (Just Step).wav

Peak level 94.0 %
Track quality 100.0 %
Test CRC 57403DB7
Copy CRC 57403DB7
Copy OK

Track 7
Filename C:\New RIPS\(1995) Mobb Deep - The Infamous [FLAC]\07 - Temperature's Rising.wav

Pre-gap length 0:00:01.06

Peak level 94.0 %
Track quality 100.0 %
Test CRC D096383C
Copy CRC D096383C
Copy OK

Track 8
Filename C:\New RIPS\(1995) Mobb Deep - The Infamous [FLAC]\08 - Up North Trip.wav

Pre-gap length 0:00:00.16

Peak level 94.1 %
Track quality 100.0 %
Test CRC 81A489AD
Copy CRC 81A489AD
Copy OK

Track 9
Filename C:\New RIPS\(1995) Mobb Deep - The Infamous [FLAC]\09 - Trife Life.wav

Peak level 94.0 %
Track quality 100.0 %
Test CRC 477EDBE8
Copy CRC 477EDBE8
Copy OK

Track 10
Filename C:\New RIPS\(1995) Mobb Deep - The Infamous [FLAC]\10 - Q.U. - Hectic.wav

Pre-gap length 0:00:00.40

Peak level 94.0 %
Track quality 99.9 %
Test CRC D8476F05
Copy CRC D8476F05
Copy OK

Track 11
Filename C:\New RIPS\(1995) Mobb Deep - The Infamous [FLAC]\11 - Right Back At You.wav

Pre-gap length 0:00:01.06

Peak level 94.0 %
Track quality 100.0 %
Test CRC 86DC46E8
Copy CRC 86DC46E8
Copy OK

Track 12
Filename C:\New RIPS\(1995) Mobb Deep - The Infamous [FLAC]\12 - [The Grave Prelude].wav

Pre-gap length 0:00:00.13

Peak level 77.2 %
Track quality 100.0 %
Test CRC 8B4337EA
Copy CRC 8B4337EA
Copy OK

Track 13
Filename C:\New RIPS\(1995) Mobb Deep - The Infamous [FLAC]\13 - Cradle To The Grave.wav

Peak level 100.0 %
Track quality 100.0 %
Test CRC 708733B8
Copy CRC 708733B8
Copy OK

Track 14
Filename C:\New RIPS\(1995) Mobb Deep - The Infamous [FLAC]\14 - Drink Away The Pain (Situations).wav

Pre-gap length 0:00:00.73

Peak level 91.2 %
Track quality 100.0 %
Test CRC 2C7D2740
Copy CRC 2C7D2740
Copy OK

Track 15
Filename C:\New RIPS\(1995) Mobb Deep - The Infamous [FLAC]\15 - Shook Ones Pt. II.wav

Pre-gap length 0:00:00.97

Peak level 94.0 %
Track quality 100.0 %
Test CRC 7ED05CD9
Copy CRC 7ED05CD9
Copy OK

Track 16
Filename C:\New RIPS\(1995) Mobb Deep - The Infamous [FLAC]\16 - Party Over.wav

Pre-gap length 0:00:01.17

Peak level 94.0 %
Track quality 99.9 %
Test CRC 1CC8DA4D
Copy CRC 1CC8DA4D
Copy OK

No errors occured

End of status report
Exact Audio Copy V0.99 prebeta 4 from 23. January 2008 

EAC extraction logfile from 10. May 2008, 1:06

Mobb Deep / Hell On Earth

Used drive : HL-DT-STCD-RW GCE-8483B Adapter: 1 ID: 0

Read mode : Secure
Utilize accurate stream : Yes
Defeat audio cache : Yes
Make use of C2 pointers : No

Read offset correction : 6
Overread into Lead-In and Lead-Out : No
Fill up missing offset samples with silence : Yes
Delete leading and trailing silent blocks : No
Null samples used in CRC calculations : Yes
Used interface : Native Win32 interface for Win NT & 2000
Gap handling : Appended to previous track

Used output format : User Defined Encoder
Selected bitrate : 192 kBit/s
Quality : High
Add ID3 tag : No
Command line compressor : C:\Program Files\Exact Audio Copy\Flac\flac.exe
Additional command line options : -8 -A tukey(0.25) -A gauss(0.1875) -b 4096 -V -T "artist=%a" -T "title=%t" -T "album=%g" -T "date=%y" -T "tracknumber=%n" -T "genre=%m" %s --sector-align

TOC of the extracted CD

Track | Start | Length | Start sector | End sector
---------------------------------------------------------
1 | 9:54.41 | 3:30.26 | 44591 | 60366
2 | 13:24.67 | 4:18.18 | 60367 | 79734
3 | 17:43.10 | 3:35.23 | 79735 | 95882
4 | 21:18.33 | 3:31.55 | 95883 | 111762
5 | 24:50.13 | 3:44.68 | 111763 | 128630
6 | 28:35.06 | 5:03.07 | 128631 | 151362
7 | 33:38.13 | 4:51.39 | 151363 | 173226
8 | 38:29.52 | 4:29.33 | 173227 | 193434
9 | 42:59.10 | 5:17.09 | 193435 | 217218
10 | 48:16.19 | 3:56.12 | 217219 | 234930
11 | 52:12.31 | 4:34.26 | 234931 | 255506
12 | 56:46.57 | 4:00.56 | 255507 | 273562
13 | 60:47.38 | 4:11.03 | 273563 | 292390
14 | 64:58.41 | 4:02.22 | 292391 | 310562

Track 1

Filename C:\Documents and Settings\\Desktop\EAC Downloads\01 - Mobb Deep - Animal Instinct.wav

Pre-gap length 0:09:56.54

Peak level 100.0 %
Track quality 100.0 %
Test CRC B1F7710F
Copy CRC B1F7710F
Copy OK

Track 2

Filename C:\Documents and Settings\\Desktop\EAC Downloads\02 - Mobb Deep - Drop A Gem On 'em.wav

Peak level 100.0 %
Track quality 100.0 %
Test CRC CC7E5782
Copy CRC CC7E5782
Copy OK

Track 3

Filename C:\Documents and Settings\\Desktop\EAC Downloads\03 - Mobb Deep - Bloodsport.wav

Peak level 100.0 %
Track quality 100.0 %
Test CRC B046FA0A
Copy CRC B046FA0A
Copy OK

Track 4

Filename C:\Documents and Settings\\Desktop\EAC Downloads\04 - Mobb Deep - Extortion.wav

Peak level 100.0 %
Track quality 100.0 %
Test CRC 400844F1
Copy CRC 400844F1
Copy OK

Track 5

Filename C:\Documents and Settings\\Desktop\EAC Downloads\05 - Mobb Deep - More Trife Life.wav

Peak level 100.0 %
Track quality 100.0 %
Test CRC 2A9377D5
Copy CRC 2A9377D5
Copy OK

Track 6

Filename C:\Documents and Settings\\Desktop\EAC Downloads\06 - Mobb Deep - Man Down.wav

Peak level 100.0 %
Track quality 100.0 %
Test CRC 2457F0E8
Copy CRC 2457F0E8
Copy OK

Track 7

Filename C:\Documents and Settings\\Desktop\EAC Downloads\07 - Mobb Deep - Can't Get Enough Of It.wav

Peak level 85.1 %
Track quality 100.0 %
Test CRC 7324CF96
Copy CRC 7324CF96
Copy OK

Track 8

Filename C:\Documents and Settings\\Desktop\EAC Downloads\08 - Mobb Deep - Nighttime Vultures.wav

Peak level 100.0 %
Track quality 100.0 %
Test CRC E847019A
Copy CRC E847019A
Copy OK

Track 9

Filename C:\Documents and Settings\\Desktop\EAC Downloads\09 - Mobb Deep - G.O.D. Pt. III.wav

Peak level 93.3 %
Track quality 99.9 %
Test CRC 747C9852
Copy CRC 747C9852
Copy OK

Track 10

Filename C:\Documents and Settings\\Desktop\EAC Downloads\10 - Mobb Deep - Get Dealt With.wav

Peak level 100.0 %
Track quality 100.0 %
Test CRC FF6C4E0F
Copy CRC FF6C4E0F
Copy OK

Track 11

Filename C:\Documents and Settings\\Desktop\EAC Downloads\11 - Mobb Deep - Hell On Earth (Front Lines).wav

Peak level 93.3 %
Track quality 100.0 %
Test CRC 4486D7A4
Copy CRC 4486D7A4
Copy OK

Track 12

Filename C:\Documents and Settings\\Desktop\EAC Downloads\12 - Mobb Deep - Give It Up Fast.wav

Peak level 100.0 %
Track quality 99.9 %
Test CRC DCF8C345
Copy CRC DCF8C345
Copy OK

Track 13

Filename C:\Documents and Settings\\Desktop\EAC Downloads\13 - Mobb Deep - Still Shinin'.wav

Peak level 100.0 %
Track quality 99.9 %
Test CRC 03B03A55
Copy CRC 03B03A55
Copy OK

Track 14

Filename C:\Documents and Settings\\Desktop\EAC Downloads\14 - Mobb Deep - Apostle's Warning.wav

Peak level 100.0 %
Track quality 100.0 %
Test CRC 470675D9
Copy CRC 470675D9
Copy OK

No errors occurred

End of status report
EAC extraction logfile from 22. April 2006, 1:16 for CD 
Mobb Deep / Murda Muzik

Used drive : SONY CD-RW CRX320EE Adapter: 0 ID: 0
Read mode : Secure with NO C2, accurate stream, disable cache
Read offset correction : 6
Overread into Lead-In and Lead-Out : No

Used output format : C:\Program Files\FLAC\flac.exe (User Defined Encoder)
128 kBit/s
Additional command line options : -V -8 -T "artist=%a" -T "title=%t" -T "album=%g" -T "date=%y" -T "tracknumber=%n" -T "genre=%m" %s

Other options :
Fill up missing offset samples with silence : Yes
Delete leading and trailing silent blocks : No
Installed external ASPI interface

Track 1
Filename D:\RIPS\Mobb Deep\Murda Muzik\01 - Intro.wav

Pre-gap length 0:00:02.00

Peak level 43.9 %
Track quality 100.0 %
Test CRC 85B141A4
Copy CRC 85B141A4
Copy OK

Track 2
Filename D:\RIPS\Mobb Deep\Murda Muzik\02 - Street Raised Me Featuring Big Noyd and Chinky.wav

Peak level 100.0 %
Track quality 100.0 %
Test CRC 6232B642
Copy CRC 6232B642
Copy OK

Track 3
Filename D:\RIPS\Mobb Deep\Murda Muzik\03 - What's Ya Poison Featuring Cormega.wav

Peak level 100.0 %
Track quality 100.0 %
Test CRC C34C97DC
Copy CRC C34C97DC
Copy OK

Track 4
Filename D:\RIPS\Mobb Deep\Murda Muzik\04 - Spread Love.wav

Peak level 100.0 %
Track quality 100.0 %
Test CRC 1745B619
Copy CRC 1745B619
Copy OK

Track 5
Filename D:\RIPS\Mobb Deep\Murda Muzik\05 - Let A Ho Be A Ho.wav

Peak level 100.0 %
Track quality 100.0 %
Test CRC 7D911A32
Copy CRC 7D911A32
Copy OK

Track 6
Filename D:\RIPS\Mobb Deep\Murda Muzik\06 - I'm Goin Out Featuring Lil Cease.wav

Peak level 100.0 %
Track quality 99.9 %
Test CRC D5B384B9
Copy CRC D5B384B9
Copy OK

Track 7
Filename D:\RIPS\Mobb Deep\Murda Muzik\07 - Allustrious.wav

Peak level 100.0 %
Track quality 100.0 %
Test CRC DB205C55
Copy CRC DB205C55
Copy OK

Track 8
Filename D:\RIPS\Mobb Deep\Murda Muzik\08 - Adrenaline.wav

Peak level 100.0 %
Track quality 100.0 %
Test CRC B25760F2
Copy CRC B25760F2
Copy OK

Track 9
Filename D:\RIPS\Mobb Deep\Murda Muzik\09 - Where Ya From Featuring 8-Ball.wav

Peak level 100.0 %
Track quality 100.0 %
Test CRC E3CF3C68
Copy CRC E3CF3C68
Copy OK

Track 10
Filename D:\RIPS\Mobb Deep\Murda Muzik\10 - Quiet Storm.wav

Peak level 100.0 %
Track quality 100.0 %
Test CRC DFACB4E7
Copy CRC DFACB4E7
Copy OK

Track 11
Filename D:\RIPS\Mobb Deep\Murda Muzik\11 - Where Ya Heart At.wav

Peak level 100.0 %
Track quality 100.0 %
Test CRC F098F603
Copy CRC F098F603
Copy OK

Track 12
Filename D:\RIPS\Mobb Deep\Murda Muzik\12 - Noyd Interlude.wav

Peak level 29.3 %
Track quality 100.0 %
Test CRC 85F7A686
Copy CRC 85F7A686
Copy OK

Track 13
Filename D:\RIPS\Mobb Deep\Murda Muzik\13 - Can't Fuck Wit Featuring Raekwon.wav

Peak level 100.0 %
Track quality 99.9 %
Test CRC B24E8F00
Copy CRC B24E8F00
Copy OK

Track 14
Filename D:\RIPS\Mobb Deep\Murda Muzik\14 - Thug Muzik Featuring Infamous Mobb and Chinky.wav

Peak level 100.0 %
Track quality 99.9 %
Test CRC 4EDD987F
Copy CRC 4EDD987F
Copy OK

Track 15
Filename D:\RIPS\Mobb Deep\Murda Muzik\15 - Murda Muzik.wav

Peak level 100.0 %
Track quality 100.0 %
Test CRC C84FB620
Copy CRC C84FB620
Copy OK

Track 16
Filename D:\RIPS\Mobb Deep\Murda Muzik\16 - The Realest Featuring Kool G Rap.wav

Peak level 100.0 %
Track quality 100.0 %
Test CRC 0CF3B5AF
Copy CRC 0CF3B5AF
Copy OK

Track 17
Filename D:\RIPS\Mobb Deep\Murda Muzik\17 - The USA (Aiight Then).wav

Pre-gap length 0:00:01.20

Peak level 100.0 %
Track quality 100.0 %
Test CRC FA1FD7D4
Copy CRC FA1FD7D4
Copy OK

Track 18
Filename D:\RIPS\Mobb Deep\Murda Muzik\18 - It's Mine Featuring Nas.wav

Peak level 100.0 %
Track quality 99.9 %
Test CRC 9831B538
Copy CRC 9831B538
Copy OK

Track 19
Filename D:\RIPS\Mobb Deep\Murda Muzik\19 - Quiet Storm (Remix).wav

Peak level 100.0 %
Track quality 100.0 %
Test CRC 19DFC45B
Copy CRC 19DFC45B
Copy OK

No errors occured

End of status report
Exact Audio Copy V0.99 prebeta 4 from 23. January 2008 

EAC extraction logfile from 7. May 2008, 21:57

Mobb Deep / Infamy

Used drive : HL-DT-STCD-RW GCE-8483B Adapter: 1 ID: 0

Read mode : Secure
Utilize accurate stream : Yes
Defeat audio cache : Yes
Make use of C2 pointers : No

Read offset correction : 6
Overread into Lead-In and Lead-Out : No
Fill up missing offset samples with silence : Yes
Delete leading and trailing silent blocks : No
Null samples used in CRC calculations : Yes
Used interface : Native Win32 interface for Win NT & 2000
Gap handling : Appended to previous track

Used output format : User Defined Encoder
Selected bitrate : 192 kBit/s
Quality : High
Add ID3 tag : No
Command line compressor : C:\Program Files\Exact Audio Copy\Flac\flac.exe
Additional command line options : -8 -A tukey(0.25) -A gauss(0.1875) -b 4096 -V -T "artist=%a" -T "title=%t" -T "album=%g" -T "date=%y" -T "tracknumber=%n" -T "genre=%m" %s --sector-align

TOC of the extracted CD

Track | Start | Length | Start sector | End sector
---------------------------------------------------------
1 | 0:00.00 | 3:22.62 | 0 | 15211
2 | 3:22.62 | 3:40.30 | 15212 | 31741
3 | 7:03.17 | 4:13.23 | 31742 | 50739
4 | 11:16.40 | 4:53.50 | 50740 | 72764
5 | 16:10.15 | 3:47.40 | 72765 | 89829
6 | 19:57.55 | 4:34.12 | 89830 | 110391
7 | 24:31.67 | 3:34.05 | 110392 | 126446
8 | 28:05.72 | 4:04.13 | 126447 | 144759
9 | 32:10.10 | 4:17.40 | 144760 | 164074
10 | 36:27.50 | 4:24.12 | 164075 | 183886
11 | 40:51.62 | 3:29.73 | 183887 | 199634
12 | 44:21.60 | 3:33.62 | 199635 | 215671
13 | 47:55.47 | 4:20.65 | 215672 | 235236
14 | 52:16.37 | 4:07.28 | 235237 | 253789
15 | 56:23.65 | 4:27.12 | 253790 | 273826
16 | 60:51.02 | 10:17.08 | 273827 | 320109

Track 1

Filename C:\Documents and Settings\\Desktop\EAC Downloads\01 - Mobb Deep - Pray for Me.wav

Pre-gap length 0:00:02.00

Peak level 98.8 %
Track quality 100.0 %
Test CRC 17DCB784
Copy CRC 17DCB784
Copy OK

Track 2

Filename C:\Documents and Settings\\Desktop\EAC Downloads\02 - Mobb Deep - Get Away.wav

Peak level 98.8 %
Track quality 100.0 %
Test CRC B79B03C0
Copy CRC B79B03C0
Copy OK

Track 3

Filename C:\Documents and Settings\\Desktop\EAC Downloads\03 - Mobb Deep - Bounce.wav

Peak level 98.8 %
Track quality 100.0 %
Test CRC FED858D3
Copy CRC FED858D3
Copy OK

Track 4

Filename C:\Documents and Settings\\Desktop\EAC Downloads\04 - Mobb Deep - Clap.wav

Peak level 98.8 %
Track quality 100.0 %
Test CRC 7113BE9E
Copy CRC 7113BE9E
Copy OK

Track 5

Filename C:\Documents and Settings\\Desktop\EAC Downloads\05 - Mobb Deep - Kill That Nigga.wav

Peak level 98.8 %
Track quality 100.0 %
Test CRC 1C845842
Copy CRC 1C845842
Copy OK

Track 6

Filename C:\Documents and Settings\\Desktop\EAC Downloads\06 - Mobb Deep - My Gats Splitting.wav

Peak level 98.8 %
Track quality 100.0 %
Test CRC 1A592866
Copy CRC 1A592866
Copy OK

Track 7

Filename C:\Documents and Settings\\Desktop\EAC Downloads\07 - Mobb Deep - Handcuffs.wav

Peak level 98.8 %
Track quality 100.0 %
Test CRC 02CD1E69
Copy CRC 02CD1E69
Copy OK

Track 8

Filename C:\Documents and Settings\\Desktop\EAC Downloads\08 - Mobb Deep - Hey Love (Anything).wav

Peak level 98.8 %
Track quality 100.0 %
Test CRC A4DF6EC2
Copy CRC A4DF6EC2
Copy OK

Track 9

Filename C:\Documents and Settings\\Desktop\EAC Downloads\09 - Mobb Deep - The Learning (Burn).wav

Pre-gap length 0:00:02.06

Peak level 98.8 %
Track quality 100.0 %
Test CRC 431B9BCF
Copy CRC 431B9BCF
Copy OK

Track 10

Filename C:\Documents and Settings\\Desktop\EAC Downloads\10 - Mobb Deep - Live Foul.wav

Pre-gap length 0:00:02.70

Peak level 98.8 %
Track quality 100.0 %
Test CRC CA001E8E
Copy CRC CA001E8E
Copy OK

Track 11

Filename C:\Documents and Settings\\Desktop\EAC Downloads\11 - Mobb Deep - Hurt Niggas.wav

Pre-gap length 0:00:00.46

Peak level 98.8 %
Track quality 100.0 %
Test CRC 03942186
Copy CRC 03942186
Copy OK

Track 12

Filename C:\Documents and Settings\\Desktop\EAC Downloads\12 - Mobb Deep - Get at Me.wav

Peak level 98.8 %
Track quality 99.9 %
Test CRC 4105C8DA
Copy CRC 4105C8DA
Copy OK

Track 13

Filename C:\Documents and Settings\\Desktop\EAC Downloads\13 - Mobb Deep - I Won't Fall.wav

Pre-gap length 0:00:02.96

Peak level 98.8 %
Track quality 100.0 %
Test CRC 39BDB8C8
Copy CRC 39BDB8C8
Copy OK

Track 14

Filename C:\Documents and Settings\\Desktop\EAC Downloads\14 - Mobb Deep - Crawlin'.wav

Peak level 98.8 %
Track quality 99.9 %
Test CRC AAFD3496
Copy CRC AAFD3496
Copy OK

Track 15

Filename C:\Documents and Settings\\Desktop\EAC Downloads\15 - Mobb Deep - Nothing Like Home.wav

Pre-gap length 0:00:00.66

Peak level 98.8 %
Track quality 100.0 %
Test CRC 8C06B790
Copy CRC 8C06B790
Copy OK

Track 16

Filename C:\Documents and Settings\\Desktop\EAC Downloads\16 - Mobb Deep - There I Go Again.wav

Pre-gap length 0:00:00.76

Peak level 98.8 %
Track quality 100.0 %
Test CRC 680B4E8C
Copy CRC 680B4E8C
Copy OK

No errors occurred

End of status report
Exact Audio Copy V0.99 prebeta 4 from 23. January 2008 

EAC extraction logfile from 26. July 2008, 23:47

Mobb Deep / Amerikaz Nightmare

Used drive : HL-DT-STCD-RW GCE-8483B Adapter: 1 ID: 0

Read mode : Secure
Utilize accurate stream : Yes
Defeat audio cache : Yes
Make use of C2 pointers : No

Read offset correction : 6
Overread into Lead-In and Lead-Out : Yes
Fill up missing offset samples with silence : Yes
Delete leading and trailing silent blocks : No
Null samples used in CRC calculations : Yes
Used interface : Native Win32 interface for Win NT & 2000
Gap handling : Appended to previous track

Used output format : User Defined Encoder
Selected bitrate : 192 kBit/s
Quality : High
Add ID3 tag : No
Command line compressor : C:\Program Files\Exact Audio Copy\Flac\flac.exe
Additional command line options : -8 -A tukey(0.25) -A gauss(0.1875) -b 4096 -V -T "artist=%a" -T "title=%t" -T "album=%g" -T "date=%y" -T "tracknumber=%n" -T "genre=%m" %s --sector-align

TOC of the extracted CD

Track | Start | Length | Start sector | End sector
---------------------------------------------------------
1 | 0:00.00 | 4:57.21 | 0 | 22295
2 | 4:57.21 | 3:12.36 | 22296 | 36731
3 | 8:09.57 | 2:56.10 | 36732 | 49941
4 | 11:05.67 | 3:17.50 | 49942 | 64766
5 | 14:23.42 | 3:41.63 | 64767 | 81404
6 | 18:05.30 | 2:53.67 | 81405 | 94446
7 | 20:59.22 | 4:39.00 | 94447 | 115371
8 | 25:38.22 | 3:33.51 | 115372 | 131397
9 | 29:11.73 | 4:08.29 | 131398 | 150026
10 | 33:20.27 | 4:21.40 | 150027 | 169641
11 | 37:41.67 | 3:46.17 | 169642 | 186608
12 | 41:28.09 | 3:57.34 | 186609 | 204417
13 | 45:25.43 | 4:31.30 | 204418 | 224772
14 | 49:56.73 | 2:58.62 | 224773 | 238184
15 | 52:55.60 | 3:55.13 | 238185 | 255822
16 | 56:50.73 | 4:43.35 | 255823 | 277082

Track 1

Filename C:\Documents and Settings\\Desktop\EAC Downloads\01 - Mobb Deep - Amerikaz Nightmare.wav

Pre-gap length 0:00:02.00

Peak level 99.7 %
Track quality 100.0 %
Test CRC 39118AD7
Copy CRC 39118AD7
Accurately ripped (confidence 4) [07F6C0D2]
Copy OK

Track 2

Filename C:\Documents and Settings\\Desktop\EAC Downloads\02 - Mobb Deep - Win Or Lose.wav

Pre-gap length 0:00:01.13

Peak level 99.8 %
Track quality 100.0 %
Test CRC 91B66864
Copy CRC 91B66864
Accurately ripped (confidence 4) [1292C39B]
Copy OK

Track 3

Filename C:\Documents and Settings\\Desktop\EAC Downloads\03 - Mobb Deep - Flood The Block.wav

Pre-gap length 0:00:00.26

Peak level 99.8 %
Track quality 100.0 %
Test CRC 00F990FA
Copy CRC 00F990FA
Accurately ripped (confidence 4) [BE5FC0CF]
Copy OK

Track 4

Filename C:\Documents and Settings\\Desktop\EAC Downloads\04 - Mobb Deep - Dump.wav

Pre-gap length 0:00:00.77

Peak level 99.8 %
Track quality 100.0 %
Test CRC CF0B8A84
Copy CRC CF0B8A84
Accurately ripped (confidence 4) [FEC9461D]
Copy OK

Track 5

Filename C:\Documents and Settings\\Desktop\EAC Downloads\05 - Mobb Deep - Got It Twisted.wav

Pre-gap length 0:00:02.78

Peak level 99.8 %
Track quality 99.9 %
Test CRC 00D3B962
Copy CRC 00D3B962
Accurately ripped (confidence 4) [45D88846]
Copy OK

Track 6

Filename C:\Documents and Settings\\Desktop\EAC Downloads\06 - Mobb Deep - When You Hear The.wav

Peak level 99.8 %
Track quality 100.0 %
Test CRC 5F279282
Copy CRC 5F279282
Accurately ripped (confidence 4) [D197F033]
Copy OK

Track 7

Filename C:\Documents and Settings\\Desktop\EAC Downloads\07 - Mobb Deep - Real Niggaz.wav

Pre-gap length 0:00:01.37

Peak level 99.8 %
Track quality 100.0 %
Test CRC 66F5D89B
Copy CRC 66F5D89B
Accurately ripped (confidence 4) [0D02566C]
Copy OK

Track 8

Filename C:\Documents and Settings\\Desktop\EAC Downloads\08 - Mobb Deep - Shorty Wop.wav

Pre-gap length 0:00:00.97

Peak level 99.8 %
Track quality 100.0 %
Test CRC 2AE26673
Copy CRC 2AE26673
Accurately ripped (confidence 4) [35887550]
Copy OK

Track 9

Filename C:\Documents and Settings\\Desktop\EAC Downloads\09 - Mobb Deep - Real Gangstaz.wav

Peak level 99.8 %
Track quality 99.9 %
Test CRC 5C56FBEB
Copy CRC 5C56FBEB
Accurately ripped (confidence 4) [8C27222F]
Copy OK

Track 10

Filename C:\Documents and Settings\\Desktop\EAC Downloads\10 - Mobb Deep - One Of Ours Part 2.wav

Peak level 99.8 %
Track quality 100.0 %
Test CRC 5250BC9B
Copy CRC 5250BC9B
Accurately ripped (confidence 4) [50B6C33D]
Copy OK

Track 11

Filename C:\Documents and Settings\\Desktop\EAC Downloads\11 - Mobb Deep - On The Run.wav

Peak level 99.8 %
Track quality 100.0 %
Test CRC 8687B6A1
Copy CRC 8687B6A1
Accurately ripped (confidence 4) [1D454BAE]
Copy OK

Track 12

Filename C:\Documents and Settings\\Desktop\EAC Downloads\12 - Mobb Deep - Throw Your Hands In The Air.wav

Peak level 99.8 %
Track quality 99.9 %
Test CRC A18BA851
Copy CRC A18BA851
Accurately ripped (confidence 4) [64C223D5]
Copy OK

Track 13

Filename C:\Documents and Settings\\Desktop\EAC Downloads\13 - Mobb Deep - Get Me.wav

Pre-gap length 0:00:01.76

Peak level 99.8 %
Track quality 100.0 %
Test CRC 03D004A3
Copy CRC 03D004A3
Accurately ripped (confidence 4) [B511A3A9]
Copy OK

Track 14

Filename C:\Documents and Settings\\Desktop\EAC Downloads\14 - Mobb Deep - We Up.wav

Pre-gap length 0:00:01.81

Peak level 99.8 %
Track quality 100.0 %
Test CRC AA7385F0
Copy CRC AA7385F0
Accurately ripped (confidence 4) [6150BE26]
Copy OK

Track 15

Filename C:\Documents and Settings\\Desktop\EAC Downloads\15 - Mobb Deep - Neva Change.wav

Pre-gap length 0:00:00.09

Peak level 99.8 %
Track quality 100.0 %
Test CRC F737A0DE
Copy CRC F737A0DE
Accurately ripped (confidence 4) [C547E9D7]
Copy OK

Track 16

Filename C:\Documents and Settings\\Desktop\EAC Downloads\16 - Mobb Deep - Got It Twisted (Remix).wav

Peak level 99.7 %
Track quality 100.0 %
Test CRC 9339A8BD
Copy CRC 9339A8BD
Accurately ripped (confidence 4) [B47ED8AC]
Copy OK

All tracks accurately ripped

No errors occurred

End of status report
EAC extraction logfile from 2. May 2006, 15:28 for CD 
Mobb Deep / Blood Money

Used drive : PIONEER DVD RW DVR-107D Adapter: 1 ID: 0
Read mode : Secure with NO C2, accurate stream, disable cache
Read offset correction : 48
Overread into Lead-In and Lead-Out : No

Used output format : C:\Install\Exact Audio Copy\flac.exe (User Defined Encoder)
192 kBit/s
Additional command line options : -V -8 -T "artist=%a" -T "title=%t" -T "album=%g" -T "date=%y" -T "tracknumber=%n" -T "genre=%m" %s

Other options :
Fill up missing offset samples with silence : Yes
Delete leading and trailing silent blocks : No
Installed external ASPI interface

Track 1
Filename D:\EAC\Mobb Deep\Blood Money\01 - Mobb Deep - Smoke It.wav

Pre-gap length 0:00:02.00

Peak level 89.3 %
Track quality 100.0 %
Test CRC BEB445D9
Copy CRC BEB445D9
Copy OK

Track 2
Filename D:\EAC\Mobb Deep\Blood Money\02 - Mobb Deep - Put Em In Their Place.wav

Peak level 89.4 %
Track quality 100.0 %
Test CRC D27FE47F
Copy CRC D27FE47F
Copy OK

Track 3
Filename D:\EAC\Mobb Deep\Blood Money\03 - Mobb Deep - Stole Something (featuring Lloyd Banks).wav

Peak level 93.5 %
Track quality 100.0 %
Test CRC 3591FF39
Copy CRC 3591FF39
Copy OK

Track 4
Filename D:\EAC\Mobb Deep\Blood Money\04 - Mobb Deep - Creep (featuring 50 Cent).wav

Peak level 93.6 %
Track quality 100.0 %
Test CRC 42067AC2
Copy CRC 42067AC2
Copy OK

Track 5
Filename D:\EAC\Mobb Deep\Blood Money\05 - Mobb Deep - Speakin So Freely.wav

Peak level 92.5 %
Track quality 100.0 %
Test CRC 4D29F3CE
Copy CRC 4D29F3CE
Copy OK

Track 6
Filename D:\EAC\Mobb Deep\Blood Money\06 - Mobb Deep - Backstage Pass.wav

Peak level 90.4 %
Track quality 100.0 %
Test CRC 0B5096BB
Copy CRC 0B5096BB
Copy OK

Track 7
Filename D:\EAC\Mobb Deep\Blood Money\07 - Mobb Deep - Give It To Me (featuring Young Buck).wav

Peak level 91.4 %
Track quality 100.0 %
Test CRC 25D27FFA
Copy CRC 25D27FFA
Copy OK

Track 8
Filename D:\EAC\Mobb Deep\Blood Money\08 - Mobb Deep - Click Click (featuring Tony Yayo).wav

Peak level 98.8 %
Track quality 100.0 %
Test CRC 38055C2A
Copy CRC 38055C2A
Copy OK

Track 9
Filename D:\EAC\Mobb Deep\Blood Money\09 - Mobb Deep - Pearly Gates (featuring 50 Cent).wav

Peak level 98.8 %
Track quality 100.0 %
Test CRC A543E37E
Copy CRC A543E37E
Copy OK

Track 10
Filename D:\EAC\Mobb Deep\Blood Money\10 - Mobb Deep - Capital P, Capital H.wav

Peak level 93.5 %
Track quality 100.0 %
Test CRC 418B0CD5
Copy CRC 418B0CD5
Copy OK

Track 11
Filename D:\EAC\Mobb Deep\Blood Money\11 - Mobb Deep - Daydreamin'.wav

Peak level 92.5 %
Track quality 100.0 %
Test CRC 10CFD7E4
Copy CRC 10CFD7E4
Copy OK

Track 12
Filename D:\EAC\Mobb Deep\Blood Money\12 - Mobb Deep - The Infamous (featuring 50 Cent).wav

Peak level 90.4 %
Track quality 100.0 %
Test CRC C958BEAA
Copy CRC C958BEAA
Copy OK

Track 13
Filename D:\EAC\Mobb Deep\Blood Money\13 - Mobb Deep - In Love With The Moula.wav

Peak level 92.5 %
Track quality 100.0 %
Test CRC E525DB30
Copy CRC E525DB30
Copy OK

Track 14
Filename D:\EAC\Mobb Deep\Blood Money\14 - Mobb Deep - It's Alright (featuring 50 Cent & Mary J. Blige).wav

Peak level 84.5 %
Track quality 100.0 %
Test CRC 4A1F9344
Copy CRC 4A1F9344
Copy OK

Track 15
Filename D:\EAC\Mobb Deep\Blood Money\15 - Mobb Deep - Have A Party (featuring 50 Cent & Nate Dogg) (Bonus Track).wav

Peak level 90.5 %
Track quality 100.0 %
Test CRC EFB32E8A
Copy CRC EFB32E8A
Copy OK

Track 16
Filename D:\EAC\Mobb Deep\Blood Money\16 - Mobb Deep - Outta Control (Remix) (featuring 50 Cent) (Bonus Track).wav

Peak level 98.6 %
Track quality 100.0 %
Test CRC B362C2A5
Copy CRC B362C2A5
Copy OK

No errors occured

End of status report
info [Профиль]  [ЛС] 

The Buzzhorn

Пол: Пол:Муж

Стаж: 6 лет 2 месяца

Сообщений: 901

Германия
Рейтинг

post 01-Дек-2015 16:12 (спустя 7 дней) [-]0[+]

[Цитировать] 

Цитата:

Тип рипа: tracks+.cue
но в раздаче ни одной кьюшки нет.
info [Профиль]  [ЛС] 

aNtOof!

Пол: Пол:Муж

Стаж: 7 лет 7 месяцев

Сообщений: 336

Россия
Рейтинг

post 13-Дек-2015 09:07 (спустя 11 дней) [-]0[+]

[Цитировать] 

The Buzzhorn писал(а):

но в раздаче ни одной кьюшки нет.
поправил
info [Профиль]  [ЛС] 

gringo890

Пол: Пол:Муж

Стаж: 4 года 1 месяц

Сообщений: 232

Россия
Рейтинг

post 14-Дек-2015 02:18 (спустя 17 часов) [-]2[+]

[Цитировать] 

Вещь)
info [Профиль]  [ЛС] 

Conness

Пол: Пол:Муж

Стаж: 2 года 7 месяцев

Сообщений: 2

Россия
Рейтинг

post 27-Дек-2015 13:59 (спустя 13 дней) [-]0[+]

[Цитировать] 

спасибо! (kolob117)
info [Профиль]  [ЛС] 
Показать сообщения:    
Ответить на тему

Текущее время: 08-Дек 02:24

Часовой пояс: GMT + 4



Вы не можете начинать темы
Вы не можете отвечать на сообщения
Вы не можете редактировать свои сообщения
Вы не можете удалять свои сообщения
Вы не можете голосовать в опросах
Вы не можете прикреплять файлы к сообщениям
Вы не можете скачивать файлы