Ошибка

(Industrial, Dark Electro, EBM, Electro, TBM) Eden Synthetic Corps (ESC) - Discography [2006-2013] FLAC (tracks+.cue, image, covers), lossless

Ответить на тему
 
Автор Сообщение

Pray

Пол: Пол:Муж

Стаж: 5 лет 4 месяца

Сообщений: 878

Предупреждений: 1

Украина
Рейтинг

post 25-Июн-2015 18:49 0[+]

[Цитировать] 


Eden Synthetic Corps (ESC) - Discography

Год выпуска: 2006-2013
Жанр: Industrial, Dark Electro, EBM, Electro, TBM
Продолжительность: 03:56:15
Тип рипа: tracks+.cue, image+.cue, tracks, covers
Кодек: FLAC (*.flac)
Битрейт: lossless
ESC (EDEN SYNTHETIC CORPS) — португальская Harsh EBM/Dark Electro группа с очень ярким и провокационным некро-киберпанк-имиджем четырех ее участников и реактивным, качественным, ультрасовременным мрачным звучанием. Четыре элитных бойца из подразделения «Райского Синтетического Корпуса» рады представить свой дебютный альбом «Matte», прошедший технический и танцевальный контроль у самого Frank D'Angelo, владельца группы лейблов Dark Dimension, а также являющегося по совместительству одним из участников известной германской группы [S.I.T.D.].
Glamour Diesel, Hypecrash, Chainheart & IDK


Треклист:
01. Steam 5:33
02. Matte 4:48
03. A Voyeur's Waltz 4:35
04. Tense 4:16
05. Green X | Red Y 4:33
06. Unit 06 4:11
07. Royalty 4:56
08. Magenta 4:15
09. Soar 4:09
10. The Robots 4:37
11. Heartware 4:19
12. Angelshift 4:11

Код:

EAC extraction logfile from 1. October 2007, 17:47 for CD
ESC Eden Synthetic Corps / Matte

Used drive  : LITE-ON DVDRW SHW-1635S   Adapter: 1  ID: 0
Read mode   : Secure with NO C2, accurate stream, disable cache
Read offset correction : 6
Overread into Lead-In and Lead-Out : No

Used output format : C:\Program Files\Exact Audio Copy\flac.exe   (User Defined Encoder)
                     192 kBit/s
                     Additional command line options : -8 -A tukey(0.25) -A gauss(0.1875) -b 4096 -V -T "artist=%a" -T "title=%t" -T "album=%g" -T "date=%y" -T "tracknumber=%n" -T "genre=%m" %s --sector-align

Other options      :
    Fill up missing offset samples with silence : Yes
    Delete leading and trailing silent blocks : No
    Installed external ASPI interface

Track  1
     Filename K:\Music\E\ESC\ESC_Eden_Synthetic_Corps-Matte-2006-FLAC\01 - ESC Eden Synthetic Corps - Steam.wav

     Pre-gap length  0:00:02.00

     Peak level 100.0 %
     Track quality 100.0 %
     Test CRC 4106DFF9
     Copy CRC 4106DFF9
     Copy OK

Track  2
     Filename K:\Music\E\ESC\ESC_Eden_Synthetic_Corps-Matte-2006-FLAC\02 - ESC Eden Synthetic Corps - Matte.wav

     Peak level 100.0 %
     Track quality 99.9 %
     Test CRC F8F95DC1
     Copy CRC F8F95DC1
     Copy OK

Track  3
     Filename K:\Music\E\ESC\ESC_Eden_Synthetic_Corps-Matte-2006-FLAC\03 - ESC Eden Synthetic Corps - A Voyeur's Waltz.wav

     Peak level 100.0 %
     Track quality 100.0 %
     Test CRC F0570588
     Copy CRC F0570588
     Copy OK

Track  4
     Filename K:\Music\E\ESC\ESC_Eden_Synthetic_Corps-Matte-2006-FLAC\04 - ESC Eden Synthetic Corps - Tense.wav

     Peak level 100.0 %
     Track quality 99.9 %
     Test CRC 7D19E59B
     Copy CRC 7D19E59B
     Copy OK

Track  5
     Filename K:\Music\E\ESC\ESC_Eden_Synthetic_Corps-Matte-2006-FLAC\05 - ESC Eden Synthetic Corps - Green X , Red Y.wav

     Peak level 100.0 %
     Track quality 100.0 %
     Test CRC E900095B
     Copy CRC E900095B
     Copy OK

Track  6
     Filename K:\Music\E\ESC\ESC_Eden_Synthetic_Corps-Matte-2006-FLAC\06 - ESC Eden Synthetic Corps - Unit 06.wav

     Peak level 100.0 %
     Track quality 100.0 %
     Test CRC 4FEEE3DA
     Copy CRC 4FEEE3DA
     Copy OK

Track  7
     Filename K:\Music\E\ESC\ESC_Eden_Synthetic_Corps-Matte-2006-FLAC\07 - ESC Eden Synthetic Corps - Royanty.wav

     Peak level 100.0 %
     Track quality 100.0 %
     Test CRC 074BCB18
     Copy CRC 074BCB18
     Copy OK

Track  8
     Filename K:\Music\E\ESC\ESC_Eden_Synthetic_Corps-Matte-2006-FLAC\08 - ESC Eden Synthetic Corps - Magenta.wav

     Peak level 100.0 %
     Track quality 100.0 %
     Test CRC B49880D0
     Copy CRC B49880D0
     Copy OK

Track  9
     Filename K:\Music\E\ESC\ESC_Eden_Synthetic_Corps-Matte-2006-FLAC\09 - ESC Eden Synthetic Corps - Soar.wav

     Peak level 100.0 %
     Track quality 99.9 %
     Test CRC 377D3101
     Copy CRC 377D3101
     Copy OK

Track 10
     Filename K:\Music\E\ESC\ESC_Eden_Synthetic_Corps-Matte-2006-FLAC\10 - ESC Eden Synthetic Corps - The Robots.wav

     Peak level 100.0 %
     Track quality 100.0 %
     Test CRC 2E5B6D22
     Copy CRC 2E5B6D22
     Copy OK

Track 11
     Filename K:\Music\E\ESC\ESC_Eden_Synthetic_Corps-Matte-2006-FLAC\11 - ESC Eden Synthetic Corps - Heartware.wav

     Peak level 100.0 %
     Track quality 99.9 %
     Test CRC 3FB6FE6E
     Copy CRC 3FB6FE6E
     Copy OK

Track 12
     Filename K:\Music\E\ESC\ESC_Eden_Synthetic_Corps-Matte-2006-FLAC\12 - ESC Eden Synthetic Corps - Angelshift.wav

     Peak level 100.0 %
     Track quality 100.0 %
     Test CRC 70AB0C8A
     Copy CRC 70AB0C8A
     Copy OK

No errors occured

End of status report

Код:

REM GENRE Industrial
REM DATE 2006
REM DISCID B00CC30C
REM COMMENT "ExactAudioCopy v0.95b3"
PERFORMER "ESC Eden Synthetic Corps"
TITLE "Matte"
FILE "01 - ESC Eden Synthetic Corps - Steam.wav" WAVE
  TRACK 01 AUDIO
    TITLE "Steam"
    PERFORMER "ESC Eden Synthetic Corps"
    FLAGS DCP
    INDEX 01 00:00:00
FILE "02 - ESC Eden Synthetic Corps - Matte.wav" WAVE
  TRACK 02 AUDIO
    TITLE "Matte"
    PERFORMER "ESC Eden Synthetic Corps"
    FLAGS DCP
    INDEX 01 00:00:00
FILE "03 - ESC Eden Synthetic Corps - A Voyeur's Waltz.wav" WAVE
  TRACK 03 AUDIO
    TITLE "A Voyeur's Waltz"
    PERFORMER "ESC Eden Synthetic Corps"
    FLAGS DCP
    INDEX 01 00:00:00
FILE "04 - ESC Eden Synthetic Corps - Tense.wav" WAVE
  TRACK 04 AUDIO
    TITLE "Tense"
    PERFORMER "ESC Eden Synthetic Corps"
    FLAGS DCP
    INDEX 01 00:00:00
FILE "05 - ESC Eden Synthetic Corps - Green X , Red Y.wav" WAVE
  TRACK 05 AUDIO
    TITLE "Green X / Red Y"
    PERFORMER "ESC Eden Synthetic Corps"
    FLAGS DCP
    INDEX 01 00:00:00
FILE "06 - ESC Eden Synthetic Corps - Unit 06.wav" WAVE
  TRACK 06 AUDIO
    TITLE "Unit 06"
    PERFORMER "ESC Eden Synthetic Corps"
    FLAGS DCP
    INDEX 01 00:00:00
FILE "07 - ESC Eden Synthetic Corps - Royanty.wav" WAVE
  TRACK 07 AUDIO
    TITLE "Royanty"
    PERFORMER "ESC Eden Synthetic Corps"
    FLAGS DCP
    INDEX 01 00:00:00
FILE "08 - ESC Eden Synthetic Corps - Magenta.wav" WAVE
  TRACK 08 AUDIO
    TITLE "Magenta"
    PERFORMER "ESC Eden Synthetic Corps"
    FLAGS DCP
    INDEX 01 00:00:00
FILE "09 - ESC Eden Synthetic Corps - Soar.wav" WAVE
  TRACK 09 AUDIO
    TITLE "Soar"
    PERFORMER "ESC Eden Synthetic Corps"
    FLAGS DCP
    INDEX 01 00:00:00
FILE "10 - ESC Eden Synthetic Corps - The Robots.wav" WAVE
  TRACK 10 AUDIO
    TITLE "The Robots"
    PERFORMER "ESC Eden Synthetic Corps"
    FLAGS DCP
    INDEX 01 00:00:00
FILE "11 - ESC Eden Synthetic Corps - Heartware.wav" WAVE
  TRACK 11 AUDIO
    TITLE "Heartware"
    PERFORMER "ESC Eden Synthetic Corps"
    FLAGS DCP
    INDEX 01 00:00:00
FILE "12 - ESC Eden Synthetic Corps - Angelshift.wav" WAVE
  TRACK 12 AUDIO
    TITLE "Angelshift"
    PERFORMER "ESC Eden Synthetic Corps"
    FLAGS DCP
    INDEX 01 00:00:00

Треклист:
01. Eden 0:41
02. Despise 4:43
03. Enhancer 6:01
04. Needle Catwalk 4:55
05. Heartware V2.0 3:40
06. Wrong Way 6:31
07. Waste Of Ammo 5:14
08. Totes Licht 5:12
09. Alpha Male 5:34
10. Architecture 4:49
11. Deathtrap Circus 4:15
12. Attention Whore 6:32
13. 0.26 (Bladefucked) 4:38
14. Reptile 4:32

Код:

Exact Audio Copy V0.99 prebeta 5 from 4. May 2009

Отчёт EAC об извлечении, выполненном 4. августа 2012, 17:43

ESC / Enhancer

Дисковод: PIONEER BD-RW   BDR-206   Adapter: 1  ID: 1

Режим чтения                 : Достоверность
Использование точного потока : Да
Отключение кэша аудио        : Да
Использование указателей C2  : Нет

Коррекция смещения при чтении                     : 667
Способность читать области Lead-in и Lead-out     : Нет
Заполнение пропущенных сэмплов тишиной            : Да
Удаление блоков с тишиной в начале и конце        : Нет
При вычислениях CRC использовались нулевые сэмплы : Да
Интерфейс                                         : Встроенный Win32-интерфейс для Win NT/2000

Выходной формат          : Пользовательский кодировщик
Выбранный битрейт        : 1024 kBit/s
Качество                 : Высокий
Добавление ID3-тэга      : Нет
Утилита сжатия           : C:\Program Files (x86)\Exact Audio Copy\FLAC\FLAC.EXE
Дополнительные параметры : -8 -V -T "ARTIST=%a" -T "TITLE=%t" -T "ALBUM=%g" -T "DATE=%y" -T "TRACKNUMBER=%n" -T "GENRE=%m" -T "COMMENT=%e" %s -o %d

TOC извлечённого CD

     Трек |   Старт  | Длительность | Начальный сектор | Конечный сектор
    ---------------------------------------------------------------------
       1  |  0:00.00 |    0:41.21   |           0      |       3095
       2  |  0:41.21 |    4:43.40   |        3096      |      24360
       3  |  5:24.61 |    6:01.00   |       24361      |      51435
       4  | 11:25.61 |    4:55.70   |       51436      |      73630
       5  | 16:21.56 |    3:40.45   |       73631      |      90175
       6  | 20:02.26 |    6:31.54   |       90176      |     119554
       7  | 26:34.05 |    5:14.11   |      119555      |     143115
       8  | 31:48.16 |    5:12.19   |      143116      |     166534
       9  | 37:00.35 |    5:34.03   |      166535      |     191587
      10  | 42:34.38 |    4:49.46   |      191588      |     213308
      11  | 47:24.09 |    4:15.12   |      213309      |     232445
      12  | 51:39.21 |    6:32.57   |      232446      |     261902
      13  | 58:12.03 |    4:38.69   |      261903      |     282821
      14  | 62:50.72 |    4:32.03   |      282822      |     303224

Характеристики диапазона извлечения и сообщения об ошибках

Выбранный диапазон

     Имя файла D:\РАЗДАЧИ!!!!\Eden Synthetic Corps [ESC] - Enhancer - 2008\ESC - Enhancer.wav

     Пиковый уровень 96.7 %
     Качество диапазона 100.0 %
     CRC теста 2AB4FE92
     CRC копии 2AB4FE92
     Копирование... OK

Ошибок не произошло

AccurateRip: сводка

Трек  1  точность не определена (достоверность 2)  [0676F774], AccurateRip вернул [6AC0A2E9]
Трек  2  точность не определена (достоверность 2)  [4E2D681F], AccurateRip вернул [44EF0B72]
Трек  3  точность не определена (достоверность 2)  [366738AB], AccurateRip вернул [8AEE264B]
Трек  4  точность не определена (достоверность 2)  [E498FEE9], AccurateRip вернул [3FDDE2A1]
Трек  5  точность не определена (достоверность 2)  [F1B4EF18], AccurateRip вернул [54961FE0]
Трек  6  точность не определена (достоверность 2)  [24905B6B], AccurateRip вернул [DF6ACFEB]
Трек  7  точность не определена (достоверность 2)  [55A8686F], AccurateRip вернул [A4044287]
Трек  8  точность не определена (достоверность 2)  [F6DAC87C], AccurateRip вернул [5D162A8C]
Трек  9  точность не определена (достоверность 2)  [AF951A5B], AccurateRip вернул [95B3BA33]
Трек 10  точность не определена (достоверность 2)  [1E460A20], AccurateRip вернул [F74E4A00]
Трек 11  точность не определена (достоверность 2)  [A76999AC], AccurateRip вернул [7FE36B24]
Трек 12  точность не определена (достоверность 2)  [07F4AEB9], AccurateRip вернул [14080391]
Трек 13  точность не определена (достоверность 2)  [48DE3DDF], AccurateRip вернул [E6027357]
Трек 14  точность не определена (достоверность 2)  [EAE8E8FB], AccurateRip вернул [71BB7183]

Ни один трек не прошёл проверки на точность
В вашей базе может быть иной вариант штамповки диска

Конец отчёта

Код:

REM GENRE Darkwave
REM DATE 2008
REM DISCID BE0FCB0E
REM COMMENT "ExactAudioCopy v0.99pb5"
PERFORMER "ESC"
TITLE "Enhancer"
FILE "ESC - Enhancer.flac" WAVE
  TRACK 01 AUDIO
    TITLE "Eden"
    PERFORMER "ESC"
    FLAGS DCP
    INDEX 01 00:00:00
  TRACK 02 AUDIO
    TITLE "Despise"
    PERFORMER "ESC"
    FLAGS DCP
    INDEX 01 00:41:21
  TRACK 03 AUDIO
    TITLE "Enhanger"
    PERFORMER "ESC"
    FLAGS DCP
    INDEX 00 05:23:61
    INDEX 01 05:24:61
  TRACK 04 AUDIO
    TITLE "Needle Catwalk"
    PERFORMER "ESC"
    FLAGS DCP
    INDEX 00 11:24:61
    INDEX 01 11:25:61
  TRACK 05 AUDIO
    TITLE "Heartware V2.0"
    PERFORMER "ESC"
    FLAGS DCP
    INDEX 00 16:20:56
    INDEX 01 16:21:56
  TRACK 06 AUDIO
    TITLE "Wrong Way"
    PERFORMER "ESC"
    FLAGS DCP
    INDEX 00 20:01:26
    INDEX 01 20:02:26
  TRACK 07 AUDIO
    TITLE "Waste of Ammo"
    PERFORMER "ESC"
    FLAGS DCP
    INDEX 00 26:33:05
    INDEX 01 26:34:05
  TRACK 08 AUDIO
    TITLE "Totes Licht"
    PERFORMER "ESC"
    FLAGS DCP
    INDEX 00 31:47:16
    INDEX 01 31:48:16
  TRACK 09 AUDIO
    TITLE "Alpha Male"
    PERFORMER "ESC"
    FLAGS DCP
    INDEX 00 36:59:35
    INDEX 01 37:00:35
  TRACK 10 AUDIO
    TITLE "Architecture"
    PERFORMER "ESC"
    FLAGS DCP
    INDEX 00 42:33:38
    INDEX 01 42:34:38
  TRACK 11 AUDIO
    TITLE "Deathtrap Circus"
    PERFORMER "ESC"
    FLAGS DCP
    INDEX 00 47:23:09
    INDEX 01 47:24:09
  TRACK 12 AUDIO
    TITLE "Attention Whore"
    PERFORMER "ESC"
    FLAGS DCP
    INDEX 00 51:38:21
    INDEX 01 51:39:21
  TRACK 13 AUDIO
    TITLE "0.26 (Bladefucked)"
    PERFORMER "ESC"
    FLAGS DCP
    INDEX 00 58:11:03
    INDEX 01 58:12:03
  TRACK 14 AUDIO
    TITLE "Reptile"
    PERFORMER "ESC"
    FLAGS DCP
    INDEX 00 62:49:72
    INDEX 01 62:50:72

Треклист:
01. Concrete 05:15
02. Eight Thousand Square Feet 05:27
03. Correcting God's Design 04:29
04. White Beast (Retribution) 04:51
05. Raiva 04:32
06. Proprioception 04:27
07. Le Voyage d'Ivoire Sophisme (featuring X-FUSION) 04:26
08. -48C 05:38
09. The Grand Atrium of Light 05:00
10. Dishonour 04:25
11. Leitbild (featuring [:SITD:]) 05:12
12. An Horizon Inside Four Walls 04:03

Код:

Exact Audio Copy V0.99 prebeta 4 from 23. January 2008

EAC extraction logfile from 6. August 2010, 16:07

Eden Synthetic Corps / Eight Thousand Square Feet

Used drive  : _NEC    DVD_RW ND-3520AW   Adapter: 1  ID: 0

Read mode               : Secure
Utilize accurate stream : Yes
Defeat audio cache      : Yes
Make use of C2 pointers : No

Read offset correction                      : 48
Overread into Lead-In and Lead-Out          : No
Fill up missing offset samples with silence : Yes
Delete leading and trailing silent blocks   : No
Null samples used in CRC calculations       : Yes
Used interface                              : Native Win32 interface for Win NT & 2000
Gap handling                                : Appended to previous track

Used output format              : User Defined Encoder
Selected bitrate                : 1024 kBit/s
Quality                         : High
Add ID3 tag                     : No
Command line compressor         : C:\Program Files\Exact Audio Copy\FLAC\FLAC.EXE
Additional command line options : -8 -V -T "ARTIST=%a" -T "TITLE=%t" -T "ALBUM=%g" -T "DATE=%y" -T "TRACKNUMBER=%n" -T "GENRE=%m" -T "COMMENT=EAC FLAC -8" %s

TOC of the extracted CD

     Track |   Start  |  Length  | Start sector | End sector
    ---------------------------------------------------------
        1  |  0:00.00 |  5:14.61 |         0    |    23610
        2  |  5:14.61 |  5:26.63 |     23611    |    48123
        3  | 10:41.49 |  4:29.19 |     48124    |    68317
        4  | 15:10.68 |  4:51.21 |     68318    |    90163
        5  | 20:02.14 |  4:32.02 |     90164    |   110565
        6  | 24:34.16 |  4:26.62 |    110566    |   130577
        7  | 29:01.03 |  4:26.20 |    130578    |   150547
        8  | 33:27.23 |  5:38.01 |    150548    |   175898
        9  | 39:05.24 |  5:00.11 |    175899    |   198409
       10  | 44:05.35 |  4:24.65 |    198410    |   218274
       11  | 48:30.25 |  5:11.71 |    218275    |   241670
       12  | 53:42.21 |  4:02.54 |    241671    |   259874

Track  1

     Filename C:\Documents and Settings\Hellner\Рабочий стол\Новая папка\01 - Concrete.wav

     Pre-gap length  0:00:02.00

     Peak level 97.4 %
     Track quality 100.0 %
     Test CRC 9202E9D4
     Copy CRC 9202E9D4
     Copy OK

Track  2

     Filename C:\Documents and Settings\Hellner\Рабочий стол\Новая папка\02 - Eight Thousand Square Feet.wav

     Pre-gap length  0:00:01.00

     Peak level 98.7 %
     Track quality 100.0 %
     Test CRC 37173669
     Copy CRC 37173669
     Copy OK

Track  3

     Filename C:\Documents and Settings\Hellner\Рабочий стол\Новая папка\03 - Correcting God's Design.wav

     Pre-gap length  0:00:01.00

     Peak level 99.0 %
     Track quality 100.0 %
     Test CRC FD7A8C18
     Copy CRC FD7A8C18
     Copy OK

Track  4

     Filename C:\Documents and Settings\Hellner\Рабочий стол\Новая папка\04 - White Beast (Retribution).wav

     Pre-gap length  0:00:01.00

     Peak level 99.5 %
     Track quality 100.0 %
     Test CRC A944CFCB
     Copy CRC A944CFCB
     Copy OK

Track  5

     Filename C:\Documents and Settings\Hellner\Рабочий стол\Новая папка\05 - Raiva.wav

     Pre-gap length  0:00:01.00

     Peak level 99.3 %
     Track quality 100.0 %
     Test CRC 64C1553B
     Copy CRC 64C1553B
     Copy OK

Track  6

     Filename C:\Documents and Settings\Hellner\Рабочий стол\Новая папка\06 - Proprioception.wav

     Pre-gap length  0:00:01.00

     Peak level 98.5 %
     Track quality 100.0 %
     Test CRC 354A578B
     Copy CRC 354A578B
     Copy OK

Track  7

     Filename C:\Documents and Settings\Hellner\Рабочий стол\Новая папка\07 - Le Voyage d'Ivoire Sophisme (featuring X-FUSION).wav

     Pre-gap length  0:00:01.00

     Peak level 99.7 %
     Track quality 100.0 %
     Test CRC 5FA9D619
     Copy CRC 5FA9D619
     Copy OK

Track  8

     Filename C:\Documents and Settings\Hellner\Рабочий стол\Новая папка\08 - -48C.wav

     Pre-gap length  0:00:01.00

     Peak level 100.0 %
     Track quality 99.9 %
     Test CRC 80C2027E
     Copy CRC 80C2027E
     Copy OK

Track  9

     Filename C:\Documents and Settings\Hellner\Рабочий стол\Новая папка\09 - The Grand Atrium of Light.wav

     Pre-gap length  0:00:01.00

     Peak level 98.8 %
     Track quality 100.0 %
     Test CRC FD9915EF
     Copy CRC FD9915EF
     Copy OK

Track 10

     Filename C:\Documents and Settings\Hellner\Рабочий стол\Новая папка\10 - Dishonour.wav

     Pre-gap length  0:00:01.00

     Peak level 98.9 %
     Track quality 100.0 %
     Test CRC F34D1F58
     Copy CRC F34D1F58
     Copy OK

Track 11

     Filename C:\Documents and Settings\Hellner\Рабочий стол\Новая папка\11 - Leitbild (featuring SITD).wav

     Pre-gap length  0:00:01.00

     Peak level 99.2 %
     Track quality 100.0 %
     Test CRC CD5941CC
     Copy CRC CD5941CC
     Copy OK

Track 12

     Filename C:\Documents and Settings\Hellner\Рабочий стол\Новая папка\12 - An Horizon Inside Four Walls.wav

     Pre-gap length  0:00:01.00

     Peak level 99.4 %
     Track quality 100.0 %
     Test CRC 6601A85F
     Copy CRC 6601A85F
     Copy OK

No errors occurred

End of status report

Код:

REM GENRE Industrial
REM DATE 2010
REM DISCID 940D890C
REM COMMENT "ExactAudioCopy v0.99pb4"
PERFORMER "Eden Synthetic Corps"
TITLE "Eight Thousand Square Feet"
FILE "01 - Concrete.wav" WAVE
  TRACK 01 AUDIO
    TITLE "Concrete"
    PERFORMER "Eden Synthetic Corps"
    ISRC 000000000000
    FLAGS DCP
    INDEX 01 00:00:00
  TRACK 02 AUDIO
    TITLE "Eight Thousand Square Feet"
    PERFORMER "Eden Synthetic Corps"
    ISRC 000000000000
    FLAGS DCP
    INDEX 00 05:13:61
FILE "02 - Eight Thousand Square Feet.wav" WAVE
    INDEX 01 00:00:00
  TRACK 03 AUDIO
    TITLE "Correcting God's Design"
    PERFORMER "Eden Synthetic Corps"
    ISRC 000000000000
    FLAGS DCP
    INDEX 00 05:25:63
FILE "03 - Correcting God's Design.wav" WAVE
    INDEX 01 00:00:00
  TRACK 04 AUDIO
    TITLE "White Beast (Retribution)"
    PERFORMER "Eden Synthetic Corps"
    ISRC 000000000000
    FLAGS DCP
    INDEX 00 04:28:19
FILE "04 - White Beast (Retribution).wav" WAVE
    INDEX 01 00:00:00
  TRACK 05 AUDIO
    TITLE "Raiva"
    PERFORMER "Eden Synthetic Corps"
    ISRC 000000000000
    FLAGS DCP
    INDEX 00 04:50:21
FILE "05 - Raiva.wav" WAVE
    INDEX 01 00:00:00
  TRACK 06 AUDIO
    TITLE "Proprioception"
    PERFORMER "Eden Synthetic Corps"
    ISRC 000000000000
    FLAGS DCP
    INDEX 00 04:31:02
FILE "06 - Proprioception.wav" WAVE
    INDEX 01 00:00:00
  TRACK 07 AUDIO
    TITLE "Le Voyage d'Ivoire Sophisme (featuring X-FUSION)"
    PERFORMER "Eden Synthetic Corps"
    ISRC 000000000000
    FLAGS DCP
    INDEX 00 04:25:62
FILE "07 - Le Voyage d'Ivoire Sophisme (featuring X-FUSION).wav" WAVE
    INDEX 01 00:00:00
  TRACK 08 AUDIO
    TITLE "-48C"
    PERFORMER "Eden Synthetic Corps"
    ISRC 000000000000
    FLAGS DCP
    INDEX 00 04:25:20
FILE "08 - -48C.wav" WAVE
    INDEX 01 00:00:00
  TRACK 09 AUDIO
    TITLE "The Grand Atrium of Light"
    PERFORMER "Eden Synthetic Corps"
    ISRC 000000000000
    FLAGS DCP
    INDEX 00 05:37:01
FILE "09 - The Grand Atrium of Light.wav" WAVE
    INDEX 01 00:00:00
  TRACK 10 AUDIO
    TITLE "Dishonour"
    PERFORMER "Eden Synthetic Corps"
    ISRC 000000000000
    FLAGS DCP
    INDEX 00 04:59:11
FILE "10 - Dishonour.wav" WAVE
    INDEX 01 00:00:00
  TRACK 11 AUDIO
    TITLE "Leitbild (featuring SITD)"
    PERFORMER "Eden Synthetic Corps"
    ISRC 000000000000
    FLAGS DCP
    INDEX 00 04:23:65
FILE "11 - Leitbild (featuring SITD).wav" WAVE
    INDEX 01 00:00:00
  TRACK 12 AUDIO
    TITLE "An Horizon Inside Four Walls"
    PERFORMER "Eden Synthetic Corps"
    ISRC 000000000000
    FLAGS DCP
    INDEX 00 05:10:71
FILE "12 - An Horizon Inside Four Walls.wav" WAVE
    INDEX 01 00:00:00

Треклист:
01. Breathing Salt 4:36
02. Evaporate 4:17
03. Something Is Terribly Wrong 5:03
04. Gods Own Miserable Exception 4:28
05. Determinism 4:40
06. Cryptobiosis 4:27
07. The Black Octopus Carousel 4:46
08. FBK 5:01
09. The Sailing Dead 4:51
10. I Cannot Leave You Because You Never Had Me 4:46
11. Commander Cruel 4:44
12. FBK (Saturn Dawn Remix) 4:51

Код:

Exact Audio Copy V1.0 beta 3 from 29. August 2011

Отчёт EAC об извлечении, выполненном 16. мая 2013, 9:41

Eden Synthetic Corps / Breathing Salt

Дисковод: PIONEER DVD-RW  DVR-XD10   Adapter: 1  ID: 0

Режим чтения                 : Достоверность
Использование точного потока : Да
Отключение кэша аудио        : Да
Использование указателей C2  : Нет

Коррекция смещения при чтении                     : 96
Способность читать области Lead-in и Lead-out     : Нет
Заполнение пропущенных сэмплов тишиной            : Да
Удаление блоков с тишиной в начале и конце        : Нет
При вычислениях CRC использовались нулевые сэмплы : Да
Интерфейс                                         : Встроенный Win32-интерфейс для Win NT/2000

Выходной формат          : Пользовательский кодировщик
Выбранный битрейт        : 1024 kBit/s
Качество                 : Высокий
Добавление ID3-тега      : Нет
Утилита сжатия           : C:\Program Files (x86)\Exact Audio Copy\FLAC\FLAC.EXE
Дополнительные параметры : -V -8 -T "Date=%year%" -T "Genre=%genre%" %source%

TOC извлечённого CD

     Трек |   Старт  | Длительность | Начальный сектор | Конечный сектор
    ---------------------------------------------------------------------
       1  |  0:00.00 |    4:37.00   |           0      |      20774
       2  |  4:37.00 |    4:18.00   |       20775      |      40124
       3  |  8:55.00 |    5:03.67   |       40125      |      62916
       4  | 13:58.67 |    4:28.12   |       62917      |      83028
       5  | 18:27.04 |    4:40.71   |       83029      |     104099
       6  | 23:08.00 |    4:27.41   |      104100      |     124165
       7  | 27:35.41 |    4:47.00   |      124166      |     145690
       8  | 32:22.41 |    5:01.30   |      145691      |     168295
       9  | 37:23.71 |    4:52.00   |      168296      |     190195
      10  | 42:15.71 |    4:46.14   |      190196      |     211659
      11  | 47:02.10 |    4:44.74   |      211660      |     233033
      12  | 51:47.09 |    4:52.00   |      233034      |     254933

Характеристики диапазона извлечения и сообщения об ошибках

Выбранный диапазон

     Имя файла C:\Users\HP\Music\Eden Synthetic Corps - Breathing Salt.wav

     Пиковый уровень 100.0 %
     Скорость извлечения 4.2 X
     Качество диапазона 99.9 %
     CRC теста E914C83B
     CRC копии E914C83B
     Копирование... OK

Ошибок не произошло

AccurateRip: сводка

Трек  1  отсутствует в базе данных
Трек  2  отсутствует в базе данных
Трек  3  отсутствует в базе данных
Трек  4  отсутствует в базе данных
Трек  5  отсутствует в базе данных
Трек  6  отсутствует в базе данных
Трек  7  отсутствует в базе данных
Трек  8  отсутствует в базе данных
Трек  9  отсутствует в базе данных
Трек 10  отсутствует в базе данных
Трек 11  отсутствует в базе данных
Трек 12  отсутствует в базе данных

Ни одного трека нет в базе AccurateRip

Конец отчёта

---- CUETools DB Plugin V2.1.4

[CTDB TOCID: AYcx9fOkEA3UfvlyLjqyieNKc.U-] found
Submit result: AYcx9fOkEA3UfvlyLjqyieNKc.U- has been confirmed
Track | CTDB Status
  1   | (1/1) Accurately ripped
  2   | (1/1) Accurately ripped
  3   | (1/1) Accurately ripped
  4   | (1/1) Accurately ripped
  5   | (1/1) Accurately ripped
  6   | (1/1) Accurately ripped
  7   | (1/1) Accurately ripped
  8   | (1/1) Accurately ripped
  9   | (1/1) Accurately ripped
 10   | (1/1) Accurately ripped
 11   | (1/1) Accurately ripped
 12   | (1/1) Accurately ripped

==== Контрольная сумма отчёта 5F5A9967F9DBAC8A345C0D519E01562F7FE318C2C9E89CC2FD49215FFB4D9956 ====

Код:

REM GENRE Industrial
REM DATE 2013
REM DISCID A70D470C
REM COMMENT "ExactAudioCopy v1.0b3"
PERFORMER "Eden Synthetic Corps"
TITLE "Breathing Salt"
FILE "Eden Synthetic Corps - Breathing Salt.flac" WAVE
  TRACK 01 AUDIO
    TITLE "Breathing Salt"
    PERFORMER "Eden Synthetic Corps"
    FLAGS DCP
    INDEX 01 00:00:00
  TRACK 02 AUDIO
    TITLE "Evaporate"
    PERFORMER "Eden Synthetic Corps"
    FLAGS DCP
    INDEX 00 04:35:00
    INDEX 01 04:37:00
  TRACK 03 AUDIO
    TITLE "Something Is Terribly Wrong"
    PERFORMER "Eden Synthetic Corps"
    FLAGS DCP
    INDEX 00 08:53:00
    INDEX 01 08:55:00
  TRACK 04 AUDIO
    TITLE "God's Own Miserable Exception"
    PERFORMER "Eden Synthetic Corps"
    FLAGS DCP
    INDEX 00 13:56:67
    INDEX 01 13:58:67
  TRACK 05 AUDIO
    TITLE "Determinism"
    PERFORMER "Eden Synthetic Corps"
    FLAGS DCP
    INDEX 00 18:25:04
    INDEX 01 18:27:04
  TRACK 06 AUDIO
    TITLE "Cryptobiosis"
    PERFORMER "Eden Synthetic Corps"
    FLAGS DCP
    INDEX 00 23:06:00
    INDEX 01 23:08:00
  TRACK 07 AUDIO
    TITLE "The Black Octopus Carousel"
    PERFORMER "Eden Synthetic Corps"
    FLAGS DCP
    INDEX 00 27:33:41
    INDEX 01 27:35:41
  TRACK 08 AUDIO
    TITLE "FBK"
    PERFORMER "Eden Synthetic Corps"
    FLAGS DCP
    INDEX 00 32:20:41
    INDEX 01 32:22:41
  TRACK 09 AUDIO
    TITLE "The Sailing Dead"
    PERFORMER "Eden Synthetic Corps"
    FLAGS DCP
    INDEX 00 37:21:71
    INDEX 01 37:23:71
  TRACK 10 AUDIO
    TITLE "I Cannot Leave You Because You Never Had Me"
    PERFORMER "Eden Synthetic Corps"
    FLAGS DCP
    INDEX 00 42:13:71
    INDEX 01 42:15:71
  TRACK 11 AUDIO
    TITLE "Commander Cruel"
    PERFORMER "Eden Synthetic Corps"
    FLAGS DCP
    INDEX 00 47:00:10
    INDEX 01 47:02:10
  TRACK 12 AUDIO
    TITLE "FBK (Saturn Dawn Remix)"
    PERFORMER "Eden Synthetic Corps"
    FLAGS DCP
    INDEX 00 51:45:09
    INDEX 01 51:47:09
                     
                     
info [Профиль]  [ЛС] 
Показать сообщения:    
Ответить на тему

Текущее время: 05-Дек 08:31

Часовой пояс: GMT + 4



Вы не можете начинать темы
Вы не можете отвечать на сообщения
Вы не можете редактировать свои сообщения
Вы не можете удалять свои сообщения
Вы не можете голосовать в опросах
Вы не можете прикреплять файлы к сообщениям
Вы не можете скачивать файлы