·
...

/ The Theory of Everything ( / James Marsh ) [2014, , , , , BDRip, SD (576p)] [iPad] DUB + Original + sub (rus, eng)

 

L

: :

: 6 7

: 10754


post 29--2015 09:30 0[+]

[] 

/ The Theory of Everything
The incredible story of Jane and Stephen Hawking

7.973 / 10 7.80 / 10
: 2014
:
: , ,
: 02:03:22

: () ()
:
C: ,
:
: ,
: , ,
:
:
: , ,
:
: , , , , , , , , ,

: $15 000 000
: $35 825 823
: + $83 250 633 = $119 076 456
: $532 922

: 7 2014
(): 26 2015, UPI

DVD: 2 2015, û
Blu-Ray: 2 2015, û

: .
: BDRemux
: BDRip
: SD (576p)
: M4V
: H.264, 1024x432, 2.40:1, 2 200 Kbps, 23.976 fps

1: / () (), AAC / 2.0 / 157 Kbps / 48.0 KHz
2: / , AAC / 2.0 / 157 Kbps / 48.0 KHz

1:
2:
Sort Name: Theory of Everything
XID: Apple:vendor_id:2014-770973
contentID: 942799869
Copyright: 2014 Focus Features. All Rights Reserved.
Screenwriters: ,
Producers: , ,
Director:
Cast: , , , , , , , , , , , , , ,
Studio: Focus Features
Rating: 10
Long Description: .
Description: .
Release Date: 2014-09-07T08:00:00Z
Genre: Drama
Artist: James Marsh
Name: The Theory of Everything
General
Complete name : /Users/imac/HandBrake/The.Theory.of.Everything.(SD).(pk).m4v
Format : MPEG-4
Codec ID : M4V
File size : 2.17 GiB
Duration : 2h 3mn
Overall bit rate mode : Variable
Overall bit rate : 2 521 Kbps
Movie name : The Theory of Everything
Performer : James Marsh
Genre : Drama
Recorded date : UTC 2014-09-07 08:00:00
Encoded date : UTC 2015-03-28 21:44:03
Tagged date : UTC 2015-03-28 21:44:32
Copyright : 2014 Focus Features. All Rights Reserved.
Cover : Yes
sonm : Theory of Everything
desc : .
ldes : .
stik : 9
rtng : 0
cnID : 942799869
xid : Apple:vendor_id:2014-770973
iTunEXTC : mpaa|PG-13|300|
iTunMOVI : <?xml version=\"1.0\" encoding=\"UTF-8\"?> / <!DOCTYPE plist PUBLIC \"-//Apple//DTD PLIST 1.0//EN\" \"http://www.apple.com/DTDs/PropertyList-1.0.dtd\"> / <plist version=\"1.0\"> / <dict> / <key>cast</key> / <array> / <dict> / <key>name</key> / <string> </string> / </dict> / <dict> / <key>name</key> / <string> </string> / </dict> / <dict> / <key>name</key> / <string> </string> / </dict> / <dict> / <key>name</key> / <string> </string> / </dict> / <dict> / <key>name</key> / <string> </string> / </dict> / <dict> / <key>name</key> / <string> </string> / </dict> / <dict> / <key>name</key> / <string> </string> / </dict> / <dict> / <key>name</key> / <string> </string> / </dict> / <dict> / <key>name</key> / <string> </string> / </dict> / <dict> / <key>name</key> / <string> </string> / </dict> / <dict> / <key>name</key> / <string> </string> / </dict> / <dict> / <key>name</key> / <string> </string> / </dict> / <dict> / <key>name</key> / <string> </string> / </dict> / <dict> / <key>name</key> / <string> </string> / </dict> / <dict> / <key>name</key> / <string> </string> / </dict> / </array> / <key>directors</key> / <array> / <dict> / <key>name</key> / <string> </string> / </dict> / </array> / <key>producers</key> / <array> / <dict> / <key>name</key> / <string> </string> / </dict> / <dict> / <key>name</key> / <string> </string> / </dict> / <dict> / <key>name</key> / <string> </string> / </dict> / </array> / <key>screenwriters</key> / <array> / <dict> / <key>name</key> / <string> </string> / </dict> / <dict> / <key>name</key> / <string> </string> / </dict> / </array> / <key>studio</key> / <string>Focus Features</string> / </dict> / </plist>

Video #1
ID : 1
Format : AVC
Format/Info : Advanced Video Codec
Format profile : High@L3.1
Format settings, CABAC : Yes
Format settings, ReFrames : 9 frames
Codec ID : avc1
Codec ID/Info : Advanced Video Coding
Duration : 2h 3mn
Bit rate mode : Variable
Bit rate : 2 200 Kbps
Width : 1 024 pixels
Height : 432 pixels
Display aspect ratio : 2.40:1
Frame rate mode : Variable
Frame rate : 23.976 fps
Minimum frame rate : 23.810 fps
Maximum frame rate : 24.272 fps
Color space : YUV
Chroma subsampling : 4:2:0
Bit depth : 8 bits
Scan type : Progressive
Bits/(Pixel*Frame) : 0.207
Stream size : 1.90 GiB (87%)
Writing library : x264 core 142 r2479 dd79a61
Encoding settings : cabac=1 / ref=9 / deblock=1:0:0 / analyse=0x3:0x113 / me=umh / subme=9 / psy=1 / psy_rd=1.00:0.00 / mixed_ref=1 / me_range=32 / chroma_me=1 / trellis=1 / 8x8dct=1 / cqm=0 / deadzone=21,11 / fast_pskip=1 / chroma_qp_offset=-2 / threads=36 / lookahead_threads=3 / sliced_threads=0 / nr=0 / decimate=1 / interlaced=0 / bluray_compat=0 / constrained_intra=0 / bframes=6 / b_pyramid=2 / b_adapt=2 / b_bias=0 / direct=1 / weightb=1 / open_gop=0 / weightp=2 / keyint=240 / keyint_min=24 / scenecut=40 / intra_refresh=0 / rc_lookahead=40 / rc=2pass / mbtree=1 / bitrate=2200 / ratetol=1.0 / qcomp=0.60 / qpmin=0 / qpmax=69 / qpstep=4 / cplxblur=20.0 / qblur=0.5 / ip_ratio=1.40 / aq=1:1.00
Language : English
Encoded date : UTC 2015-03-28 21:44:03
Tagged date : UTC 2015-03-28 21:44:10
Color primaries : BT.709-5, BT.1361, IEC 61966-2-4, SMPTE RP177
Transfer characteristics : BT.709-5, BT.1361
Matrix coefficients : BT.709-5, BT.1361, IEC 61966-2-4 709, SMPTE RP177

Video #2
ID : 7
Format : JPEG
Codec ID : jpeg
Duration : 2h 3mn
Bit rate mode : Variable
Bit rate : 929 bps
Width : 640 pixels
Height : 270 pixels
Display aspect ratio : 2.40:1
Frame rate mode : Variable
Frame rate : 0.003 fps
Minimum frame rate : 0.002 fps
Maximum frame rate : 0.004 fps
Color space : YUV
Chroma subsampling : 4:2:0
Bit depth : 8 bits
Compression mode : Lossy
Bits/(Pixel*Frame) : 1.792
Stream size : 756 KiB (0%)
Language : English
Encoded date : UTC 2015-03-28 21:44:19
Tagged date : UTC 2015-03-28 21:44:19

Audio #1
ID : 2
Format : AAC
Format/Info : Advanced Audio Codec
Format profile : LC
Codec ID : 40
Duration : 2h 3mn
Bit rate mode : Variable
Bit rate : 157 Kbps
Maximum bit rate : 222 Kbps
Channel(s) : 2 channels
Channel positions : Front: L R
Sampling rate : 48.0 KHz
Compression mode : Lossy
Stream size : 139 MiB (6%)
Language : Russian
Encoded date : UTC 2015-03-28 21:44:04
Tagged date : UTC 2015-03-28 21:44:14

Audio #2
ID : 3
Format : AAC
Format/Info : Advanced Audio Codec
Format profile : LC
Codec ID : 40
Duration : 2h 3mn
Bit rate mode : Variable
Bit rate : 157 Kbps
Maximum bit rate : 237 Kbps
Channel(s) : 2 channels
Channel positions : Front: L R
Sampling rate : 48.0 KHz
Compression mode : Lossy
Stream size : 138 MiB (6%)
Language : English
Encoded date : UTC 2015-03-28 21:44:04
Tagged date : UTC 2015-03-28 21:44:14

Text #1
ID : 4
Format : Timed text
Muxing mode : sbtl
Codec ID : tx3g
Duration : 1h 57mn
Bit rate mode : Variable
Bit rate : 62 bps
Stream size : 53.0 KiB (0%)
Language : Russian
Encoded date : UTC 2015-03-28 21:44:04
Tagged date : UTC 2015-03-28 21:44:04

Text #2
ID : 5
Format : Timed text
Muxing mode : sbtl
Codec ID : tx3g
Duration : 1h 55mn
Bit rate mode : Variable
Bit rate : 50 bps
Stream size : 42.5 KiB (0%)
Language : English
Encoded date : UTC 2015-03-28 21:44:04
Tagged date : UTC 2015-03-28 21:44:04

Text #3
ID : 6
Format : Apple text
Codec ID : text
Duration : 2h 3mn
Bit rate mode : Variable
Bit rate : 1 bps
Stream size : 471 Bytes (0%)
Language : English
Encoded date : UTC 2015-03-28 21:44:14
Tagged date : UTC 2015-03-28 21:44:14

Menu
00:00:00.000 : Chapter 1
00:05:38.922 : Chapter 2
00:10:19.702 : Chapter 3
00:14:58.731 : Chapter 4
00:19:52.608 : Chapter 5
00:27:27.688 : Chapter 6
00:36:14.756 : Chapter 7
00:42:13.072 : Chapter 8
00:49:21.625 : Chapter 9
00:54:10.831 : Chapter 10
01:01:03.952 : Chapter 11
01:10:29.600 : Chapter 12
01:17:11.168 : Chapter 13
01:24:26.311 : Chapter 14
01:30:39.309 : Chapter 15
01:35:17.170 : Chapter 16
01:40:21.015 : Chapter 17
01:45:01.128 : Chapter 18
01:52:26.657 : Chapter 19
01:57:04.142 : Chapter 20
x264 [info]: frame I:1480 Avg QP:13.91 size: 92470
x264 [info]: frame P:36450 Avg QP:16.50 size: 25589
x264 [info]: frame B:139622 Avg QP:19.10 size: 6920
x264 [info]: consecutive B-frames: 2.0% 2.1% 5.8% 12.5% 16.1% 54.0% 7.6%
x264 [info]: mb I I16..4: 9.8% 70.8% 19.4%
x264 [info]: mb P I16..4: 1.0% 7.5% 1.7% P16..4: 35.8% 28.7% 18.5% 0.0% 0.0% skip: 6.7%
x264 [info]: mb B I16..4: 0.1% 1.1% 0.3% B16..8: 41.0% 10.1% 2.8% direct: 3.8% skip:40.8% L0:46.4% L1:45.1% BI: 8.5%
x264 [info]: 8x8 transform intra:73.0% inter:67.5%
x264 [info]: coded y,uvDC,uvAC intra: 92.7% 91.0% 75.8% inter: 26.8% 23.4% 5.9%
x264 [info]: i16 v,h,dc,p: 24% 11% 9% 56%
x264 [info]: i8 v,h,dc,ddl,ddr,vr,hd,vl,hu: 10% 8% 4% 10% 14% 15% 14% 12% 12%
x264 [info]: i4 v,h,dc,ddl,ddr,vr,hd,vl,hu: 9% 8% 3% 10% 15% 15% 14% 12% 14%
x264 [info]: i8c dc,h,v,p: 42% 19% 18% 20%
x264 [info]: Weighted P-Frames: Y:3.5% UV:2.1%
x264 [info]: ref P L0: 45.3% 11.4% 17.9% 6.7% 6.1% 4.1% 3.9% 2.0% 2.2% 0.2% 0.0%
x264 [info]: ref B L0: 68.5% 14.0% 7.1% 3.8% 2.7% 2.3% 1.2% 0.4%
x264 [info]: ref B L1: 90.7% 9.3%
x264 [info]: kb/s:2199.19

Apple TV, iPad, iPhone, iPod Touch.
Windows VLC media player
Download

( )!

  ·   torrent ()  ·  

info []  [] 
:    

: 03- 00:14

: GMT + 4