Ошибка

До окончания фрилича осталось:


(Easy Listening) [LP] [16Bit / 44.1KHz] Tony Harper Orchestra conduced by Marty Paich - Lady Lonely (1959) /USA 1959; RCA Victor LSP 2092/, FLAC (image+.cue)

Ответить на тему
 
Автор Сообщение

SVD4k

Пол: Пол:Муж

Стаж: 3 года 10 месяцев

Сообщений: 30

СССР
Рейтинг

post 12-Янв-2015 13:20 0[+]

[Цитировать] 


Tony Harper Orchestra conduced by Marty Paich - Lady Lonely (1959)

Жанр: Easy Listening
Носитель: LP
Год выхода альбома / диска: 1959
Лейбл / №: RCA Victor Records / LSP 2092
Страна исполнителя / производитель диска: USA
Аудиокодек: FLAC
Тип рипа: image+.cue
Формат записи: неизвестно
Формат раздачи: 16 Bit / 44.1 KHz
Продолжительность: 00:45:53
Источник оцифровки: третьим лицом (mjs820)
Код класса состояния винила: неизвестно
Устройство воспроизведения: RCA MTT-131
Головка звукоснимателя: неизвестно
Предварительный усилитель: неизвестно
АЦП: Tascam DR-07mkII
Программа-оцифровщик: Audacity 2.0.3
Обработка: неизвестно
Треклист:
Продолжительность: 00:22:47
01. Lady Lonely [00:03:02]
02. In The Dark Of The Night [00:03:05]
03. He Was A Man [00:04:06]
04. My Heart Is A Lonely Hunter [00:02:36]
05. The Lack Of Love [00:03:12]
06. Blue It Grows [00:03:25]
07. I Love The Blues [00:03:17]

Код:

foobar2000 1.3.1 / Замер динамического диапазона (DR) 1.1.1
Дата отчёта: 2015-01-12 02:15:21

--------------------------------------------------------------------------------
Анализ:   Tony Harper Orchestra conduced by Marty Paich / Lady Lonely [side A] [LP 16-44.1](USA 1959; RCA Victor LSP 2092)
--------------------------------------------------------------------------------

DR         Пики           RMS        Продолжительность трека
--------------------------------------------------------------------------------
DR12      -5.46 дБ   -21.70 дБ      3:02 01-Lady Lonely
DR14      -3.19 дБ   -21.60 дБ      3:06 02-In The Dark Of The Night
DR14      -4.35 дБ   -25.70 дБ      4:07 03-He Was A Man
DR12      -4.32 дБ   -23.27 дБ      2:37 04-My Heart Is A Lonely Hunter
DR13      -2.93 дБ   -21.09 дБ      3:13 05-The Lack Of Love
DR13      -5.32 дБ   -23.52 дБ      3:26 06-Blue It Grows
DR14      -3.00 дБ   -21.81 дБ      3:17 07-I Love The Blues
--------------------------------------------------------------------------------

Количество треков:  7
Реальные значения DR:  DR13

Частота:    44100 гц
Каналов:    2
Бит на сэмпл:     16
Битрейт:    837 кбит/с
Кодек:      FLAC
================================================================================

Продолжительность: 00:23:05
01. You Taught Me How To Cry [00:03:30]
02. The Velvet Hammer [00:03:15]
03. The Other Woman [00:03:01]
04. Nobody Home But The Blues [00:03:47]
05. Busy Blues [00:03:01]
06. Love Has Come, Love Has Gone [00:03:10]
07. River Weep [00:03:18]

Код:

foobar2000 1.3.1 / Замер динамического диапазона (DR) 1.1.1
Дата отчёта: 2015-01-12 02:14:03

--------------------------------------------------------------------------------
Анализ:   Tony Harper Orchestra conduced by Marty Paich / Lady Lonely [side B] [LP 16-44.1](USA 1959; RCA Victor LSP 2092)
--------------------------------------------------------------------------------

DR         Пики           RMS        Продолжительность трека
--------------------------------------------------------------------------------
DR15      -1.79 дБ   -23.82 дБ      3:31 01-You Taught Me How To Cry
DR13      -3.44 дБ   -20.66 дБ      3:16 02-The Velvet Hammer
DR15      -4.84 дБ   -25.71 дБ      3:01 03-The Other Woman
DR14      -3.92 дБ   -22.60 дБ      3:47 04-Nobody Home But The Blues
DR13      -1.36 дБ   -20.10 дБ      3:02 05-Busy Blues
DR12      -5.40 дБ   -22.00 дБ      3:11 06-Love Has Come, Love Has Gone
DR14      -3.89 дБ   -24.13 дБ      3:18 07-River Weep
--------------------------------------------------------------------------------

Количество треков:  7
Реальные значения DR:  DR14

Частота:    44100 гц
Каналов:    2
Бит на сэмпл:     16
Битрейт:    832 кбит/с
Кодек:      FLAC
================================================================================


Доп. информация:

Наличие сканов в содержимом раздачи: да
info [Профиль]  [ЛС] 
Показать сообщения:    
Ответить на тему

Текущее время: 10-Дек 22:37

Часовой пояс: GMT + 4



Вы не можете начинать темы
Вы не можете отвечать на сообщения
Вы не можете редактировать свои сообщения
Вы не можете удалять свои сообщения
Вы не можете голосовать в опросах
Вы не можете прикреплять файлы к сообщениям
Вы не можете скачивать файлы