Ошибка

Deep Purple with Orchestra - Live in Verona [2014 г., Classic Rock,Hard Rock, BDRip]

Ответить на тему
 
Автор Сообщение

Mindaugas

Пол: Пол:Муж

Стаж: 4 года 1 месяц

Сообщений: 39

Европейский Союз
Рейтинг

post 10-Ноя-2014 16:03 1[+]

[Цитировать] 



Deep Purple with Orchestra - Live in Verona

Год выпуска: 2014
Жанр: Classic Rock,Hard Rock
Происхождение исполнителя: UK
Продолжительность: 01:35:32


Треклист:

01. Deep Purple Overture
02. Highway Star
03. Hard Lovin Man
04. Maybe I m A Leo
05. Strange Kind Of Woman
06. Rapture Of The Deep
07. Woman From Tokyo
08. Contact Lost
09. When A Blind Man Cries
10. The Well Dressed Guitar
11. Knocking At Your Back Door
12. Lazy
13. No One Came
14. Don Airey Solo
15. Perfect Strangers
16. Space Truckin
17. Smoke On The Water


Описание:
Этот концерт был снят летом 2011 года в эффектном окружении Arena di Verona, римского амфитеатра, построенном в 30 году нашей эры. На этой сцене Deep Purple объединился с полным симфоническим оркестром для представления всех своих классических композиций. Deep Purple продолжают оставаться одной из самых прекрасных хард-рок групп на планете и, несомненно, предстают в своих лучших проявлениях, когда выступают на концертах. Здесь оркестровые аранжировки придают дополнительную глубину и пространство для знакомых песен, и группа удовлетворяет обоим условиям: играть с оркестром и выступать в таком историческом месте, чтобы представить блестящее шоу перед огромной и восторженной толпой. Практически половину концерта группа отыграла в режиме “non-stop”, а в конце представления публика долго не отпускала своих любимых звёзд и те, уступив своим поклонникам, сыграли ещё «на-бис» два своих старых хита с редким дуэтным соло ритм-секции Главер – Пэйс.

Происхождение видео: BDRip
Формат: MKV
Видео кодек: AVC
Данные видео: 1920x1080, 8261 kbps, 29,970 fps, 0,133 bit/pic
Аудио кодек: DTS
Данные аудио: 1510 kbps, 6 ch (Front: L C R, Side: L R, LFE), 48,0 kHz
Ian Gillan - vocals
Ian Paice - drums
Roger Glover - bass
Steve Morse - guitar
Donald Airey - keyboards

Код:

Общее
Уникальный идентификатор         : 226325323345977663306032975292429126308 (0xAA44ABF72FB3DBCDA05CAC650E824AA4)
Полное имя                       : D:\Torent files\Deep.Purple.Live.In.Verona.2011.1080p.mkv
Формат                           : Matroska
Версия формата                   : Version 4 / Version 2
Размер файла                     : 6,56 Гбайт
Продолжительность                : 1 ч. 35 м.
Общий поток                      : 9824 Кбит/сек
Дата кодирования                 : UTC 2014-11-06 14:04:31
Программа кодирования            : mkvmerge v7.3.0 ('Nouages') 64bit built on Oct 22 2014 18:53:34
Библиотека кодирования           : libebml v1.3.0 + libmatroska v1.4.1
_STATISTICS_WRITING_APP          : mkvmerge v7.3.0 ('Nouages') 64bit built on Oct 22 2014 18:53:34
_STATISTICS_WRITING_DATE_UTC     : 2014-11-06 14:04:31
_STATISTICS_TAGS                 : BPS DURATION NUMBER_OF_FRAMES NUMBER_OF_BYTES
DURATION                         : 01:35:35.200000000
NUMBER_OF_FRAMES                 : 537675
NUMBER_OF_BYTES                  : 1081802100

Видео
Идентификатор                    : 1
Формат                           : AVC
Формат/Информация                : Advanced Video Codec
Профиль формата                  : High@L4.1
Параметр CABAC формата           : Да
Параметр ReFrames формата        : 4 кадра
Идентификатор кодека             : V_MPEG4/ISO/AVC
Продолжительность                : 1 ч. 35 м.
Битрейт                          : 8261 Кбит/сек
Ширина                           : 1920 пикселей
Высота                           : 1080 пикселей
Соотношение сторон               : 16:9
Частота кадров                   : 29,970 кадров/сек
Цветовое пространство            : YUV
Субдискретизация насыщенности    : 4:2:0
Битовая глубина                  : 8 бит
Тип развёртки                    : Прогрессивная
Бит/(Пиксели*Кадры)              : 0.133
Размер потока                    : 5,42 Гбайт (83%)
Библиотека кодирования           : x264 core 142 r2479 dd79a61
Настройки программы              : cabac=1 / ref=4 / deblock=1:0:0 / analyse=0x3:0x133 / me=umh / subme=8 / psy=1 / psy_rd=1.00:0.00 / mixed_ref=1 / me_range=16 / chroma_me=1 / trellis=1 / 8x8dct=1 / cqm=0 / deadzone=21,11 / fast_pskip=0 / chroma_qp_offset=-2 / threads=12 / lookahead_threads=2 / sliced_threads=0 / nr=0 / decimate=1 / interlaced=0 / bluray_compat=0 / constrained_intra=0 / bframes=3 / b_pyramid=2 / b_adapt=1 / b_bias=0 / direct=1 / weightb=1 / open_gop=0 / weightp=2 / keyint=250 / keyint_min=25 / scenecut=40 / intra_refresh=0 / rc_lookahead=40 / rc=2pass / mbtree=1 / bitrate=8261 / ratetol=1.0 / qcomp=0.60 / qpmin=0 / qpmax=69 / qpstep=4 / cplxblur=20.0 / qblur=0.5 / ip_ratio=1.40 / aq=1:1.00
Язык                             : English
_STATISTICS_WRITING_APP          : mkvmerge v7.3.0 ('Nouages') 64bit built on Oct 22 2014 18:53:34
_STATISTICS_WRITING_DATE_UTC     : 2014-11-06 14:04:31
_STATISTICS_TAGS                 : BPS DURATION NUMBER_OF_FRAMES NUMBER_OF_BYTES
DURATION                         : 01:35:35.196000000
NUMBER_OF_FRAMES                 : 171884
NUMBER_OF_BYTES                  : 5958829429

Аудио
Идентификатор                    : 2
Формат                           : DTS
Формат/Информация                : Digital Theater Systems
Идентификатор кодека             : A_DTS
Продолжительность                : 1 ч. 35 м.
Вид битрейта                     : Постоянный
Битрейт                          : 1510 Кбит/сек
Каналы                           : 6 каналов
Расположение каналов             : Front: L C R, Side: L R, LFE
Частота                          : 48,0 КГц
Битовая глубина                  : 24 бит
Метод сжатия                     : С потерями
Размер потока                    : 1,01 Гбайт (15%)

Меню
00:00:00.000                     : en:00:00:00.000
00:02:03.457                     : en:00:02:03.457
00:08:49.396                     : en:00:08:49.396
00:15:05.605                     : en:00:15:05.605
00:19:40.479                     : en:00:19:40.479
00:25:52.418                     : en:00:25:52.418
00:31:26.251                     : en:00:31:26.251
00:37:59.644                     : en:00:37:59.644
00:42:35.753                     : en:00:42:35.753
00:46:38.329                     : en:00:46:38.329
00:49:30.801                     : en:00:49:30.801
00:55:40.137                     : en:00:55:40.137
01:04:37.474                     : en:01:04:37.474
01:10:03.566                     : en:01:10:03.566
01:16:16.772                     : en:01:16:16.772
01:22:17.699                     : en:01:22:17.699
01:27:18.200                     : en:01:27:18.200


info [Профиль]  [ЛС] 
Показать сообщения:    
Ответить на тему

Текущее время: 03-Дек 04:26

Часовой пояс: GMT + 4



Вы не можете начинать темы
Вы не можете отвечать на сообщения
Вы не можете редактировать свои сообщения
Вы не можете удалять свои сообщения
Вы не можете голосовать в опросах
Вы не можете прикреплять файлы к сообщениям
Вы не можете скачивать файлы