Ошибка

(Power Metal) Arida Vortex (+соло альбом Романа Гурьева) - Дискография (6 CD) [2003 - 2013], FLAC (tracks+.cue), lossless

Ответить на тему
 
Автор Сообщение

Zelgadiss

Пол: Пол:Муж

Стаж: 4 года

Сообщений: 8

Украина
Рейтинг

post 15-Дек-2013 14:59 0[+]

[Цитировать] 

Arida Vortex / Дискография (6 CD)
Жанр: Power Metal
Страна-производитель диска (релиза): Россия
Год издания: 2003 - 2013
Аудиокодек: FLAC
Тип рипа: tracks+.cue
Битрейт аудио: lossless
Продолжительность: 03:56:36
Источник (релизер): Собственные диски
Наличие сканов в содержимом раздачи: да

Cостав:
Андрей «AndyVortex» Лобашёв - вокал
Роман Гурьев - гитара
Владимир Будник - гитара
Михаил Немировский - бас-гитара
Вадим Сергеев - ударные



Треклист:
Издатель (лейбл): CD-Maximum
Номер по каталогу: CDM 0303-1344
01. Invasion (00:53)
02. Vortex (04:12)
03. Break The Fetters (03:28)
04. Revolution Time (04:20)
05. Prison For My Soul (04:52)
06. Autumn (06:32)
07. Facing The Elements (02:26)
08. Imagination (05:19)
09. When Tomorrow Comes (04:41)
10. Evil Sorcery (06:06)
11. Abyss Of Emptiness (02:14)
12. Улетай (Bonus Track) (04:41)
 
Exact Audio Copy V1.0 beta 3 from 29. August 2011

EAC extraction logfile from 22. October 2013, 12:16

Arida Vortex / Evil Sorcery

Used drive : Optiarc DVD RW AD-7260S Adapter: 2 ID: 1

Read mode : Secure
Utilize accurate stream : Yes
Defeat audio cache : Yes
Make use of C2 pointers : No

Read offset correction : 48
Overread into Lead-In and Lead-Out : No
Fill up missing offset samples with silence : Yes
Delete leading and trailing silent blocks : No
Null samples used in CRC calculations : Yes
Used interface : Native Win32 interface for Win NT & 2000
Gap handling : Appended to previous track

Used output format : User Defined Encoder
Selected bitrate : 1024 kBit/s
Quality : High
Add ID3 tag : No
Command line compressor : C:\Program Files (x86)\Exact Audio Copy\Flac\flac.exe
Additional command line options : -8 -V -T "ARTIST=%artist%" -T "TITLE=%title%" -T "ALBUM=%albumtitle%" -T "DATE=%year%" -T "TRACKNUMBER=%tracknr%" -T "GENRE=%genre%" -T "PERFORMER=%albuminterpret%" -T "COMPOSER=%composer%" %haslyrics%--tag-from-file=LYRICS="%lyricsfile%"%haslyrics% -T "ALBUMARTIST=%albumartist%" -T "DISCNUMBER=%cdnumber%" -T "TOTALDISCS=%totalcds%" -T "TOTALTRACKS=%numtracks%" -T "COMMENT=%comment%" %source% -o %dest%

TOC of the extracted CD

Track | Start | Length | Start sector | End sector
---------------------------------------------------------
1 | 0:00.00 | 0:52.64 | 0 | 3963
2 | 0:52.64 | 4:11.49 | 3964 | 22837
3 | 5:04.38 | 3:28.32 | 22838 | 38469
4 | 8:32.70 | 4:19.70 | 38470 | 57964
5 | 12:52.65 | 4:51.52 | 57965 | 79841
6 | 17:44.42 | 6:32.11 | 79842 | 109252
7 | 24:16.53 | 2:26.01 | 109253 | 120203
8 | 26:42.54 | 5:19.00 | 120204 | 144128
9 | 32:01.54 | 4:40.46 | 144129 | 165174
10 | 36:42.25 | 6:06.35 | 165175 | 192659
11 | 42:48.60 | 2:14.23 | 192660 | 202732
12 | 45:03.08 | 4:41.36 | 202733 | 223843

Track 1

Filename C:\Users\Zelgadiss Graywords\Music\Arida Vortex\2003 - Evil Sorcery\01 - Invasion.wav

Pre-gap length 0:00:02.00

Peak level 91.9 %
Extraction speed 1.5 X
Track quality 100.0 %
Test CRC 0229DF55
Copy CRC 0229DF55
Accurately ripped (confidence 3) [E83DDC77] (AR v2)
Copy OK

Track 2

Filename C:\Users\Zelgadiss Graywords\Music\Arida Vortex\2003 - Evil Sorcery\02 - Vortex.wav

Peak level 96.1 %
Extraction speed 2.1 X
Track quality 99.9 %
Test CRC 51494590
Copy CRC 51494590
Accurately ripped (confidence 3) [BD04AFFD] (AR v2)
Copy OK

Track 3

Filename C:\Users\Zelgadiss Graywords\Music\Arida Vortex\2003 - Evil Sorcery\03 - Break The Fetters.wav

Pre-gap length 0:00:02.00

Peak level 96.8 %
Extraction speed 2.5 X
Track quality 100.0 %
Test CRC 8675B4D7
Copy CRC 8675B4D7
Accurately ripped (confidence 2) [14A9B4A0] (AR v2)
Copy OK

Track 4

Filename C:\Users\Zelgadiss Graywords\Music\Arida Vortex\2003 - Evil Sorcery\04 - Revolution Time.wav

Pre-gap length 0:00:02.00

Peak level 98.8 %
Extraction speed 2.5 X
Track quality 99.9 %
Test CRC 2B7467AF
Copy CRC 2B7467AF
Accurately ripped (confidence 3) [94C60770] (AR v2)
Copy OK

Track 5

Filename C:\Users\Zelgadiss Graywords\Music\Arida Vortex\2003 - Evil Sorcery\05 - Prison For My Soul.wav

Pre-gap length 0:00:02.00

Peak level 96.2 %
Extraction speed 3.1 X
Track quality 100.0 %
Test CRC 923C8E30
Copy CRC 923C8E30
Accurately ripped (confidence 3) [68F5F7A4] (AR v2)
Copy OK

Track 6

Filename C:\Users\Zelgadiss Graywords\Music\Arida Vortex\2003 - Evil Sorcery\06 - Autumn.wav

Pre-gap length 0:00:02.00

Peak level 84.8 %
Extraction speed 3.5 X
Track quality 100.0 %
Test CRC EFAF462B
Copy CRC EFAF462B
Accurately ripped (confidence 3) [79C869BD] (AR v2)
Copy OK

Track 7

Filename C:\Users\Zelgadiss Graywords\Music\Arida Vortex\2003 - Evil Sorcery\07 - Facing The Elements.wav

Pre-gap length 0:00:02.00

Peak level 96.7 %
Extraction speed 3.3 X
Track quality 100.0 %
Test CRC 7416F57F
Copy CRC 7416F57F
Accurately ripped (confidence 3) [71B95040] (AR v2)
Copy OK

Track 8

Filename C:\Users\Zelgadiss Graywords\Music\Arida Vortex\2003 - Evil Sorcery\08 - Imagination.wav

Pre-gap length 0:00:02.00

Peak level 97.0 %
Extraction speed 3.8 X
Track quality 100.0 %
Test CRC DF522504
Copy CRC DF522504
Accurately ripped (confidence 3) [C2AE6EF7] (AR v2)
Copy OK

Track 9

Filename C:\Users\Zelgadiss Graywords\Music\Arida Vortex\2003 - Evil Sorcery\09 - When Tomorrow Comes.wav

Pre-gap length 0:00:02.00

Peak level 95.2 %
Extraction speed 4.0 X
Track quality 100.0 %
Test CRC 040D6040
Copy CRC 040D6040
Accurately ripped (confidence 3) [46B82F60] (AR v2)
Copy OK

Track 10

Filename C:\Users\Zelgadiss Graywords\Music\Arida Vortex\2003 - Evil Sorcery\10 - Evil Sorcery.wav

Pre-gap length 0:00:02.00

Peak level 96.7 %
Extraction speed 4.3 X
Track quality 100.0 %
Test CRC 556B6827
Copy CRC 556B6827
Accurately ripped (confidence 3) [57F5A534] (AR v2)
Copy OK

Track 11

Filename C:\Users\Zelgadiss Graywords\Music\Arida Vortex\2003 - Evil Sorcery\11 - Abyss Of Emptiness.wav

Pre-gap length 0:00:02.00

Peak level 69.0 %
Extraction speed 3.8 X
Track quality 100.0 %
Test CRC 04EE9368
Copy CRC 04EE9368
Accurately ripped (confidence 3) [71D7D463] (AR v2)
Copy OK

Track 12

Filename C:\Users\Zelgadiss Graywords\Music\Arida Vortex\2003 - Evil Sorcery\12 - Улетай (Bonus Track).wav

Pre-gap length 0:00:02.00

Peak level 94.1 %
Extraction speed 4.4 X
Track quality 100.0 %
Test CRC 671E407C
Copy CRC 671E407C
Accurately ripped (confidence 3) [E84603AD] (AR v2)
Copy OK

All tracks accurately ripped

No errors occurred

End of status report

---- CUETools DB Plugin V2.1.3

[CTDB TOCID: 6SGuEgHv5I1bEX8T2aH2KrJmyPs-] found, Submit result: already submitted
[15cd76f8] (3/4) Accurately ripped
[a2c24162] (1/4) No match

==== Log checksum 3906F445E40FEDD4C20FF45D2A9E2B6CAA9B4BE00CE9C9FB4C561A3040A384BC ====
 
REM GENRE "Power Metal"
REM DATE 2003
REM DISCID 8D0BA80C
REM COMMENT "ExactAudioCopy v1.0b3"
PERFORMER "Arida Vortex"
TITLE "Evil Sorcery"
FILE "01 - Invasion.wav" WAVE
TRACK 01 AUDIO
TITLE "Invasion"
PERFORMER "Arida Vortex"
INDEX 01 00:00:00
FILE "02 - Vortex.wav" WAVE
TRACK 02 AUDIO
TITLE "Vortex"
PERFORMER "Arida Vortex"
INDEX 01 00:00:00
TRACK 03 AUDIO
TITLE "Break The Fetters"
PERFORMER "Arida Vortex"
INDEX 00 04:09:49
FILE "03 - Break The Fetters.wav" WAVE
INDEX 01 00:00:00
TRACK 04 AUDIO
TITLE "Revolution Time"
PERFORMER "Arida Vortex"
INDEX 00 03:26:32
FILE "04 - Revolution Time.wav" WAVE
INDEX 01 00:00:00
TRACK 05 AUDIO
TITLE "Prison For My Soul"
PERFORMER "Arida Vortex"
INDEX 00 04:17:70
FILE "05 - Prison For My Soul.wav" WAVE
INDEX 01 00:00:00
TRACK 06 AUDIO
TITLE "Autumn"
PERFORMER "Arida Vortex"
INDEX 00 04:49:52
FILE "06 - Autumn.wav" WAVE
INDEX 01 00:00:00
TRACK 07 AUDIO
TITLE "Facing The Elements"
PERFORMER "Arida Vortex"
INDEX 00 06:30:11
FILE "07 - Facing The Elements.wav" WAVE
INDEX 01 00:00:00
TRACK 08 AUDIO
TITLE "Imagination"
PERFORMER "Arida Vortex"
INDEX 00 02:24:01
FILE "08 - Imagination.wav" WAVE
INDEX 01 00:00:00
TRACK 09 AUDIO
TITLE "When Tomorrow Comes"
PERFORMER "Arida Vortex"
INDEX 00 05:17:00
FILE "09 - When Tomorrow Comes.wav" WAVE
INDEX 01 00:00:00
TRACK 10 AUDIO
TITLE "Evil Sorcery"
PERFORMER "Arida Vortex"
INDEX 00 04:38:46
FILE "10 - Evil Sorcery.wav" WAVE
INDEX 01 00:00:00
TRACK 11 AUDIO
TITLE "Abyss Of Emptiness"
PERFORMER "Arida Vortex"
INDEX 00 06:04:35
FILE "11 - Abyss Of Emptiness.wav" WAVE
INDEX 01 00:00:00
TRACK 12 AUDIO
TITLE "Улетай (Bonus Track)"
PERFORMER "Arida Vortex"
INDEX 00 02:12:23
FILE "12 - Улетай (Bonus Track).wav" WAVE
INDEX 01 00:00:00
Издатель (лейбл): CD-Maximum
Номер по каталогу: CDM 0406-2517
01. Ignis Volans (03:59)
02. The Mirror Inside (04:21)
03. Salves Of Fate (04:00)
04. Black Line (04:36)
05. Light Of Distant Stars (04:32)
06. Riot In Heaven (05:45)
07. Loser (03:59)
08. Flames Of Sunset (04:38)
09. Alienation (04:35)
10. I Believe (04:48)
11. Призрак Зеркала (Bonus Track) (04:06)
 
Exact Audio Copy V1.0 beta 3 from 29. August 2011

EAC extraction logfile from 22. October 2013, 12:55

Arida Vortex / Flames Of Sunset

Used drive : Optiarc DVD RW AD-7260S Adapter: 2 ID: 1

Read mode : Secure
Utilize accurate stream : Yes
Defeat audio cache : Yes
Make use of C2 pointers : No

Read offset correction : 48
Overread into Lead-In and Lead-Out : No
Fill up missing offset samples with silence : Yes
Delete leading and trailing silent blocks : No
Null samples used in CRC calculations : Yes
Used interface : Native Win32 interface for Win NT & 2000
Gap handling : Appended to previous track

Used output format : User Defined Encoder
Selected bitrate : 1024 kBit/s
Quality : High
Add ID3 tag : No
Command line compressor : C:\Program Files (x86)\Exact Audio Copy\Flac\flac.exe
Additional command line options : -8 -V -T "ARTIST=%artist%" -T "TITLE=%title%" -T "ALBUM=%albumtitle%" -T "DATE=%year%" -T "TRACKNUMBER=%tracknr%" -T "GENRE=%genre%" -T "PERFORMER=%albuminterpret%" -T "COMPOSER=%composer%" %haslyrics%--tag-from-file=LYRICS="%lyricsfile%"%haslyrics% -T "ALBUMARTIST=%albumartist%" -T "DISCNUMBER=%cdnumber%" -T "TOTALDISCS=%totalcds%" -T "TOTALTRACKS=%numtracks%" -T "COMMENT=%comment%" %source% -o %dest%

TOC of the extracted CD

Track | Start | Length | Start sector | End sector
---------------------------------------------------------
1 | 0:00.00 | 3:59.18 | 0 | 17942
2 | 3:59.18 | 4:20.45 | 17943 | 37487
3 | 8:19.63 | 4:00.09 | 37488 | 55496
4 | 12:19.72 | 4:36.03 | 55497 | 76199
5 | 16:56.00 | 4:31.74 | 76200 | 96598
6 | 21:27.74 | 5:45.07 | 96599 | 122480
7 | 27:13.06 | 3:59.17 | 122481 | 140422
8 | 31:12.23 | 4:38.37 | 140423 | 161309
9 | 35:50.60 | 4:34.72 | 161310 | 181931
10 | 40:25.57 | 4:48.06 | 181932 | 203537
11 | 45:13.63 | 4:06.27 | 203538 | 222014

Track 1

Filename C:\Users\Zelgadiss Graywords\Music\Arida Vortex\2006 - Flames Of Sunset\01 - Ignis Volans.wav

Pre-gap length 0:00:02.00

Peak level 98.9 %
Extraction speed 2.3 X
Track quality 100.0 %
Test CRC F8C905C0
Copy CRC F8C905C0
Accurately ripped (confidence 1) [DCC4716A] (AR v1)
Copy OK

Track 2

Filename C:\Users\Zelgadiss Graywords\Music\Arida Vortex\2006 - Flames Of Sunset\02 - The Mirror Inside.wav

Peak level 98.9 %
Extraction speed 2.3 X
Track quality 99.9 %
Test CRC 89A32A73
Copy CRC 89A32A73
Accurately ripped (confidence 1) [B55ABE2A] (AR v1)
Copy OK

Track 3

Filename C:\Users\Zelgadiss Graywords\Music\Arida Vortex\2006 - Flames Of Sunset\03 - Salves Of Fate.wav

Peak level 98.9 %
Extraction speed 2.8 X
Track quality 100.0 %
Test CRC DCE5F03A
Copy CRC DCE5F03A
Accurately ripped (confidence 1) [B13EDC6C] (AR v1)
Copy OK

Track 4

Filename C:\Users\Zelgadiss Graywords\Music\Arida Vortex\2006 - Flames Of Sunset\04 - Black Line.wav

Peak level 98.9 %
Extraction speed 2.9 X
Track quality 100.0 %
Test CRC 0905774D
Copy CRC 0905774D
Accurately ripped (confidence 1) [0048181A] (AR v1)
Copy OK

Track 5

Filename C:\Users\Zelgadiss Graywords\Music\Arida Vortex\2006 - Flames Of Sunset\05 - Light Of Distant Stars.wav

Peak level 98.9 %
Extraction speed 3.3 X
Track quality 100.0 %
Test CRC 0FCCD794
Copy CRC 0FCCD794
Accurately ripped (confidence 1) [01EA9386] (AR v1)
Copy OK

Track 6

Filename C:\Users\Zelgadiss Graywords\Music\Arida Vortex\2006 - Flames Of Sunset\06 - Riot In Heaven.wav

Peak level 98.9 %
Extraction speed 3.6 X
Track quality 100.0 %
Test CRC A3FB247F
Copy CRC A3FB247F
Accurately ripped (confidence 1) [94F68A99] (AR v1)
Copy OK

Track 7

Filename C:\Users\Zelgadiss Graywords\Music\Arida Vortex\2006 - Flames Of Sunset\07 - Loser.wav

Peak level 98.9 %
Extraction speed 3.8 X
Track quality 100.0 %
Test CRC 509584AF
Copy CRC 509584AF
Accurately ripped (confidence 1) [7EED7EBF] (AR v1)
Copy OK

Track 8

Filename C:\Users\Zelgadiss Graywords\Music\Arida Vortex\2006 - Flames Of Sunset\08 - Flames Of Sunset.wav

Peak level 98.9 %
Extraction speed 3.9 X
Track quality 100.0 %
Test CRC 9E8B38CC
Copy CRC 9E8B38CC
Accurately ripped (confidence 1) [343B2723] (AR v1)
Copy OK

Track 9

Filename C:\Users\Zelgadiss Graywords\Music\Arida Vortex\2006 - Flames Of Sunset\09 - Alienation.wav

Peak level 98.8 %
Extraction speed 4.1 X
Track quality 100.0 %
Test CRC C43A26DA
Copy CRC C43A26DA
Accurately ripped (confidence 1) [59167D1B] (AR v1)
Copy OK

Track 10

Filename C:\Users\Zelgadiss Graywords\Music\Arida Vortex\2006 - Flames Of Sunset\10 - I Believe.wav

Peak level 89.7 %
Extraction speed 4.3 X
Track quality 100.0 %
Test CRC A344A67C
Copy CRC A344A67C
Accurately ripped (confidence 1) [CB099A0B] (AR v1)
Copy OK

Track 11

Filename C:\Users\Zelgadiss Graywords\Music\Arida Vortex\2006 - Flames Of Sunset\11 - Призрак Зеркала (Bonus Track).wav

Pre-gap length 0:00:04.65

Peak level 98.9 %
Extraction speed 3.9 X
Track quality 99.9 %
Test CRC 9B987218
Copy CRC 9B987218
Accurately ripped (confidence 1) [4A2DEB7E] (AR v1)
Copy OK

All tracks accurately ripped

No errors occurred

End of status report

---- CUETools DB Plugin V2.1.3

[CTDB TOCID: ubPBRQsCCD78r.cmAn8ALbSgNX4-] found, Submit result: already submitted
[7c2d1d62] (1/1) Accurately ripped

==== Log checksum 808E774BFF37775BD20A92BAF0E7E863F6083B7EE5A4B27DCC0AE73014CDF8D7 ====
 
REM GENRE "Power Metal"
REM DATE 2006
REM DISCID 840B900B
REM COMMENT "ExactAudioCopy v1.0b3"
CATALOG 0000000000000
PERFORMER "Arida Vortex"
TITLE "Flames Of Sunset"
FILE "01 - Ignis Volans.wav" WAVE
TRACK 01 AUDIO
TITLE "Ignis Volans"
PERFORMER "Arida Vortex"
INDEX 01 00:00:00
FILE "02 - The Mirror Inside.wav" WAVE
TRACK 02 AUDIO
TITLE "The Mirror Inside"
PERFORMER "Arida Vortex"
INDEX 01 00:00:00
FILE "03 - Salves Of Fate.wav" WAVE
TRACK 03 AUDIO
TITLE "Salves Of Fate"
PERFORMER "Arida Vortex"
INDEX 01 00:00:00
FILE "04 - Black Line.wav" WAVE
TRACK 04 AUDIO
TITLE "Black Line"
PERFORMER "Arida Vortex"
INDEX 01 00:00:00
FILE "05 - Light Of Distant Stars.wav" WAVE
TRACK 05 AUDIO
TITLE "Light Of Distant Stars"
PERFORMER "Arida Vortex"
INDEX 01 00:00:00
FILE "06 - Riot In Heaven.wav" WAVE
TRACK 06 AUDIO
TITLE "Riot In Heaven"
PERFORMER "Arida Vortex"
INDEX 01 00:00:00
FILE "07 - Loser.wav" WAVE
TRACK 07 AUDIO
TITLE "Loser"
PERFORMER "Arida Vortex"
INDEX 01 00:00:00
FILE "08 - Flames Of Sunset.wav" WAVE
TRACK 08 AUDIO
TITLE "Flames Of Sunset"
PERFORMER "Arida Vortex"
INDEX 01 00:00:00
FILE "09 - Alienation.wav" WAVE
TRACK 09 AUDIO
TITLE "Alienation"
PERFORMER "Arida Vortex"
INDEX 01 00:00:00
FILE "10 - I Believe.wav" WAVE
TRACK 10 AUDIO
TITLE "I Believe"
PERFORMER "Arida Vortex"
INDEX 01 00:00:00
TRACK 11 AUDIO
TITLE "Призрак Зеркала (Bonus Track)"
PERFORMER "Arida Vortex"
INDEX 00 04:43:16
FILE "11 - Призрак Зеркала (Bonus Track).wav" WAVE
INDEX 01 00:00:00
Издатель (лейбл): Metalism Records
Номер по каталогу: MR 071-11
01. Invisible Tension (04:35)
02. Reborn (04:03)
03. Faith (04:16)
04. Perfect Private World (04:17)
05. День (02:45)
06. Ticket To Hell (04:03)
07. Power To Control (04:12)
08. Jack In The Box (05:42)
09. Final Paradise (06:48)
10. Зеркала (06:02)
11. №1 (Bonus Track) (04:03)
 
Exact Audio Copy V1.0 beta 3 from 29. August 2011

EAC extraction logfile from 22. October 2013, 14:11

Arida Vortex / Invisible Tension

Used drive : Optiarc DVD RW AD-7260S Adapter: 2 ID: 1

Read mode : Secure
Utilize accurate stream : Yes
Defeat audio cache : Yes
Make use of C2 pointers : No

Read offset correction : 48
Overread into Lead-In and Lead-Out : No
Fill up missing offset samples with silence : Yes
Delete leading and trailing silent blocks : No
Null samples used in CRC calculations : Yes
Used interface : Native Win32 interface for Win NT & 2000
Gap handling : Appended to previous track

Used output format : User Defined Encoder
Selected bitrate : 1024 kBit/s
Quality : High
Add ID3 tag : No
Command line compressor : C:\Program Files (x86)\Exact Audio Copy\Flac\flac.exe
Additional command line options : -8 -V -T "ARTIST=%artist%" -T "TITLE=%title%" -T "ALBUM=%albumtitle%" -T "DATE=%year%" -T "TRACKNUMBER=%tracknr%" -T "GENRE=%genre%" -T "PERFORMER=%albuminterpret%" -T "COMPOSER=%composer%" %haslyrics%--tag-from-file=LYRICS="%lyricsfile%"%haslyrics% -T "ALBUMARTIST=%albumartist%" -T "DISCNUMBER=%cdnumber%" -T "TOTALDISCS=%totalcds%" -T "TOTALTRACKS=%numtracks%" -T "COMMENT=%comment%" %source% -o %dest%

TOC of the extracted CD

Track | Start | Length | Start sector | End sector
---------------------------------------------------------
1 | 0:00.00 | 4:34.50 | 0 | 20599
2 | 4:34.50 | 4:02.43 | 20600 | 38792
3 | 8:37.18 | 4:16.17 | 38793 | 58009
4 | 12:53.35 | 4:16.44 | 58010 | 77253
5 | 17:10.04 | 2:44.41 | 77254 | 89594
6 | 19:54.45 | 4:02.71 | 89595 | 107815
7 | 23:57.41 | 4:11.39 | 107816 | 126679
8 | 28:09.05 | 5:42.34 | 126680 | 152363
9 | 33:51.39 | 6:48.18 | 152364 | 182981
10 | 40:39.57 | 6:02.23 | 182982 | 210154
11 | 46:42.05 | 4:02.71 | 210155 | 228375

Track 1

Filename C:\Users\Zelgadiss Graywords\Music\Arida Vortex\2011 - Invisible Tension\01 - Invisible Tension.wav

Pre-gap length 0:00:02.00

Peak level 96.6 %
Extraction speed 2.2 X
Track quality 100.0 %
Test CRC C57FBA01
Copy CRC C57FBA01
Cannot be verified as accurate (confidence 1) [E37B6BEA], AccurateRip returned [F69B3A93] (AR v2)
Copy OK

Track 2

Filename C:\Users\Zelgadiss Graywords\Music\Arida Vortex\2011 - Invisible Tension\02 - Reborn.wav

Pre-gap length 0:00:01.62

Peak level 96.6 %
Extraction speed 2.6 X
Track quality 100.0 %
Test CRC C28BF3C5
Copy CRC C28BF3C5
Cannot be verified as accurate (confidence 1) [BE32BDC9], AccurateRip returned [6D9C6195] (AR v2)
Copy OK

Track 3

Filename C:\Users\Zelgadiss Graywords\Music\Arida Vortex\2011 - Invisible Tension\03 - Faith.wav

Pre-gap length 0:00:01.62

Peak level 96.6 %
Extraction speed 2.8 X
Track quality 100.0 %
Test CRC 1F435A89
Copy CRC 1F435A89
Cannot be verified as accurate (confidence 1) [E8454D35], AccurateRip returned [E2FD674E] (AR v2)
Copy OK

Track 4

Filename C:\Users\Zelgadiss Graywords\Music\Arida Vortex\2011 - Invisible Tension\04 - Perfect Private World.wav

Pre-gap length 0:00:01.62

Peak level 96.6 %
Extraction speed 3.0 X
Track quality 100.0 %
Test CRC 5AF06E11
Copy CRC 5AF06E11
Cannot be verified as accurate (confidence 1) [E2EA204C], AccurateRip returned [4C951907] (AR v2)
Copy OK

Track 5

Filename C:\Users\Zelgadiss Graywords\Music\Arida Vortex\2011 - Invisible Tension\05 - День.wav

Pre-gap length 0:00:01.62

Peak level 96.6 %
Extraction speed 3.0 X
Track quality 100.0 %
Test CRC 574981AA
Copy CRC 574981AA
Cannot be verified as accurate (confidence 1) [D263FAE0], AccurateRip returned [CB9AD244] (AR v2)
Copy OK

Track 6

Filename C:\Users\Zelgadiss Graywords\Music\Arida Vortex\2011 - Invisible Tension\06 - Ticket To Hell.wav

Pre-gap length 0:00:01.62

Peak level 96.6 %
Extraction speed 3.4 X
Track quality 100.0 %
Test CRC 82F55B5B
Copy CRC 82F55B5B
Cannot be verified as accurate (confidence 1) [B7F764E0], AccurateRip returned [582CCD26] (AR v2)
Copy OK

Track 7

Filename C:\Users\Zelgadiss Graywords\Music\Arida Vortex\2011 - Invisible Tension\07 - Power To Control.wav

Pre-gap length 0:00:01.62

Peak level 96.6 %
Extraction speed 3.6 X
Track quality 100.0 %
Test CRC 704E752C
Copy CRC 704E752C
Cannot be verified as accurate (confidence 1) [91B557B1], AccurateRip returned [5FD4D322] (AR v2)
Copy OK

Track 8

Filename C:\Users\Zelgadiss Graywords\Music\Arida Vortex\2011 - Invisible Tension\08 - Jack In The Box.wav

Pre-gap length 0:00:01.62

Peak level 96.6 %
Extraction speed 4.0 X
Track quality 100.0 %
Test CRC 0FFDBE34
Copy CRC 0FFDBE34
Cannot be verified as accurate (confidence 1) [8ACD4D8B], AccurateRip returned [C29C05B0] (AR v2)
Copy OK

Track 9

Filename C:\Users\Zelgadiss Graywords\Music\Arida Vortex\2011 - Invisible Tension\09 - Final Paradise.wav

Pre-gap length 0:00:01.62

Peak level 96.6 %
Extraction speed 4.3 X
Track quality 100.0 %
Test CRC 3C8BA861
Copy CRC 3C8BA861
Cannot be verified as accurate (confidence 1) [44466D31], AccurateRip returned [866844FC] (AR v2)
Copy OK

Track 10

Filename C:\Users\Zelgadiss Graywords\Music\Arida Vortex\2011 - Invisible Tension\10 - Зеркала.wav

Pre-gap length 0:00:01.62

Peak level 96.7 %
Extraction speed 4.5 X
Track quality 100.0 %
Test CRC 4BA87B9D
Copy CRC 4BA87B9D
Cannot be verified as accurate (confidence 1) [00717625], AccurateRip returned [452CA623] (AR v2)
Copy OK

Track 11

Filename C:\Users\Zelgadiss Graywords\Music\Arida Vortex\2011 - Invisible Tension\11 - №1 (Bonus Track).wav

Pre-gap length 0:00:01.62

Peak level 96.6 %
Extraction speed 4.5 X
Track quality 100.0 %
Test CRC 40D23879
Copy CRC 40D23879
Cannot be verified as accurate (confidence 1) [4D2C51D2], AccurateRip returned [7CA598AA] (AR v2)
Copy OK

No tracks could be verified as accurate
You may have a different pressing from the one(s) in the database

No errors occurred

End of status report

---- CUETools DB Plugin V2.1.3

[CTDB TOCID: revgjNPV38Xf_W_59H8EwKSBZwA-] found, Submit result: already submitted
[42acb959] (1/1) Accurately ripped

==== Log checksum A6464A7500E5B0320806FF674E8B6246C16F33CA58903E527452085031B31CA0 ====
 
REM GENRE "Power Metal"
REM DATE 2011
REM DISCID 8D0BE50B
REM COMMENT "ExactAudioCopy v1.0b3"
PERFORMER "Arida Vortex"
TITLE "Invisible Tension"
FILE "01 - Invisible Tension.wav" WAVE
TRACK 01 AUDIO
TITLE "Invisible Tension"
PERFORMER "Arida Vortex"
INDEX 01 00:00:00
TRACK 02 AUDIO
TITLE "Reborn"
PERFORMER "Arida Vortex"
INDEX 00 04:32:63
FILE "02 - Reborn.wav" WAVE
INDEX 01 00:00:00
TRACK 03 AUDIO
TITLE "Faith"
PERFORMER "Arida Vortex"
INDEX 00 04:00:56
FILE "03 - Faith.wav" WAVE
INDEX 01 00:00:00
TRACK 04 AUDIO
TITLE "Perfect Private World"
PERFORMER "Arida Vortex"
INDEX 00 04:14:30
FILE "04 - Perfect Private World.wav" WAVE
INDEX 01 00:00:00
TRACK 05 AUDIO
TITLE "День"
PERFORMER "Arida Vortex"
INDEX 00 04:14:57
FILE "05 - День.wav" WAVE
INDEX 01 00:00:00
TRACK 06 AUDIO
TITLE "Ticket To Hell"
PERFORMER "Arida Vortex"
INDEX 00 02:42:54
FILE "06 - Ticket To Hell.wav" WAVE
INDEX 01 00:00:00
TRACK 07 AUDIO
TITLE "Power To Control"
PERFORMER "Arida Vortex"
INDEX 00 04:01:09
FILE "07 - Power To Control.wav" WAVE
INDEX 01 00:00:00
TRACK 08 AUDIO
TITLE "Jack In The Box"
PERFORMER "Arida Vortex"
INDEX 00 04:09:52
FILE "08 - Jack In The Box.wav" WAVE
INDEX 01 00:00:00
TRACK 09 AUDIO
TITLE "Final Paradise"
PERFORMER "Arida Vortex"
INDEX 00 05:40:47
FILE "09 - Final Paradise.wav" WAVE
INDEX 01 00:00:00
TRACK 10 AUDIO
TITLE "Зеркала"
PERFORMER "Arida Vortex"
INDEX 00 06:46:31
FILE "10 - Зеркала.wav" WAVE
INDEX 01 00:00:00
TRACK 11 AUDIO
TITLE "№1 (Bonus Track)"
PERFORMER "Arida Vortex"
INDEX 00 06:00:36
FILE "11 - №1 (Bonus Track).wav" WAVE
INDEX 01 00:00:00
Издатель (лейбл): Self-Released
Номер по каталогу: GRM-001
01. Time Machine (03:57)
02. Child Of The 80's (05:07)
03. Vega106 (04:27)
04. Shaman (05:08)
05. Senezh (05:30)
06. Ride The Bullet (03:40)
07. Cold Beer Boogie (04:37)
08. The Game Of Light And Shadows (01:21)
Exact Audio Copy V1.0 beta 3 from 29. August 2011

EAC extraction logfile from 31. July 2012, 21:09

Роман Гурьев / Child Of The 80's

Used drive : Optiarc DVD RW AD-7260S Adapter: 2 ID: 1

Read mode : Secure
Utilize accurate stream : Yes
Defeat audio cache : Yes
Make use of C2 pointers : No

Read offset correction : 48
Overread into Lead-In and Lead-Out : No
Fill up missing offset samples with silence : Yes
Delete leading and trailing silent blocks : No
Null samples used in CRC calculations : Yes
Used interface : Native Win32 interface for Win NT & 2000
Gap handling : Appended to previous track

Used output format : User Defined Encoder
Selected bitrate : 1024 kBit/s
Quality : High
Add ID3 tag : No
Command line compressor : C:\Program Files (x86)\Exact Audio Copy\Flac\flac.exe
Additional command line options : -8 -V -T "ARTIST=%artist%" -T "TITLE=%title%" -T "ALBUM=%albumtitle%" -T "DATE=%year%" -T "TRACKNUMBER=%tracknr%" -T "GENRE=%genre%" -T "PERFORMER=%albuminterpret%" -T "COMPOSER=%composer%" %haslyrics%--tag-from-file=LYRICS="%lyricsfile%"%haslyrics% -T "ALBUMARTIST=%albumartist%" -T "DISCNUMBER=%cdnumber%" -T "TOTALDISCS=%totalcds%" -T "TOTALTRACKS=%numtracks%" -T "COMMENT=%comment%" %source% -o %dest%

TOC of the extracted CD

Track | Start | Length | Start sector | End sector
---------------------------------------------------------
1 | 0:00.00 | 3:57.02 | 0 | 17776
2 | 3:57.02 | 5:07.00 | 17777 | 40801
3 | 9:04.02 | 4:26.56 | 40802 | 60807
4 | 13:30.58 | 5:07.74 | 60808 | 83906
5 | 18:38.57 | 5:30.29 | 83907 | 108685
6 | 24:09.11 | 3:39.54 | 108686 | 125164
7 | 27:48.65 | 4:36.64 | 125165 | 145928
8 | 32:25.54 | 1:21.16 | 145929 | 152019

Track 1

Filename C:\Users\Zelgadiss Graywords\Music\Роман Гурьев\2012 - Child Of The 80's\01 - Time Machine.wav

Pre-gap length 0:00:02.00

Peak level 98.9 %
Extraction speed 2.1 X
Track quality 99.9 %
Test CRC 21A6929B
Copy CRC 21A6929B
Track not present in AccurateRip database
Copy OK

Track 2

Filename C:\Users\Zelgadiss Graywords\Music\Роман Гурьев\2012 - Child Of The 80's\02 - Child Of The 80's.wav

Pre-gap length 0:00:01.69

Peak level 97.3 %
Extraction speed 2.7 X
Track quality 100.0 %
Test CRC B856FDD9
Copy CRC B856FDD9
Track not present in AccurateRip database
Copy OK

Track 3

Filename C:\Users\Zelgadiss Graywords\Music\Роман Гурьев\2012 - Child Of The 80's\03 - Vega106.wav

Pre-gap length 0:00:01.74

Peak level 96.5 %
Extraction speed 3.0 X
Track quality 100.0 %
Test CRC 15F3D945
Copy CRC 15F3D945
Track not present in AccurateRip database
Copy OK

Track 4

Filename C:\Users\Zelgadiss Graywords\Music\Роман Гурьев\2012 - Child Of The 80's\04 - Shaman.wav

Pre-gap length 0:00:01.72

Peak level 95.7 %
Extraction speed 3.3 X
Track quality 100.0 %
Test CRC 99552602
Copy CRC 99552602
Track not present in AccurateRip database
Copy OK

Track 5

Filename C:\Users\Zelgadiss Graywords\Music\Роман Гурьев\2012 - Child Of The 80's\05 - Senezh.wav

Pre-gap length 0:00:01.71

Peak level 99.4 %
Extraction speed 3.6 X
Track quality 100.0 %
Test CRC D4D232E6
Copy CRC D4D232E6
Track not present in AccurateRip database
Copy OK

Track 6

Filename C:\Users\Zelgadiss Graywords\Music\Роман Гурьев\2012 - Child Of The 80's\06 - Ride The Bullet.wav

Pre-gap length 0:00:01.67

Peak level 95.7 %
Extraction speed 3.5 X
Track quality 100.0 %
Test CRC A6769B44
Copy CRC A6769B44
Track not present in AccurateRip database
Copy OK

Track 7

Filename C:\Users\Zelgadiss Graywords\Music\Роман Гурьев\2012 - Child Of The 80's\07 - Cold Beer Boogie.wav

Pre-gap length 0:00:01.63

Peak level 95.3 %
Extraction speed 3.5 X
Track quality 99.9 %
Test CRC 635D5330
Copy CRC 635D5330
Track not present in AccurateRip database
Copy OK

Track 8

Filename C:\Users\Zelgadiss Graywords\Music\Роман Гурьев\2012 - Child Of The 80's\08 - The Game Of Light And Shadows.wav

Pre-gap length 0:00:01.59

Peak level 92.1 %
Extraction speed 3.1 X
Track quality 100.0 %
Test CRC 3211B6B7
Copy CRC 3211B6B7
Track not present in AccurateRip database
Copy OK

None of the tracks are present in the AccurateRip database

No errors occurred

End of status report

---- CUETools DB Plugin V2.1.3

[CTDB TOCID: 4LrbShkslT6HebzfAaiRaRdY05o-] disk not present in database, Submit result: 4LrbShkslT6HebzfAaiRaRdY05o- has been uploaded

==== Log checksum E16781273A80FF1E24649A0719F80850DB4A5F3744D90FC9EF1FB0061C7FC946 ====
REM GENRE "Instrumental Metal"
REM DATE 2012
REM DISCID 5C07EA08
REM COMMENT "ExactAudioCopy v1.0b3"
PERFORMER "Роман Гурьев"
TITLE "Child Of The 80's"
FILE "01 - Time Machine.wav" WAVE
TRACK 01 AUDIO
TITLE "Time Machine"
PERFORMER "Роман Гурьев"
INDEX 01 00:00:00
TRACK 02 AUDIO
TITLE "Child Of The 80's"
PERFORMER "Роман Гурьев"
INDEX 00 03:55:08
FILE "02 - Child Of The 80's.wav" WAVE
INDEX 01 00:00:00
TRACK 03 AUDIO
TITLE "Vega106"
PERFORMER "Роман Гурьев"
INDEX 00 05:05:01
FILE "03 - Vega106.wav" WAVE
INDEX 01 00:00:00
TRACK 04 AUDIO
TITLE "Shaman"
PERFORMER "Роман Гурьев"
INDEX 00 04:24:59
FILE "04 - Shaman.wav" WAVE
INDEX 01 00:00:00
TRACK 05 AUDIO
TITLE "Senezh"
PERFORMER "Роман Гурьев"
INDEX 00 05:06:03
FILE "05 - Senezh.wav" WAVE
INDEX 01 00:00:00
TRACK 06 AUDIO
TITLE "Ride The Bullet"
PERFORMER "Роман Гурьев"
INDEX 00 05:28:37
FILE "06 - Ride The Bullet.wav" WAVE
INDEX 01 00:00:00
TRACK 07 AUDIO
TITLE "Cold Beer Boogie"
PERFORMER "Роман Гурьев"
INDEX 00 03:37:66
FILE "07 - Cold Beer Boogie.wav" WAVE
INDEX 01 00:00:00
TRACK 08 AUDIO
TITLE "The Game Of Light And Shadows"
PERFORMER "Роман Гурьев"
INDEX 00 04:35:05
FILE "08 - The Game Of Light And Shadows.wav" WAVE
INDEX 01 00:00:00
Издатель (лейбл): Metalism Records
Номер по каталогу: -
01. Black Market Factory (02:15)
02. Аве, Рок! (04:55)
03. Мой Выбор (03:58)
04. Лунный Свет (04:44)
05. Мясо И Кости (05:02)
06. Бездна (04:54)
07. Шевардино (03:54)
08. Insomnia (05:16)
09. Пей До Дна (04:21)
10. Прикосновение Крыльев (05:32)
11. Hail To Rock (04:55)
12. Dream Of Twilight Angel (03:13)
 
fooCDtect - foobar2000 + auCDtect, baralgin.

auCDtect: CD records authenticity detector, version 0.8.2
Copyright (c) 2004 Oleg Berngardt. All rights reserved.
Copyright (c) 2004 Alexander Djourik. All rights reserved.

mode: 0

===========================================
Track: 01 - Arida Vortex - Black Market Factory
Quality: CDDA 43%
===========================================
Track: 02 - Arida Vortex - Аве, Рок!
Quality: MPEG 79%
===========================================
Track: 03 - Arida Vortex - Мой Выбор
Quality: MPEG 100%
===========================================
Track: 04 - Arida Vortex - Лунный Свет
Quality: MPEG 100%
===========================================
Track: 05 - Arida Vortex - Мясо И Кости
Quality: MPEG 98%
===========================================
Track: 06 - Arida Vortex - Бездна
Quality: MPEG 99%
===========================================
Track: 07 - Arida Vortex - Шевардино
Quality: MPEG 100%
===========================================
Track: 08 - Arida Vortex - Insomnia
Quality: MPEG 100%
===========================================
Track: 09 - Arida Vortex - Пей До Дна
Quality: MPEG 100%
===========================================
Track: 10 - Arida Vortex - Прикосновение Крыльев
Quality: MPEG 100%
===========================================
Track: 11 - Arida Vortex - Hail To Rock
Quality: MPEG 79%
===========================================
Track: 12 - Arida Vortex - Dream Of Twilight Angel
Quality: CDDA 100%
===========================================
Издатель (лейбл): Metalism Records
Номер по каталогу: MR 099-13
01. Black Market Factory (Intro) (02:17)
02. Аве, Рок! (04:57)
03. Мой Выбор (04:00)
04. Лунный Свет (04:46)
05. Мясо И Кости (05:04)
06. Бездна (04:56)
07. Шевардино (03:56)
08. Insomnia (Instrumental) (05:18)
09. Пей До Дна (04:23)
10. Прикосновение Крыльев (Bonus Track) (05:34)
11. Hail To Rock (Bonus Track) (05:03)
12. Dream Of Twilight Angel (Bonus Track) (03:13)
 
Exact Audio Copy V1.0 beta 3 from 29. August 2011

EAC extraction logfile from 22. October 2013, 11:24

Arida Vortex / Аве, Рок!

Used drive : Optiarc DVD RW AD-7260S Adapter: 2 ID: 1

Read mode : Secure
Utilize accurate stream : Yes
Defeat audio cache : Yes
Make use of C2 pointers : No

Read offset correction : 48
Overread into Lead-In and Lead-Out : No
Fill up missing offset samples with silence : Yes
Delete leading and trailing silent blocks : No
Null samples used in CRC calculations : Yes
Used interface : Native Win32 interface for Win NT & 2000
Gap handling : Appended to previous track

Used output format : User Defined Encoder
Selected bitrate : 1024 kBit/s
Quality : High
Add ID3 tag : No
Command line compressor : C:\Program Files (x86)\Exact Audio Copy\Flac\flac.exe
Additional command line options : -8 -V -T "ARTIST=%artist%" -T "TITLE=%title%" -T "ALBUM=%albumtitle%" -T "DATE=%year%" -T "TRACKNUMBER=%tracknr%" -T "GENRE=%genre%" -T "PERFORMER=%albuminterpret%" -T "COMPOSER=%composer%" %haslyrics%--tag-from-file=LYRICS="%lyricsfile%"%haslyrics% -T "ALBUMARTIST=%albumartist%" -T "DISCNUMBER=%cdnumber%" -T "TOTALDISCS=%totalcds%" -T "TOTALTRACKS=%numtracks%" -T "COMMENT=%comment%" %source% -o %dest%

TOC of the extracted CD

Track | Start | Length | Start sector | End sector
---------------------------------------------------------
1 | 0:00.00 | 2:17.06 | 0 | 10280
2 | 2:17.06 | 4:57.27 | 10281 | 32582
3 | 7:14.33 | 4:00.21 | 32583 | 50603
4 | 11:14.54 | 4:45.51 | 50604 | 72029
5 | 16:00.30 | 5:04.18 | 72030 | 94847
6 | 21:04.48 | 4:56.24 | 94848 | 117071
7 | 26:00.72 | 3:56.32 | 117072 | 134803
8 | 29:57.29 | 5:17.61 | 134804 | 158639
9 | 35:15.15 | 4:22.41 | 158640 | 178330
10 | 39:37.56 | 5:34.08 | 178331 | 203388
11 | 45:11.64 | 5:03.19 | 203389 | 226132
12 | 50:15.08 | 3:12.43 | 226133 | 240575

Track 1

Filename C:\Users\Zelgadiss Graywords\Music\Arida Vortex\2013 - Аве, Рок!\01 - Black Market Factory (Intro).wav

Pre-gap length 0:00:02.00

Peak level 100.0 %
Extraction speed 1.8 X
Track quality 99.9 %
Test CRC B2BC05A5
Copy CRC B2BC05A5
Track not present in AccurateRip database
Copy OK

Track 2

Filename C:\Users\Zelgadiss Graywords\Music\Arida Vortex\2013 - Аве, Рок!\02 - Аве, Рок!.wav

Peak level 100.0 %
Extraction speed 2.7 X
Track quality 100.0 %
Test CRC 9A06D9CF
Copy CRC 9A06D9CF
Track not present in AccurateRip database
Copy OK

Track 3

Filename C:\Users\Zelgadiss Graywords\Music\Arida Vortex\2013 - Аве, Рок!\03 - Мой Выбор.wav

Peak level 100.0 %
Extraction speed 2.8 X
Track quality 100.0 %
Test CRC CCA94F85
Copy CRC CCA94F85
Track not present in AccurateRip database
Copy OK

Track 4

Filename C:\Users\Zelgadiss Graywords\Music\Arida Vortex\2013 - Аве, Рок!\04 - Лунный Свет.wav

Peak level 100.0 %
Extraction speed 3.2 X
Track quality 100.0 %
Test CRC F337F307
Copy CRC F337F307
Track not present in AccurateRip database
Copy OK

Track 5

Filename C:\Users\Zelgadiss Graywords\Music\Arida Vortex\2013 - Аве, Рок!\05 - Мясо И Кости.wav

Peak level 100.0 %
Extraction speed 3.5 X
Track quality 100.0 %
Test CRC 9FF87835
Copy CRC 9FF87835
Track not present in AccurateRip database
Copy OK

Track 6

Filename C:\Users\Zelgadiss Graywords\Music\Arida Vortex\2013 - Аве, Рок!\06 - Бездна.wav

Peak level 100.0 %
Extraction speed 3.7 X
Track quality 100.0 %
Test CRC 7FF90E41
Copy CRC 7FF90E41
Track not present in AccurateRip database
Copy OK

Track 7

Filename C:\Users\Zelgadiss Graywords\Music\Arida Vortex\2013 - Аве, Рок!\07 - Шевардино.wav

Peak level 100.0 %
Extraction speed 3.7 X
Track quality 100.0 %
Test CRC A0AC4FEF
Copy CRC A0AC4FEF
Track not present in AccurateRip database
Copy OK

Track 8

Filename C:\Users\Zelgadiss Graywords\Music\Arida Vortex\2013 - Аве, Рок!\08 - Insomnia (Instrumental).wav

Peak level 100.0 %
Extraction speed 4.1 X
Track quality 100.0 %
Test CRC E4935D3A
Copy CRC E4935D3A
Track not present in AccurateRip database
Copy OK

Track 9

Filename C:\Users\Zelgadiss Graywords\Music\Arida Vortex\2013 - Аве, Рок!\09 - Пей До Дна.wav

Peak level 100.0 %
Extraction speed 4.1 X
Track quality 100.0 %
Test CRC B327102E
Copy CRC B327102E
Track not present in AccurateRip database
Copy OK

Track 10

Filename C:\Users\Zelgadiss Graywords\Music\Arida Vortex\2013 - Аве, Рок!\10 - Прикосновение Крыльев (Bonus Track).wav

Peak level 100.0 %
Extraction speed 4.5 X
Track quality 100.0 %
Test CRC FB41C3FF
Copy CRC FB41C3FF
Track not present in AccurateRip database
Copy OK

Track 11

Filename C:\Users\Zelgadiss Graywords\Music\Arida Vortex\2013 - Аве, Рок!\11 - Hail To Rock (Bonus Track).wav

Peak level 100.0 %
Extraction speed 4.6 X
Track quality 100.0 %
Test CRC 9B19CDF3
Copy CRC 9B19CDF3
Track not present in AccurateRip database
Copy OK

Track 12

Filename C:\Users\Zelgadiss Graywords\Music\Arida Vortex\2013 - Аве, Рок!\12 - Dream Of Twilight Angel (Bonus Track).wav

Peak level 100.0 %
Extraction speed 3.9 X
Track quality 99.9 %
Test CRC 48C4DF71
Copy CRC 48C4DF71
Track not present in AccurateRip database
Copy OK

None of the tracks are present in the AccurateRip database

No errors occurred

End of status report

---- CUETools DB Plugin V2.1.3

[CTDB TOCID: qhA.tJxw3QElj8RF5qVV._jq16M-] disk not present in database, Submit result: qhA.tJxw3QElj8RF5qVV._jq16M- has been uploaded

==== Log checksum 7F0FA1941DDECEFC7614920B8D87442041C2A25C9E0BC4C9893890FD364717A9 ====
 
REM GENRE "Power Metal"
REM DATE 2013
REM DISCID AF0C870C
REM COMMENT "ExactAudioCopy v1.0b3"
PERFORMER "Arida Vortex"
TITLE "Аве, Рок!"
FILE "01 - Black Market Factory (Intro).wav" WAVE
TRACK 01 AUDIO
TITLE "Black Market Factory (Intro)"
PERFORMER "Arida Vortex"
INDEX 01 00:00:00
FILE "02 - Аве, Рок!.wav" WAVE
TRACK 02 AUDIO
TITLE "Аве, Рок!"
PERFORMER "Arida Vortex"
INDEX 01 00:00:00
FILE "03 - Мой Выбор.wav" WAVE
TRACK 03 AUDIO
TITLE "Мой Выбор"
PERFORMER "Arida Vortex"
INDEX 01 00:00:00
FILE "04 - Лунный Свет.wav" WAVE
TRACK 04 AUDIO
TITLE "Лунный Свет"
PERFORMER "Arida Vortex"
INDEX 01 00:00:00
FILE "05 - Мясо И Кости.wav" WAVE
TRACK 05 AUDIO
TITLE "Мясо И Кости"
PERFORMER "Arida Vortex"
INDEX 01 00:00:00
FILE "06 - Бездна.wav" WAVE
TRACK 06 AUDIO
TITLE "Бездна"
PERFORMER "Arida Vortex"
INDEX 01 00:00:00
FILE "07 - Шевардино.wav" WAVE
TRACK 07 AUDIO
TITLE "Шевардино"
PERFORMER "Arida Vortex"
INDEX 01 00:00:00
FILE "08 - Insomnia (Instrumental).wav" WAVE
TRACK 08 AUDIO
TITLE "Insomnia (Instrumental)"
PERFORMER "Arida Vortex"
INDEX 01 00:00:00
FILE "09 - Пей До Дна.wav" WAVE
TRACK 09 AUDIO
TITLE "Пей До Дна"
PERFORMER "Arida Vortex"
INDEX 01 00:00:00
FILE "10 - Прикосновение Крыльев (Bonus Track).wav" WAVE
TRACK 10 AUDIO
TITLE "Прикосновение Крыльев (Bonus Track)"
PERFORMER "Arida Vortex"
INDEX 01 00:00:00
FILE "11 - Hail To Rock (Bonus Track).wav" WAVE
TRACK 11 AUDIO
TITLE "Hail To Rock (Bonus Track)"
PERFORMER "Arida Vortex"
INDEX 01 00:00:00
FILE "12 - Dream Of Twilight Angel (Bonus Track).wav" WAVE
TRACK 12 AUDIO
TITLE "Dream Of Twilight Angel (Bonus Track)"
PERFORMER "Arida Vortex"
INDEX 01 00:00:00
info [Профиль]  [ЛС] 
Показать сообщения:    
Ответить на тему

Текущее время: 21-Янв 04:05

Часовой пояс: GMT + 4



Вы не можете начинать темы
Вы не можете отвечать на сообщения
Вы не можете редактировать свои сообщения
Вы не можете удалять свои сообщения
Вы не можете голосовать в опросах
Вы не можете прикреплять файлы к сообщениям
Вы не можете скачивать файлы