Ошибка

Muse - Live At Rome Olympic Stadium [2013 г., Alternative Rock, Blu-ray Rip]

Ответить на тему
 
Автор Сообщение

Бонза

Пол: Пол:Муж

Стаж: 6 лет 9 месяцев

Сообщений: 78

Россия
Рейтинг

post 07-Дек-2013 12:54 0[+]

[Цитировать] 

Muse - Live At Rome Olympic Stadium

Год выпуска: 2013
Жанр: Alternative Rock
Происхождение исполнителя: England
Продолжительность: 01:35:46

Треклист:
01. Intro
02. Supremacy
03. Panic Station
04. Plug In Baby
05. Resistance
06. Animals
07. Knights of Cydonia
08. Explorers
09. Hysteria
10. Feeling Good
11. Follow Me
12. Madness
13. Time is Running Out
14. Guiding Light
15. Undisclosed Desires
16. Supermassive Black Hole
17. Survival
18. The 2nd Law: Isolated System
19. Uprising
20. Starlight

Происхождение видео: Blu-ray Rip
Формат: MKV
Видео кодек: Другой MPEG4
Данные видео: 1920x1080 / 16:9 / 0.133 / MPEG-4 AVC / 29.970 fps / ~8.296 Kbps
Аудио кодек: DTS
Данные аудио: DTS 5.1 / 96 kHz / 1509 kbps / 24 bits
General
Unique ID : 201011307560391918570526569483292353920 (0x97395EA0AB0207BB94B650CBE69BA580)
Complete name : Muse - Live At Rome Olympic Stadium.mkv
Format : Matroska
Format version : Version 4 / Version 2
File size : 6.56 GiB
Duration : 1h 35mn
Overall bit rate : 9 809 Kbps
Encoded date : UTC 2013-11-30 12:43:45
Writing application : mkvmerge v6.2.0 ('Promised Land') built on Apr 28 2013 12:22:01
Writing library : libebml v1.3.0 + libmatroska v1.4.0
Video
ID : 1
Format : AVC
Format/Info : Advanced Video Codec
Format profile : High@L4.1
Format settings, CABAC : Yes
Format settings, ReFrames : 4 frames
Codec ID : V_MPEG4/ISO/AVC
Duration : 1h 35mn
Bit rate : 8 296 Kbps
Width : 1 920 pixels
Height : 1 080 pixels
Display aspect ratio : 16:9
Frame rate mode : Constant
Frame rate : 29.970 fps
Color space : YUV
Chroma subsampling : 4:2:0
Bit depth : 8 bits
Scan type : Progressive
Bits/(Pixel*Frame) : 0.133
Stream size : 5.42 GiB (83%)
Title : English
Writing library : x264 core 140 r2377 1ca7bb9
Encoding settings : cabac=1 / ref=4 / deblock=1:0:0 / analyse=0x3:0x113 / me=umh / subme=8 / psy=1 / psy_rd=1.00:0.00 / mixed_ref=1 / me_range=16 / chroma_me=1 / trellis=1 / 8x8dct=1 / cqm=0 / deadzone=21,11 / fast_pskip=1 / chroma_qp_offset=-2 / threads=6 / lookahead_threads=1 / sliced_threads=0 / nr=0 / decimate=1 / interlaced=0 / bluray_compat=0 / constrained_intra=0 / bframes=3 / b_pyramid=2 / b_adapt=2 / b_bias=0 / direct=3 / weightb=1 / open_gop=0 / weightp=2 / keyint=240 / keyint_min=24 / scenecut=40 / intra_refresh=0 / rc_lookahead=50 / rc=2pass / mbtree=1 / bitrate=8296 / ratetol=1.0 / qcomp=0.60 / qpmin=0 / qpmax=69 / qpstep=4 / cplxblur=20.0 / qblur=0.5 / ip_ratio=1.40 / aq=1:1.00
Language : English
Default : Yes
Forced : No
Audio
ID : 2
Format : DTS
Format/Info : Digital Theater Systems
Format profile : 96/24 / Core
Mode : 16
Format settings, Endianness : Big
Codec ID : A_DTS
Duration : 1h 35mn
Bit rate mode : Constant
Bit rate : 1 509 Kbps
Channel(s) : 6 channels
Channel positions : Front: L C R, Side: L R, LFE
Sampling rate : 96.0 KHz / 48.0 KHz
Bit depth : 24 bits
Compression mode : Lossy
Stream size : 1.01 GiB (15%)
Title : English
Default : Yes
Forced : No
Menu
00:00:00.000 : en:00:00:00.000
00:01:11.204 : en:00:01:11.204
00:06:32.792 : en:00:06:32.792
00:09:50.156 : en:00:09:50.156
00:14:17.957 : en:00:14:17.957
00:19:53.759 : en:00:19:53.759
00:24:27.633 : en:00:24:27.633
00:33:26.238 : en:00:33:26.238
00:39:20.758 : en:00:39:20.758
00:44:41.913 : en:00:44:41.913
00:48:26.103 : en:00:48:26.103
00:52:29.013 : en:00:52:29.013
00:57:17.534 : en:00:57:17.534
01:01:58.281 : en:01:01:58.281
01:06:24.280 : en:01:06:24.280
01:10:34.497 : en:01:10:34.497
01:14:49.785 : en:01:14:49.785
01:19:39.642 : en:01:19:39.642
01:22:06.522 : en:01:22:06.522
01:27:50.031 : en:01:27:50.031
01:33:01.042 : en:01:33:01.042
Доп. информация: http://www.amazon.com/Live-Rome-Olympic-Stadium-Blu-Ray/dp/B00G6MW68K
info [Профиль]  [ЛС] 

lost1994

Пол: Пол:Муж

Стаж: 6 лет 8 месяцев

Сообщений: 238

Россия
Рейтинг

post 07-Дек-2013 19:18 (спустя 6 часов) [-]0[+]

[Цитировать] 

спасибо огромное
info [Профиль]  [ЛС] 

Time2kill

Стаж: 3 года 10 месяцев

Сообщений: 15

Рейтинг

post 07-Дек-2013 20:44 (спустя 1 час 25 минут) [-]0[+]

[Цитировать] 

lost1994
Не за что, всегда готов помочь.
info [Профиль]  [ЛС] 

AND.ria.NO

Пол: Пол:Муж

Стаж: 7 лет 3 месяца

Сообщений: 13

Рейтинг

post 13-Янв-2014 01:26 (спустя 1 месяц 5 дней) [-]0[+]

[Цитировать] 

Скорости совсем нет, а жаль
info [Профиль]  [ЛС] 
Показать сообщения:    
Ответить на тему

Текущее время: 05-Дек 06:33

Часовой пояс: GMT + 4



Вы не можете начинать темы
Вы не можете отвечать на сообщения
Вы не можете редактировать свои сообщения
Вы не можете удалять свои сообщения
Вы не можете голосовать в опросах
Вы не можете прикреплять файлы к сообщениям
Вы не можете скачивать файлы