Ошибка

(Visual-kei, Heavy metal) X Japan - Дискография, 1988-2001, FLAC, WV (tracks+.cue | image+.cue), lossless

Ответить на тему
 
Автор Сообщение

Phen1x

Пол: Пол:Муж

Стаж: 6 лет 2 месяца

Сообщений: 531

Украина
Рейтинг

post 17-Май-2013 15:34 0[+]

[Цитировать] 

X Japan - Дискография

pic="http://i48.fastpic.ru/big/2013/0517/2a/ecace5a6c1f54456b6d4595a697f212a.jpg"


X Japan — японская метал-группа, сформирована в городе Татэяма префектуры Тиба в 1982 г. Это самая масштабная группа в истории японской рок-музыки, положившая начало широкому распространению стиля Visual Kei. Их музыка характеризуется агрессивными быстрыми песнями и красивейшими фортепианными балладами. Вклад X Japan в японскую рок-культуру поистине огромен.
Тоси (Toshi) (яп. 出山利三 ) — вокал
Сугидзо (Sugizo) (яп. 杉原康弘) — гитара(c 2009(не официально с 2007))
Пата (Pata) (яп. 石塚智昭) — гитара (c 1987)
Хис (Heath) (яп. 森江博 ) — бас (c 1992)
Ёсики (Yoshiki) (яп. 林佳樹 ) — ударные, клавишные

Бывшие участники
Тайдзи Савада (яп. 沢田泰司) — бас-гитара (1986 — 1992(2011†))
Хидэ (hide) (яп. 松本秀人) — соло-гитара (1987—1997(1998†))
X Japan начинает свою историю в 1978 году, когда два тринадцатилетних школьника Ёсики Хаяси и Тосимицу Дэяма основали группу под названием «Dynamite». В 1980 году название было изменено на Noise, затем, в 1982 году, снова изменено на X. В 1986 X с частыми сменами состава начинают активно выступать в Токио. Их первый сингл «I'll Kill You» был издан на Dada Records в июне.

Для обеспечения непрерывного выхода музыки Ёсики основал независимый лейбл «Extasy Records». На нем в следующем году были выпущены второй сингл группы «Orgasm». В 1987 году, после постоянных изменений в составе, в группу приходят гитаристы Хидэ и Пата, а также басист Тайдзи.

16 декабря 1987 года группа приняла участие в прослушивании на CBS/Sony. Ёсики был недоволен многими условиями соглашения, но в результате был достигнут консенсус и компания подписала контракт с группой. 14 апреля 1988 года группа выпускает дебютный альбом «Vanishing Vision» и активно гастролирует в его поддержку.

Второй альбом X под названием «Blue Blood» был выпущен 21 апреля 1989 года и породил несколько синглов – «Kurenai» и «Endless Rain». X сразу же стали известными в Японии и получили приз канала TBS как "лучший новый исполнитель". Также группа выпустила свое первое видео – кассету с записью концента под названием «Blue Blood Tour Bakuhatsu Sunzen Gig». Запись следующего альбома «Jealousy» проводилась в Лос-Анджелесе. Он был выпущен 1 июля 1991 года и сопровождался выступлением группы на стадионе Tokyo Dome.

В 1992 году название группы было изменено на X Japan, в связи с тем что в Америке уже существовала панк-рок-группа под названием X. В это же время X покидает Тайдзи.

До 1996 года наступило относительно затишье, пока 4 ноября не был выпущен альбом Dahlia. Это был последний крупный релиз группы. Он содержал сравнительно мало нового материала, большинство песен уже были выпущены в качестве синглов через несколько месяцев после выхода «Art of Life». В это же время группа отходит от привычного Visual Kei имиджа в пользу более спокойного внешнего вида.

В 1997 году начался распад группы. У ее членов появились собственные проекты, и им уже стало сложно уживаться вместе. В апреле 1997 года группу покинул Тоси, а 22 сентября было официально объявлено о роспуске группы. Свой последний концерт они дали 31 декабря 1997 года в «Tokyo Dome».

В 1998 году Хидэ, начавший успешную карьеру в составе группы «Hide with Spread Beaver», был найден повешенным в своей квартире, при этом никакой предсмертной записки найдено не было. На его похоронах присутствовало около 50000 человек, а несколько девушек-фанаток, несмотря на призывы друзей Хидэ этого не делать, покончили с собой. Ёсики продолжает успешную музыкальную карьеру, сочетая сольные выступления с продюсированием начинающих исполнителей. Именно Ёсики «открыл» такие группы, как «Glay», «Dir en grey».
Информация взята с Wiki



Album:
Треклист:
01. DEAR LOSER (2:28)
02. VANISHING LOVE (6:01)
03. PHANTOM OF GUILT (5:18)
04. SADISTIC DESIRE (6:10)
05. GIVE ME THE PLEASURE (2:58)
06. I'LL KILL YOU (3:30)
07. ALIVE (8:24)
08. KURENAI (5:47)
09. UN-FINISHED... (1:32)
  
-----------------------

DON'T MODIFY THIS FILE

-----------------------

PERFORMER: auCDtect Task Manager, ver. 1.5.1RC6 build 1.5.1.7
Copyright (c) 2008-2010 y-soft. All rights reserved
http://y-soft.org

ANALYZER: auCDtect: CD records authenticity detector, version 0.8.2
Copyright (c) 2004 Oleg Berngardt. All rights reserved.
Copyright (c) 2004 Alexander Djourik. All rights reserved.

FILE: CDImage.wv
Size: 407863472 Hash: 1BBA0F10F7F14809F0AB12D0CC171827 Accuracy: -m0
Conclusion: CDDA 100%
Signature: 70B0D0EF25123C5998CACF964340D6DF34751638

  
REM GENRE Heavy Metal
REM DATE 1988
REM DISCID 7E09DF09
REM COMMENT ExactAudioCopy v0.99pb1
PERFORMER "X JAPAN"
TITLE "VANISHING VISION"
FILE "Vanishing Vision.ape" WAVE
TRACK 01 AUDIO
TITLE "DEAR LOSER"
INDEX 01 00:00:00
TRACK 02 AUDIO
TITLE "VANISHING LOVE"
INDEX 01 02:27:70
TRACK 03 AUDIO
TITLE "PHANTOM OF GUILT"
INDEX 01 08:29:07
TRACK 04 AUDIO
TITLE "SADISTIC DESIRE"
INDEX 01 13:47:10
TRACK 05 AUDIO
TITLE "GIVE ME THE PLEASURE"
INDEX 00 19:54:63
INDEX 01 19:57:00
TRACK 06 AUDIO
TITLE "I'LL KILL YOU"
INDEX 01 22:54:50
TRACK 07 AUDIO
TITLE "ALIVE"
INDEX 00 26:22:05
INDEX 01 26:24:25
TRACK 08 AUDIO
TITLE "KURENAI"
INDEX 01 34:48:62
TRACK 09 AUDIO
TITLE "UN-FINISHED..."
INDEX 00 40:33:13
INDEX 01 40:35:25

Треклист:
01. Prologue (World Anthem) (2:35)
02. BLUE BLOOD (5:03)
03. Week End (6:03)
04. Easy Fight Rambling (4:43)
05. X (6:01)
06. Endless Rain (6:36)
07. Kurenai (6:19)
08. Xclamation (3:58)
09. Orgasm (2:47)
10. Celebration (4:52)
11. Rose of Pain (11:50)
12. Unfinished (4:29)
  
-----------------------

DON'T MODIFY THIS FILE

-----------------------

PERFORMER: auCDtect Task Manager, ver. 1.5.1RC6 build 1.5.1.7
Copyright (c) 2008-2010 y-soft. All rights reserved
http://y-soft.org

ANALYZER: auCDtect: CD records authenticity detector, version 0.8.2
Copyright (c) 2004 Oleg Berngardt. All rights reserved.
Copyright (c) 2004 Alexander Djourik. All rights reserved.

FILE: X JAPAN - BLUE BLOOD.wv
Size: 439047162 Hash: 7D83CC8BDEBC5FD9C51146812D557618 Accuracy: -m0
Conclusion: CDDA 100%
Signature: 5668B2EBF8B25F71F80E1E3AA5947FD2A156BF32

  
REM GENRE Symphonic Rock
REM DATE 1989
REM DISCID 9B0F4C0C
REM COMMENT ExactAudioCopy v0.95b4
PERFORMER "X JAPAN"
TITLE "BLUE BLOOD"
FILE "X JAPAN - BLUE BLOOD.wv" WAVE
TRACK 01 AUDIO
TITLE "Prologue (World Anthem)"
INDEX 01 00:00:00
TRACK 02 AUDIO
TITLE "BLUE BLOOD"
INDEX 01 02:35:12
TRACK 03 AUDIO
TITLE "Week End"
INDEX 01 07:38:00
TRACK 04 AUDIO
TITLE "Easy Fight Rambling"
INDEX 01 13:41:37
TRACK 05 AUDIO
TITLE "X"
INDEX 01 18:24:10
TRACK 06 AUDIO
TITLE "Endless Rain"
INDEX 01 24:25:40
TRACK 07 AUDIO
TITLE "Kurenai"
INDEX 00 31:00:37
INDEX 01 31:01:62
TRACK 08 AUDIO
TITLE "Xclamation"
INDEX 00 37:20:12
INDEX 01 37:21:15
TRACK 09 AUDIO
TITLE "Orgasm"
INDEX 01 41:18:57
TRACK 10 AUDIO
TITLE "Celebration"
INDEX 01 44:05:62
TRACK 11 AUDIO
TITLE "Rose of Pain"
INDEX 00 48:55:50
INDEX 01 48:58:00
TRACK 12 AUDIO
TITLE "Unfinished"
INDEX 00 60:47:25
INDEX 01 60:48:25

Треклист:
01. Es Dur no piano sen (1:54)
02. Silent jealousy (7:19)
03. Miscast (5:13)
04. Desperate angel (5:54)
05. White wind from Mr.Martin~Pata's nap~ (1:03)
06. Voiceless screaming (6:16)
07. Stab me in the back (3:53)
08. Love replica (4:35)
09. Joker (5:33)
10. Say anything (8:42)
  
-----------------------

DON'T MODIFY THIS FILE

-----------------------

PERFORMER: auCDtect Task Manager, ver. 1.5.1RC6 build 1.5.1.7
Copyright (c) 2008-2010 y-soft. All rights reserved
http://y-soft.org

ANALYZER: auCDtect: CD records authenticity detector, version 0.8.2
Copyright (c) 2004 Oleg Berngardt. All rights reserved.
Copyright (c) 2004 Alexander Djourik. All rights reserved.

FILE: X JAPAN - Jealousy.wv
Size: 329232720 Hash: 4BCDE71A22670B02C40761DA2F53BB94 Accuracy: -m0
Conclusion: CDDA 100%
Signature: 02682FC7A342D163042B668B503EB4B79292280E

  
REM GENRE Metal
REM DATE 1991
REM DISCID 7C0BCD0A
REM COMMENT ExactAudioCopy v0.95b4
PERFORMER "X JAPAN"
TITLE "Jealousy"
FILE "X JAPAN - Jealousy.wv" WAVE
TRACK 01 AUDIO
TITLE "Es Dur no piano sen"
INDEX 01 00:00:00
TRACK 02 AUDIO
TITLE "Silent jealousy"
INDEX 01 01:53:42
TRACK 03 AUDIO
TITLE "Miscast"
INDEX 01 09:12:30
TRACK 04 AUDIO
TITLE "Desperate angel"
INDEX 01 14:25:47
TRACK 05 AUDIO
TITLE "White wind from Mr.Martin~Pata's nap~"
INDEX 01 20:19:45
TRACK 06 AUDIO
TITLE "Voiceless screaming"
INDEX 01 21:22:32
TRACK 07 AUDIO
TITLE "Stab me in the back"
INDEX 01 27:38:45
TRACK 08 AUDIO
TITLE "Love replica"
INDEX 01 31:31:20
TRACK 09 AUDIO
TITLE "Joker"
INDEX 01 36:06:32
TRACK 10 AUDIO
TITLE "Say anything"
INDEX 00 41:37:32
INDEX 01 41:39:32

Треклист:
01. Art of Life (29:00)
  
-----------------------

DON'T MODIFY THIS FILE

-----------------------

PERFORMER: auCDtect Task Manager, ver. 1.5.1RC6 build 1.5.1.7
Copyright (c) 2008-2010 y-soft. All rights reserved
http://y-soft.org

ANALYZER: auCDtect: CD records authenticity detector, version 0.8.2
Copyright (c) 2004 Oleg Berngardt. All rights reserved.
Copyright (c) 2004 Alexander Djourik. All rights reserved.

FILE: X Japan - Art Of Life Live.wv
Size: 218363738 Hash: F2A6D52257FE44FE30DEADC636307D4D Accuracy: -m0
Conclusion: CDDA 100%
Signature: F5CF9E06816DEF218015E06A976DE18F9A39D50E

  
REM GENRE Metal
REM DATE 1998
REM DISCID 02080001
REM COMMENT ExactAudioCopy v0.95b4
CATALOG 4988005214515
PERFORMER "X Japan"
TITLE "Art Of Life Live"
FILE "X Japan - Art Of Life Live.wv" WAVE
TRACK 01 AUDIO
TITLE "Art Of Life"
ISRC JPP009710120
INDEX 01 00:00:00

Треклист:
01. Art Of Life (34:08) - live
  
-----------------------

DON'T MODIFY THIS FILE

-----------------------

PERFORMER: auCDtect Task Manager, ver. 1.5.1RC6 build 1.5.1.7
Copyright (c) 2008-2010 y-soft. All rights reserved
http://y-soft.org

ANALYZER: auCDtect: CD records authenticity detector, version 0.8.2
Copyright (c) 2004 Oleg Berngardt. All rights reserved.
Copyright (c) 2004 Alexander Djourik. All rights reserved.

FILE: X Japan - Art of Life.wv
Size: 171380397 Hash: 26AF44CFE47C5A7B7EFB50276A422BD4 Accuracy: -m0
Conclusion: CDDA 100%
Signature: 35B2A6C562FE732F247000F5029F179C41291732

  
REM GENRE Hard Rock
REM DATE 1993
REM DISCID 0206CC01
REM COMMENT ExactAudioCopy v0.95b4
PERFORMER "X Japan"
TITLE "Art of Life"
FILE "X Japan - Art of Life.wv" WAVE
TRACK 01 AUDIO
TITLE "Art of Life"
ISRC JPAM09301070
INDEX 01 00:00:00

Треклист:
01. DAHLIA (7:58)
02. SCARS (5:07)
03. Longing ~togireta melody~ (7:39)
04. Rusty Nail (5:28)
05. White Poem I (3:19)
06. CRUCIFY MY LOVE (4:36)
07. Tears (10:31)
08. WRIGGLE (1:26)
09. DRAIN (3:29)
10. Forever Love (Acoustic Version) (7:54)
  
-----------------------

DON'T MODIFY THIS FILE

-----------------------

PERFORMER: auCDtect Task Manager, ver. 1.5.1RC6 build 1.5.1.7
Copyright (c) 2008-2010 y-soft. All rights reserved
http://y-soft.org

ANALYZER: auCDtect: CD records authenticity detector, version 0.8.2
Copyright (c) 2004 Oleg Berngardt. All rights reserved.
Copyright (c) 2004 Alexander Djourik. All rights reserved.

FILE: CDImage.wv
Size: 407863472 Hash: 1BBA0F10F7F14809F0AB12D0CC171827 Accuracy: -m0
Conclusion: CDDA 100%
Signature: 70B0D0EF25123C5998CACF964340D6DF34751638

  
REM GENRE Rock
REM DATE 1996
REM DISCID AA0D760A
REM COMMENT ExactAudioCopy v0.95b1
CATALOG 4988001949763
PERFORMER "X JAPAN"
TITLE "DAHLIA"
FILE "CDImage.wv" WAVE
TRACK 01 AUDIO
TITLE "DAHLIA"
ISRC JPAM09600840
INDEX 01 00:00:00
TRACK 02 AUDIO
TITLE "SCARS"
ISRC JPAM09604590
INDEX 00 07:56:73
INDEX 01 07:57:60
TRACK 03 AUDIO
TITLE "Longing ~togireta melody~"
ISRC JPAM09502300
INDEX 00 13:02:58
INDEX 01 13:04:25
TRACK 04 AUDIO
TITLE "Rusty Nail"
ISRC JPAM09402930
INDEX 00 20:43:12
INDEX 01 20:43:47
TRACK 05 AUDIO
TITLE "White Poem I"
ISRC JPAM09604600
INDEX 00 26:09:47
INDEX 01 26:12:07
TRACK 06 AUDIO
TITLE "CRUCIFY MY LOVE"
ISRC JPAM09602000
INDEX 00 29:29:10
INDEX 01 29:30:50
TRACK 07 AUDIO
TITLE "Tears"
ISRC JPAM09301790
INDEX 00 34:04:45
INDEX 01 34:07:02
TRACK 08 AUDIO
TITLE "WRIGGLE"
ISRC JPAM09604610
INDEX 00 44:35:12
INDEX 01 44:37:47
TRACK 09 AUDIO
TITLE "DRAIN"
ISRC JPAM09604620
INDEX 00 46:03:15
INDEX 01 46:03:45
TRACK 10 AUDIO
TITLE "Forever Love (Acoustic Version)"
ISRC JPAM09601991
INDEX 00 49:25:73
INDEX 01 49:32:25

Compilation albums:
Треклист:
01.(6:54)
02. 20th CENTURY BOY (Live) (2:55)
03. ENDLESS RAIN (6:35)
04. X (Live) (9:41)
05. WEEK END (5:45)
06. ENDLESS RAIN (Live) (6:59)
07. Silent Jealousy (7:20)
08. Sadistic Desire (6:05)
09. Standing Sex (4:24)
10. Joker (4:57)
11. Say Anything (8:42)
12. Silent Jealousy (Live Version) (7:51)
  
Exact Audio Copy V1.0 beta 3 from 29. August 2011

EAC extraction logfile from 16. July 2012, 22:34

X / X SINGLES

Used drive : TSSTcorpCDDVDW TS-L633C Adapter: 0 ID: 0

Read mode : Secure
Utilize accurate stream : Yes
Defeat audio cache : No
Make use of C2 pointers : No

Read offset correction : 6
Overread into Lead-In and Lead-Out : No
Fill up missing offset samples with silence : Yes
Delete leading and trailing silent blocks : No
Null samples used in CRC calculations : Yes
Used interface : Native Win32 interface for Win NT & 2000
Gap handling : Appended to previous track

Used output format : User Defined Encoder
Selected bitrate : 768 kBit/s
Quality : High
Add ID3 tag : No
Command line compressor : C:\Program Files (x86)\Exact Audio Copy\Flac\flac.exe
Additional command line options : -6 -V -T "ARTIST=%artist%" -T "TITLE=%title%" -T "ALBUM=%albumtitle%" -T "DATE=%year%" -T "TRACKNUMBER=%tracknr%" -T "GENRE=%genre%" -T "COMMENT=%comment%" -T "BAND=%albuminterpret%" -T "ALBUMARTIST=%albuminterpret%" -T "COMPOSER=%composer%" %haslyrics%--tag-from-file=LYRICS="%lyricsfile%"%haslyrics% -T "DISCNUMBER=%cdnumber%" -T "TOTALDISCS=%totalcds%" -T "TOTALTRACKS=%numtracks%" %hascover%--picture="%coverfile%"%hascover% %source% -o %dest%

TOC of the extracted CD

Track | Start | Length | Start sector | End sector
---------------------------------------------------------
1 | 0:00.00 | 6:54.25 | 0 | 31074
2 | 6:54.25 | 2:55.35 | 31075 | 44234
3 | 9:49.60 | 6:35.00 | 44235 | 73859
4 | 16:24.60 | 9:41.27 | 73860 | 117461
5 | 26:06.12 | 5:45.05 | 117462 | 143341
6 | 31:51.17 | 6:59.00 | 143342 | 174766
7 | 38:50.17 | 7:19.58 | 174767 | 207749
8 | 46:10.00 | 6:05.37 | 207750 | 235161
9 | 52:15.37 | 4:23.63 | 235162 | 254949
10 | 56:39.25 | 4:56.67 | 254950 | 277216
11 | 61:36.17 | 8:41.48 | 277217 | 316339
12 | 70:17.65 | 7:50.67 | 316340 | 351656

Track 1

Filename C:\EAC\X\X SINGLES\01. 紅.wav

Pre-gap length 0:00:02.00

Peak level 100.0 %
Extraction speed 2.2 X
Track quality 99.9 %
Copy CRC 4F192CBE
Accurately ripped (confidence 11) [FA155611] (AR v1)
Copy OK

Track 2

Filename C:\EAC\X\X SINGLES\02. 20th CENTURY BOY (Live).wav

Pre-gap length 0:01:04.63

Peak level 100.0 %
Extraction speed 2.4 X
Track quality 100.0 %
Copy CRC 70B8E054
Accurately ripped (confidence 11) [54D88847] (AR v1)
Copy OK

Track 3

Filename C:\EAC\X\X SINGLES\03. ENDLESS RAIN.wav

Pre-gap length 0:00:01.00

Peak level 100.0 %
Extraction speed 2.7 X
Track quality 100.0 %
Copy CRC 95F88DC5
Accurately ripped (confidence 12) [1BC41FD4] (AR v1)
Copy OK

Track 4

Filename C:\EAC\X\X SINGLES\04. X (Live).wav

Pre-gap length 0:00:01.00

Peak level 100.0 %
Extraction speed 3.0 X
Track quality 100.0 %
Copy CRC 352648C4
Accurately ripped (confidence 11) [6627859D] (AR v1)
Copy OK

Track 5

Filename C:\EAC\X\X SINGLES\05. WEEK END.wav

Pre-gap length 0:00:01.00

Peak level 84.5 %
Extraction speed 3.3 X
Track quality 100.0 %
Copy CRC 63C2DFFB
Accurately ripped (confidence 11) [5475DCC0] (AR v1)
Copy OK

Track 6

Filename C:\EAC\X\X SINGLES\06. ENDLESS RAIN (Live).wav

Peak level 80.1 %
Extraction speed 3.5 X
Track quality 100.0 %
Copy CRC FA187738
Accurately ripped (confidence 11) [F38E859A] (AR v1)
Copy OK

Track 7

Filename C:\EAC\X\X SINGLES\07. Silent Jealousy.wav

Pre-gap length 0:00:01.00

Peak level 97.7 %
Extraction speed 3.7 X
Track quality 100.0 %
Copy CRC 6270C4EA
Accurately ripped (confidence 11) [68AF6DD5] (AR v1)
Copy OK

Track 8

Filename C:\EAC\X\X SINGLES\08. Sadistic Desire.wav

Pre-gap length 0:00:01.00

Peak level 100.0 %
Extraction speed 3.9 X
Track quality 100.0 %
Copy CRC 630DAF90
Accurately ripped (confidence 9) [98605974] (AR v1)
Copy OK

Track 9

Filename C:\EAC\X\X SINGLES\09. Standing Sex.wav

Pre-gap length 0:00:01.00

Peak level 89.5 %
Extraction speed 4.1 X
Track quality 100.0 %
Copy CRC BDA070B5
Accurately ripped (confidence 10) [8CF4AB26] (AR v1)
Copy OK

Track 10

Filename C:\EAC\X\X SINGLES\10. Joker.wav

Pre-gap length 0:00:01.00

Peak level 89.4 %
Extraction speed 4.2 X
Track quality 100.0 %
Copy CRC 5DBF5009
Accurately ripped (confidence 9) [4C3379F4] (AR v1)
Copy OK

Track 11

Filename C:\EAC\X\X SINGLES\11. Say Anything.wav

Pre-gap length 0:00:01.00

Peak level 94.8 %
Extraction speed 4.5 X
Track quality 100.0 %
Copy CRC BC124CDC
Accurately ripped (confidence 9) [33A25734] (AR v1)
Copy OK

Track 12

Filename C:\EAC\X\X SINGLES\12. Silent Jealousy (Live Version).wav

Pre-gap length 0:00:01.00

Peak level 99.9 %
Extraction speed 4.6 X
Track quality 100.0 %
Copy CRC 938309F9
Accurately ripped (confidence 10) [AF49CB6A] (AR v1)
Copy OK

All tracks accurately ripped

No errors occurred

End of status report

  
REM DATE 1993
REM DISCID B112500C
REM COMMENT "ExactAudioCopy v1.0b3"
PERFORMER "X"
TITLE "X SINGLES"
FILE "X\X SINGLES\01. ..wav" WAVE
TRACK 01 AUDIO
TITLE "."
PERFORMER "X"
INDEX 01 00:00:00
TRACK 02 AUDIO
TITLE "20th CENTURY BOY (Live)"
PERFORMER "X"
INDEX 00 05:49:37
FILE "X\X SINGLES\02. 20th CENTURY BOY (Live).wav" WAVE
INDEX 01 00:00:00
TRACK 03 AUDIO
TITLE "ENDLESS RAIN"
PERFORMER "X"
INDEX 00 02:54:35
FILE "X\X SINGLES\03. ENDLESS RAIN.wav" WAVE
INDEX 01 00:00:00
TRACK 04 AUDIO
TITLE "X (Live)"
PERFORMER "X"
INDEX 00 06:34:00
FILE "X\X SINGLES\04. X (Live).wav" WAVE
INDEX 01 00:00:00
TRACK 05 AUDIO
TITLE "WEEK END"
PERFORMER "X"
INDEX 00 09:40:27
FILE "X\X SINGLES\05. WEEK END.wav" WAVE
INDEX 01 00:00:00
FILE "X\X SINGLES\06. ENDLESS RAIN (Live).wav" WAVE
TRACK 06 AUDIO
TITLE "ENDLESS RAIN (Live)"
PERFORMER "X"
INDEX 01 00:00:00
TRACK 07 AUDIO
TITLE "Silent Jealousy"
PERFORMER "X"
INDEX 00 06:58:00
FILE "X\X SINGLES\07. Silent Jealousy.wav" WAVE
INDEX 01 00:00:00
TRACK 08 AUDIO
TITLE "Sadistic Desire"
PERFORMER "X"
INDEX 00 07:18:58
FILE "X\X SINGLES\08. Sadistic Desire.wav" WAVE
INDEX 01 00:00:00
TRACK 09 AUDIO
TITLE "Standing Sex"
PERFORMER "X"
INDEX 00 06:04:37
FILE "X\X SINGLES\09. Standing Sex.wav" WAVE
INDEX 01 00:00:00
TRACK 10 AUDIO
TITLE "Joker"
PERFORMER "X"
INDEX 00 04:22:63
FILE "X\X SINGLES\10. Joker.wav" WAVE
INDEX 01 00:00:00
TRACK 11 AUDIO
TITLE "Say Anything"
PERFORMER "X"
INDEX 00 04:55:67
FILE "X\X SINGLES\11. Say Anything.wav" WAVE
INDEX 01 00:00:00
TRACK 12 AUDIO
TITLE "Silent Jealousy (Live Version)"
PERFORMER "X"
INDEX 00 08:40:48
FILE "X\X SINGLES\12. Silent Jealousy (Live Version).wav" WAVE
INDEX 01 00:00:00

Треклист:
01. Forever love (8:40)
02. Longing (7:22)
03. Endless rain (6:39)
04. Crucify my love (4:38)
05. Alive (8:28)
06. Say anything (8:48)
07. Unfinished (4:31)
08. Tears (7:14)
09. Forever love (last mix) (8:34)
10. The last song (11:33)
  
-----------------------

DON'T MODIFY THIS FILE

-----------------------

PERFORMER: auCDtect Task Manager, ver. 1.5.1RC6 build 1.5.1.7
Copyright (c) 2008-2010 y-soft. All rights reserved
http://y-soft.org

ANALYZER: auCDtect: CD records authenticity detector, version 0.8.2
Copyright (c) 2004 Oleg Berngardt. All rights reserved.
Copyright (c) 2004 Alexander Djourik. All rights reserved.

FILE: 10 - The last song.flac
Size: 70202022 Hash: 51DD5F6455F2318DA7292B2FBF9B0C79 Accuracy: -m0
Conclusion: CDDA 100%
Signature: 7C93E7F9C8D4C62607FFD11FBF361595E5F43A64
FILE: 09 - Forever love (last mix).flac
Size: 57146476 Hash: 09D0B65C6816D0488C7165E0152FFBFF Accuracy: -m0
Conclusion: CDDA 100%
Signature: 791B5A182F20A885BC4A421656888405FE337EBC
FILE: 08 - Tears.flac
Size: 50982589 Hash: C1F9EC0CD7F408B42F1573D8CF35247C Accuracy: -m0
Conclusion: CDDA 100%
Signature: B396D2A38EF09DBC8E039106D60067F8DC398ADC
FILE: 07 - Unfinished.flac
Size: 30556349 Hash: CC0811077501F2AD7340D3BCA0674EB7 Accuracy: -m0
Conclusion: CDDA 58%
Signature: A1DBFF96D3015492A2EA4C27C7054A2950CB967C
FILE: 06 - Say anything.flac
Size: 61393562 Hash: B8563FBBD85EFF0C0E03EB1DC876C1AB Accuracy: -m0
Conclusion: CDDA 100%
Signature: 73678A2D16479205BC18D20C1139925A1FF54543
FILE: 05 - Alive.flac
Size: 60683266 Hash: ECF46CB45A917AE8FAFBD2DAB6C93BBB Accuracy: -m0
Conclusion: CDDA 100%
Signature: B5E40FC6E9738848A461CDB7E893A84786407A5E
FILE: 04 - Crucify my love.flac
Size: 26762271 Hash: DBBFDE33F1C915226054E5B785345624 Accuracy: -m0
Conclusion: CDDA 100%
Signature: E3B82DFF6CCE25264C474AAB28896AF9BAD8A7FA
FILE: 03 - Endless rain.flac
Size: 46124425 Hash: C59ABE1F06F48D6CDA1A5F203E91D63B Accuracy: -m0
Conclusion: MPEG 73%
Signature: F299193B32603D95119BA534B048CFDA50344784
FILE: 02 - Longing.flac
Size: 51884515 Hash: F9AA35303749DE96786E23FAFBE267FD Accuracy: -m0
Conclusion: CDDA 100%
Signature: 8D142055249118EC5FA8C203E1770862AFA4D124
FILE: 01 - Forever love.flac
Size: 58249259 Hash: 7A85B56EE6A0598F62CA039AC4F3CC28 Accuracy: -m0
Conclusion: CDDA 99%
Signature: 82CC750B0061F30A18E1D7ABDE3BBD9104CB03E9

Треклист:
01. The Last Song (3:24)
02. Longing (4:21)
03. Endless Rain (3:25)
04. Unfinished (4:50)
05. Crucify My Love (3:18)
06. Alive (5:03)
07. Say Anything (3:33)
08. Tears (4:15)
09. Amethyst (4:42)
10. Forever Love (4:06)
  
-----------------------

DON'T MODIFY THIS FILE

-----------------------

PERFORMER: auCDtect Task Manager, ver. 1.5.1RC6 build 1.5.1.7
Copyright (c) 2008-2010 y-soft. All rights reserved
http://y-soft.org

ANALYZER: auCDtect: CD records authenticity detector, version 0.8.2
Copyright (c) 2004 Oleg Berngardt. All rights reserved.
Copyright (c) 2004 Alexander Djourik. All rights reserved.

FILE: 10 - Forever Love.flac
Size: 16860432 Hash: 168F2FDB99DA7AD40482CDE690CAC12A Accuracy: -m0
Conclusion: CDDA 100%
Signature: E8DF0E96FCC150A3433EFC87436381BB8BAAC76A
FILE: 09 - Amethyst.flac
Size: 18669663 Hash: FF173B378797982B9181AFD3AE2F8956 Accuracy: -m0
Conclusion: CDDA 100%
Signature: D56FF24C2CBAF8A47C8237FA5BB1C22A51105546
FILE: 08 - Tears.flac
Size: 16984567 Hash: 81D8868E866D58B988A096CA3178DE78 Accuracy: -m0
Conclusion: CDDA 100%
Signature: 7F4D52F1B012D06C0FB378EFD5F3F7146C93E695
FILE: 07 - Say Anything.flac
Size: 13660873 Hash: F4FC325D1DDAA5675E0F0C7EB5237774 Accuracy: -m0
Conclusion: CDDA 100%
Signature: C48A2CCCAAB4B69D223E6FAE66129904F12A867A
FILE: 06 - Alive.flac
Size: 20921056 Hash: FFD061126127F5D54E2DBBDC518213CF Accuracy: -m0
Conclusion: CDDA 100%
Signature: 337CDA12BA64DEB3A6D85B5D9786FAA06C990B4A
FILE: 05 - Crucify My Love.flac
Size: 12668976 Hash: 2F423057AA628506D8B277F6CFA8FBDF Accuracy: -m0
Conclusion: CDDA 100%
Signature: 5DD190D76FCAD3CEE747CDDEF264D37D1FEE1EB2
FILE: 04 - Unfinished.flac
Size: 18988227 Hash: F0FF31A6DE38120D5167634D69885BBD Accuracy: -m0
Conclusion: CDDA 100%
Signature: 70521C9F0BB5A129651C3BDC02718A8740D0D2FC
FILE: 03 - Endless Rain.flac
Size: 14113607 Hash: FC0F628092F7CFD672B58D7925650F93 Accuracy: -m0
Conclusion: CDDA 100%
Signature: D9B068807F99499CCAA5200EE428E6AB5692CA54
FILE: 02 - Longing.flac
Size: 17485667 Hash: 8BB083449119DC452C5DA4FA62D4CB97 Accuracy: -m0
Conclusion: CDDA 100%
Signature: 774335247458B4010E0B6752E6229776273C6A83
FILE: 01 - The Last Song.flac
Size: 13633485 Hash: 1A2873573929F04C03EF77D94BD9D2AF Accuracy: -m0
Conclusion: CDDA 100%
Signature: 57D04767310719F4ECED9AB60CE3EEF7773F65AB

Треклист:
01. Forever Love (5:03)
02. Longing (5:59)
03. Endless Rain (5:48)
04. Crucify My Love (4:35)
05. Alive (5:21)
06. Say Anything (6:11)
07. Unfinished (4:41)
08. Tears (4:48)
09. The Last Song (4:04)
  
Exact Audio Copy V1.0 beta 1 from 15. November 2010

EAC extraction logfile from 10. February 2011, 16:37

X Japan / On Piano

Used drive : TSSTcorpCDDVDW TS-L633L Adapter: 0 ID: 1

Read mode : Secure
Utilize accurate stream : Yes
Defeat audio cache : Yes
Make use of C2 pointers : No

Read offset correction : 6
Overread into Lead-In and Lead-Out : No
Fill up missing offset samples with silence : Yes
Delete leading and trailing silent blocks : No
Null samples used in CRC calculations : Yes
Used interface : Installed external ASPI interface
Gap handling : Appended to previous track

Used output format : Internal WAV Routines
Sample format : 44.100 Hz; 16 Bit; Stereo

TOC of the extracted CD

Track | Start | Length | Start sector | End sector
---------------------------------------------------------
1 | 0:00.00 | 5:02.57 | 0 | 22706
2 | 5:02.57 | 5:59.25 | 22707 | 49656
3 | 11:02.07 | 5:47.45 | 49657 | 75726
4 | 16:49.52 | 4:34.45 | 75727 | 96321
5 | 21:24.22 | 5:21.13 | 96322 | 120409
6 | 26:45.35 | 6:10.60 | 120410 | 148219
7 | 32:56.20 | 4:41.00 | 148220 | 169294
8 | 37:37.20 | 4:48.02 | 169295 | 190896
9 | 42:25.22 | 4:03.48 | 190897 | 209169

Track 1

Filename E:\Music\X Japan\X - On Piano\1 - Forever Love.wav

Pre-gap length 0:00:02.00

Peak level 100.0 %
Extraction speed 2.3 X
Track quality 100.0 %
Copy CRC 7E894A31
Accurately ripped (confidence 2) [1CDDFB41]
Copy OK

Track 2

Filename E:\Music\X Japan\X - On Piano\2 - Longing.wav

Peak level 100.0 %
Extraction speed 2.6 X
Track quality 100.0 %
Copy CRC 4830624D
Accurately ripped (confidence 2) [150311E8]
Copy OK

Track 3

Filename E:\Music\X Japan\X - On Piano\3 - Endless Rain.wav

Peak level 100.0 %
Extraction speed 2.9 X
Track quality 100.0 %
Copy CRC FDB076F2
Accurately ripped (confidence 2) [052AB7DD]
Copy OK

Track 4

Filename E:\Music\X Japan\X - On Piano\4 - Crucify My Love.wav

Peak level 100.0 %
Extraction speed 2.7 X
Track quality 99.9 %
Copy CRC CF1E089E
Accurately ripped (confidence 2) [18F4885E]
Copy OK

Track 5

Filename E:\Music\X Japan\X - On Piano\5 - Alive.wav

Peak level 100.0 %
Extraction speed 3.2 X
Track quality 100.0 %
Copy CRC 6631A971
Accurately ripped (confidence 2) [7F10FC1F]
Copy OK

Track 6

Filename E:\Music\X Japan\X - On Piano\6 - Say Anything.wav

Peak level 100.0 %
Extraction speed 3.6 X
Track quality 100.0 %
Copy CRC D9DEEB96
Accurately ripped (confidence 2) [CBE72F11]
Copy OK

Track 7

Filename E:\Music\X Japan\X - On Piano\7 - Unfinished.wav

Peak level 100.0 %
Extraction speed 3.7 X
Track quality 100.0 %
Copy CRC 41C31962
Accurately ripped (confidence 2) [6D6FF43D]
Copy OK

Track 8

Filename E:\Music\X Japan\X - On Piano\8 - Tears.wav

Peak level 100.0 %
Extraction speed 3.9 X
Track quality 100.0 %
Copy CRC F31BAC62
Accurately ripped (confidence 2) [8E69B0AC]
Copy OK

Track 9

Filename E:\Music\X Japan\X - On Piano\9 - The Last Song.wav

Peak level 100.0 %
Extraction speed 3.9 X
Track quality 100.0 %
Copy CRC E6E6E00E
Accurately ripped (confidence 2) [67951932]
Copy OK

All tracks accurately ripped

No errors occurred

End of status report

==== Log checksum FCD9034E90F3AEAA7F14717A83C6F00133A9A626D4D9EEF207122E5AC62A654F ====

  
REM GENRE Instrumental
REM DATE 1998
REM DISCID 780AE409
REM COMMENT "ExactAudioCopy v1.0b1"
PERFORMER "X Japan"
TITLE "On Piano"
FILE "1 - Forever Love.wav" WAVE
TRACK 01 AUDIO
TITLE "Forever Love"
PERFORMER "X Japan"
INDEX 01 00:00:00
FILE "2 - Longing.wav" WAVE
TRACK 02 AUDIO
TITLE "Longing"
PERFORMER "X Japan"
INDEX 01 00:00:00
FILE "3 - Endless Rain.wav" WAVE
TRACK 03 AUDIO
TITLE "Endless Rain"
PERFORMER "X Japan"
INDEX 01 00:00:00
FILE "4 - Crucify My Love.wav" WAVE
TRACK 04 AUDIO
TITLE "Crucify My Love"
PERFORMER "X Japan"
INDEX 01 00:00:00
FILE "5 - Alive.wav" WAVE
TRACK 05 AUDIO
TITLE "Alive"
PERFORMER "X Japan"
INDEX 01 00:00:00
FILE "6 - Say Anything.wav" WAVE
TRACK 06 AUDIO
TITLE "Say Anything"
PERFORMER "X Japan"
INDEX 01 00:00:00
FILE "7 - Unfinished.wav" WAVE
TRACK 07 AUDIO
TITLE "Unfinished"
PERFORMER "X Japan"
INDEX 01 00:00:00
FILE "8 - Tears.wav" WAVE
TRACK 08 AUDIO
TITLE "Tears"
PERFORMER "X Japan"
INDEX 01 00:00:00
FILE "9 - The Last Song.wav" WAVE
TRACK 09 AUDIO
TITLE "The Last Song"
PERFORMER "X Japan"
INDEX 01 00:00:00

Треклист CD1:
01. Prologue (live) (2:55)
02. Ill kill you (live) (3:26)
03. Blue blood (live) (4:26)
04. Rusty nail (5:26)
05. Say anything (live) (2:56)
06. Vanishing love (6:00)
07. Tears (10:28)
08. Art of life (radio edit version) (4:52)
09. Kurenai (5:42)
10. Stab me in the back (live) (4:21)
11. Standing sex (live) (4:45)
12. Dahlia (7:56)

Треклист CD2:
01. Week end (live) (6:07)
02. Sadistic desire (6:07)
03. Endless rain (live) (9:26)
04. Forever love (8:36)
05. Orgasm (live) (15:42)
06. X (live) (7:15)
07. The last song (11:29)
  
-----------------------

DON'T MODIFY THIS FILE

-----------------------

PERFORMER: auCDtect Task Manager, ver. 1.5.1RC6 build 1.5.1.7
Copyright (c) 2008-2010 y-soft. All rights reserved
http://y-soft.org

ANALYZER: auCDtect: CD records authenticity detector, version 0.8.2
Copyright (c) 2004 Oleg Berngardt. All rights reserved.
Copyright (c) 2004 Alexander Djourik. All rights reserved.

FILE: 12 - Dahlia.flac
Size: 61755802 Hash: 840F8ED5049CDE70D9D02E28131821D6 Accuracy: -m0
Conclusion: CDDA 100%
Signature: 878967D4973C3AA894CA0CAF3CFF68036A92EBDC
FILE: 11 - Standing sex (live).flac
Size: 37164037 Hash: BEBF3AB79130E253563AE678B438256F Accuracy: -m0
Conclusion: CDDA 100%
Signature: D80BB9DB6F7E9723ACB8D77722F85873962844D0
FILE: 10 - Stab me in the back (live).flac
Size: 36152496 Hash: 9C3F467B1F7E71ACE0440473ED8D66AB Accuracy: -m0
Conclusion: CDDA 100%
Signature: 93AD4F50A3700D3C035E59D51C29528509B05B1B
FILE: 09 - Kurenai.flac
Size: 41948776 Hash: 70D1683182414427A54856C7EF92CE66 Accuracy: -m0
Conclusion: CDDA 99%
Signature: 189CCBD2E7A6BD7A54E487179DA017C368C4584A
FILE: 08 - Art of life (radio edit version).flac
Size: 37470159 Hash: 46EE80A3A1A0ECB42FEDC55213F272B2 Accuracy: -m0
Conclusion: CDDA 100%
Signature: 26C9F3BBD10325732B2B84DC3932696EBECCD65B
FILE: 07 - Tears.flac
Size: 73097656 Hash: 7753ABC81BAB31AF7A71330C7F2390A0 Accuracy: -m0
Conclusion: CDDA 100%
Signature: 1C9645AA222046E8B69612A5F561CE44BCAEAC32
FILE: 06 - Vanishing love.flac
Size: 46277441 Hash: 74D5D423CBAB25840B15851BC8633538 Accuracy: -m0
Conclusion: CDDA 100%
Signature: B208CA2303377722C659B6338077C7563CAB71F2
FILE: 05 - Say anything (live).flac
Size: 17151120 Hash: EE2512D4AEFE581D4EE572423ECFBF66 Accuracy: -m0
Conclusion: CDDA 100%
Signature: 665A61A17A45D78BB2FDA9E3F6F9A50F78B1D091
FILE: 04 - Rusty nail.flac
Size: 44889732 Hash: 042FAA6F9B224C4B0CB6CDCE309C1E6A Accuracy: -m0
Conclusion: CDDA 100%
Signature: 0242A5A78A98B5216EBF1237B378F617D607B05B
FILE: 03 - Blue blood (live).flac
Size: 36133733 Hash: 8842CD544CF35AC8060609BAA68C7955 Accuracy: -m0
Conclusion: CDDA 100%
Signature: 036502FA4FFE55C2C407C536408BCADC9D5649C5
FILE: 02 - Ill kill you (live).flac
Size: 27319721 Hash: 441A6E0DE5FA0655EE885DD54BE9FE83 Accuracy: -m0
Conclusion: CDDA 100%
Signature: 5716002B26EB6D9883AB430A82F1D69B75D97A7D
FILE: 01 - Prologue (live).flac
Size: 21056464 Hash: 406EEE7AA3499128C87995D6F7DA9F05 Accuracy: -m0
Conclusion: CDDA 99%
Signature: 4A7A188ED769B70E7E484DF7092C9C5C35A260A9

  
-----------------------

DON'T MODIFY THIS FILE

-----------------------

PERFORMER: auCDtect Task Manager, ver. 1.5.1RC6 build 1.5.1.7
Copyright (c) 2008-2010 y-soft. All rights reserved
http://y-soft.org

ANALYZER: auCDtect: CD records authenticity detector, version 0.8.2
Copyright (c) 2004 Oleg Berngardt. All rights reserved.
Copyright (c) 2004 Alexander Djourik. All rights reserved.

FILE: 07 - The last song.flac
Size: 67822435 Hash: 59A3A67B09D78ADCF5348146A60502FF Accuracy: -m0
Conclusion: CDDA 100%
Signature: DA50A945327383C0934DB3E9F92FDC321801ABC7
FILE: 06 - X (live).flac
Size: 54335711 Hash: B2338A98EAC06A0063F68D81A82B5F00 Accuracy: -m0
Conclusion: CDDA 99%
Signature: 1730F6141BE70A67816F5028DD46726EF3998470
FILE: 05 - Orgasm (live).flac
Size: 117085706 Hash: 66B4B272A3B4C1E36A1CE3BFE23B66FE Accuracy: -m0
Conclusion: CDDA 100%
Signature: 2D3D0FB1AA31D9FBE560F8C3AED5F91E7C5F2257
FILE: 04 - Forever love.flac
Size: 57736031 Hash: E1FF722B478D3C50AC5939DC0756B145 Accuracy: -m0
Conclusion: CDDA 99%
Signature: F73F35781D54B6415AE9F02FB0D21FB0FFCAAF03
FILE: 03 - Endless rain (live).flac
Size: 59387302 Hash: AB984D28A9BBC1CDBC7C19A89BD4D435 Accuracy: -m0
Conclusion: CDDA 100%
Signature: 292DAD20497CE9735814668663A1F8953EB462A0
FILE: 02 - Sadistic desire.flac
Size: 50546942 Hash: 007B729A708FADE06CD45190C5275E5C Accuracy: -m0
Conclusion: CDDA 100%
Signature: CEC9FBC46EFB7386E9780AB6D746F841B97DBDB3
FILE: 01 - Week end (live).flac
Size: 45958003 Hash: 2F23AD3F18E2AF95A60C3CFC036C5651 Accuracy: -m0
Conclusion: CDDA 100%
Signature: FA9D3D916D82E4057B67A435FDBB705CD774F460

Треклист:
01. Kurenai (5:50)
02. Joker (live) (5:20)
03. Blue blood (5:04)
04. Endless rain (6:36)
05. Miscast (5:16)
06. Celebration (4:52)
07. Love replica (4:36)
08. Xclamation (3:59)
09. Week end (live) (5:59)
10. Silent jealousy (7:20)
11. X (live) (9:46)
12. Say anything (8:40)
  
-----------------------

DON'T MODIFY THIS FILE

-----------------------

PERFORMER: auCDtect Task Manager, ver. 1.5.1RC6 build 1.5.1.7
Copyright (c) 2008-2010 y-soft. All rights reserved
http://y-soft.org

ANALYZER: auCDtect: CD records authenticity detector, version 0.8.2
Copyright (c) 2004 Oleg Berngardt. All rights reserved.
Copyright (c) 2004 Alexander Djourik. All rights reserved.

FILE: 12 - Say anything.flac
Size: 58208352 Hash: C819639C327EA395645CC62BD4F9E6CF Accuracy: -m0
Conclusion: CDDA 100%
Signature: B464EFADD0F7A1F50CE81B9ECB9D439B4398E6E8
FILE: 11 - X (live).flac
Size: 73621690 Hash: 199BBAA11546E61A76E7ECECF4E1CC7D Accuracy: -m0
Conclusion: CDDA 100%
Signature: 4BA55A4EC7C28E1F5A481AB634E1D00C4036C1EF
FILE: 10 - Silent jealousy.flac
Size: 55538669 Hash: E320D1E1366AB32D3C5CB741860CCC99 Accuracy: -m0
Conclusion: CDDA 100%
Signature: 6610D6B88D0686E8A9E877FA19CCF80E1146FEE7
FILE: 09 - Week end (live).flac
Size: 46174006 Hash: 1655DB2E94F68A533E8321A316E4F6FA Accuracy: -m0
Conclusion: MPEG 95%
Signature: 1A3BB5C47838F9A6183658EC93791A263F564D2A
FILE: 08 - Xclamation.flac
Size: 24550579 Hash: EEE42900ABEF06AA48FE53322AF7B5F7 Accuracy: -m0
Conclusion: CDDA 100%
Signature: BAC355F182F88761DE6871FEB78CFE887C8B5568
FILE: 07 - Love replica.flac
Size: 25820753 Hash: A61661DD1538FF77A749E655E3B4AE51 Accuracy: -m0
Conclusion: CDDA 100%
Signature: FE5CC95E930502220E7B96F5475C4DB9BAC62804
FILE: 06 - Celebration.flac
Size: 36144255 Hash: B080BDFCE06FB7C3674F3D41539092BA Accuracy: -m0
Conclusion: CDDA 100%
Signature: 6E936B474AD7DBBA6CC3D05D2A8510843DB8C8B0
FILE: 05 - Miscast.flac
Size: 38568869 Hash: 835C65365A549D2C5CF73340BC0D176F Accuracy: -m0
Conclusion: CDDA 100%
Signature: 6DC809B830C662932E779D6486539934585B5CCE
FILE: 04 - Endless rain.flac
Size: 43284396 Hash: 3199A191CA79E6100BAA283074B02F46 Accuracy: -m0
Conclusion: CDDA 99%
Signature: B3616FF81D250F21042069317FF1EB86D6805FFA
FILE: 03 - Blue blood.flac
Size: 37442900 Hash: E449C01C4233A5154E0C9AEB0A79F710 Accuracy: -m0
Conclusion: CDDA 100%
Signature: 5E9AD68627CE253ECA9FEA0493C6481BDBF0EFF7
FILE: 02 - Joker (live).flac
Size: 40012452 Hash: 5743DA87489926BFDEC66FA46892FC5C Accuracy: -m0
Conclusion: CDDA 100%
Signature: DEFDA601B1AC0F8432AD0C4E0F3F17D26D01ACB3
FILE: 01 - Kurenai.flac
Size: 39645617 Hash: 0DC7D521F1A560B2EEB0A3625E10F30F Accuracy: -m0
Conclusion: CDDA 100%
Signature: D3B648D71311BDFFA5818EDB57F687A147D895BA

Треклист CD1:
01.(6:19)
02. Silent Jealousy (7:20)
03. ENDLESS RAIN (6:37)
04. Rusty Nail (5:29)
05. Tears (10:33)
06. ART OF LIFE (28:59)

Треклист CD2:
01. DAHLIA (8:01)
02. Say Anything (8:43)
03. Forever Love (Single Ver.) (8:40)
04. Longing ~跡切れたMELODY~ (7:41)
05. SCARS (5:10)
06. CRUCIFY MY LOVE (4:32)
  
-----------------------

DON'T MODIFY THIS FILE

-----------------------

PERFORMER: auCDtect Task Manager, ver. 1.5.1RC6 build 1.5.1.7
Copyright (c) 2008-2010 y-soft. All rights reserved
http://y-soft.org

ANALYZER: auCDtect: CD records authenticity detector, version 0.8.2
Copyright (c) 2004 Oleg Berngardt. All rights reserved.
Copyright (c) 2004 Alexander Djourik. All rights reserved.

FILE: 06 ART OF LIFE.flac
Size: 193901606 Hash: 86C2B8B9B510226762724D151E98C3C1 Accuracy: -m0
Conclusion: CDDA 99%
Signature: CA1760A4E5A88A72E60677EF46121E4F9A07A4FB
FILE: 05 Tears.flac
Size: 76834972 Hash: BDF1300F27DAF56C0DF9443BCC73010F Accuracy: -m0
Conclusion: CDDA 100%
Signature: 3D53119D618F08D207A28B9486145ACC8B83C679
FILE: 04 Rusty Nail.flac
Size: 45204095 Hash: 7A5E9A1C3EA4415560F355B0A9272834 Accuracy: -m0
Conclusion: CDDA 100%
Signature: DC25767E7F8603DE8F480D1C16FE8C6B357499D4
FILE: 03 ENDLESS RAIN.flac
Size: 45751783 Hash: F44C380D51F01E0A1D87AC78E3FE662B Accuracy: -m0
Conclusion: CDDA 100%
Signature: 56D498F59490C6FF8ADCCE2FF027D78CF37B18B9
FILE: 02 Silent Jealousy.flac
Size: 56775533 Hash: DE52219A493A69785D2443DF5E6F8FBF Accuracy: -m0
Conclusion: CDDA 100%
Signature: 2A9C8B809F43ED7E89AD8D70EF1824591DA4212B
FILE: 01 紅.flac
Size: 43055924 Hash: 094A0B2C7C4DE7391380A39AE2E4A2A1 Accuracy: -m0
Conclusion: CDDA 100%
Signature: 91AB6BD2C22CA7E65EF6DAA819C4496236099423

  
-----------------------

DON'T MODIFY THIS FILE

-----------------------

PERFORMER: auCDtect Task Manager, ver. 1.5.1RC6 build 1.5.1.7
Copyright (c) 2008-2010 y-soft. All rights reserved
http://y-soft.org

ANALYZER: auCDtect: CD records authenticity detector, version 0.8.2
Copyright (c) 2004 Oleg Berngardt. All rights reserved.
Copyright (c) 2004 Alexander Djourik. All rights reserved.

FILE: 06 CRUCIFY MY LOVE.flac
Size: 27293351 Hash: DED00378DB6EE1027E0988C123033500 Accuracy: -m0
Conclusion: CDDA 99%
Signature: A02664AB1B2D36C8E0540C5B16D88AF611448DD0
FILE: 05 SCARS.flac
Size: 39330604 Hash: BA6B560C4EF9FD65BE3ADCD1126F7207 Accuracy: -m0
Conclusion: CDDA 100%
Signature: 3CDC450B0737A1000C2522FB21CD8E64C89EEEB8
FILE: 04 Longing ~跡切れたMELODY~.flac
Size: 54526610 Hash: 746DE151B5EF01E62EAEC80FE3E29D95 Accuracy: -m0
Conclusion: CDDA 99%
Signature: 6F24E8DD6113DDE7C78162631D3A06BD90521F22
FILE: 03 Forever Love (Single Ver.).flac
Size: 60083379 Hash: 116484232FE4A658E092DD1508B53A40 Accuracy: -m0
Conclusion: CDDA 100%
Signature: D6B15D41FF58D14099B83F2906910349B72408D0
FILE: 02 Say Anything.flac
Size: 59982677 Hash: 0C6B14E5063197F886A613BFA7F84ECF Accuracy: -m0
Conclusion: CDDA 100%
Signature: EB47259487AD5FD5C9C4949D885AE0572065B709
FILE: 01 DAHLIA.flac
Size: 62861123 Hash: BF505F483DEE7B8FB6520A6E46EFC0C3 Accuracy: -m0
Conclusion: CDDA 100%
Signature: 22151E9A95304674341D128A469CB21F1CD4D9DC

Live:
Треклист:
01. Amethyst (6:18)
02. Rusty nail (5:43)
03. Sadistic desire (5:45)
04. SCARS (7:22)
05. DAHLIA (8:11)
06. WEEK END (6:05)
07. ENDLESS RAIN (5:38)
08. ? (7:15)
09. Longing (8:00)
10. Drum Break (1:38)
11. Unfinished (3:18)
12. X (8:46)
  
-----------------------

DON'T MODIFY THIS FILE

-----------------------

PERFORMER: auCDtect Task Manager, ver. 1.5.1RC6 build 1.5.1.7
Copyright (c) 2008-2010 y-soft. All rights reserved
http://y-soft.org

ANALYZER: auCDtect: CD records authenticity detector, version 0.8.2
Copyright (c) 2004 Oleg Berngardt. All rights reserved.
Copyright (c) 2004 Alexander Djourik. All rights reserved.

FILE: X Japan - LIVE IN HOKKAIDO 1995.12.4 BOOT LEG.flac
Size: 369646592 Hash: 5A0B8D16B2E097F9DF17A93C5BA78BF6 Accuracy: -m0
Conclusion: CDDA 100%
Signature: 7AABDC0D5344A712A1F066BE4142ADE1D3280CF3

info [Профиль]  [ЛС] 

post 17-Май-2013 16:30 (спустя 55 минут) [-]0[+]

Топик был перенесен из форума Оформление раздач (Музыка и Музыкальное видео) в форум Mеtаl (losslеss)

FranzFerdinand
 

Mr Spock

Пол: Пол:Муж

Стаж: 5 лет 5 месяцев

Сообщений: 144

Антарктида
Рейтинг

post 17-Май-2013 18:41 (спустя 3 часа) [-]0[+]

[Цитировать] 

Японский хэви метал? Такого я еще не слушал, спасибо, забираю
"Metal" пишется с одной "l"...

_________________
info [Профиль]  [ЛС] 

Phen1x

Пол: Пол:Муж

Стаж: 6 лет 2 месяца

Сообщений: 531

Украина
Рейтинг

post 17-Май-2013 18:48 (спустя 6 минут) [-]0[+]

[Цитировать] 

Mr Spock
Чтобы не ошибиться специально делал Ctrl+C -> Ctrl+V, и все равно умудрился сделать ошибку ))

_________________
info [Профиль]  [ЛС] 

SergeyWilliams

Стаж: 6 лет

Сообщений: 7

Рейтинг

post 17-Май-2013 21:04 (спустя 2 часа 15 минут) [-]1[+]

[Цитировать] 

Они сами и их проекты это лучшее, что есть на островах.
info [Профиль]  [ЛС] 

poseur from hell

Стаж: 6 лет 9 месяцев

Сообщений: 28

Рейтинг

post 17-Май-2013 22:26 (спустя 1 час 22 минуты) [-]1[+]

[Цитировать] 

          
anime_31 anime_31 anime_31
info [Профиль]  [ЛС] 
Показать сообщения:    
Ответить на тему

Текущее время: 07-Дек 12:40

Часовой пояс: GMT + 4



Вы не можете начинать темы
Вы не можете отвечать на сообщения
Вы не можете редактировать свои сообщения
Вы не можете удалять свои сообщения
Вы не можете голосовать в опросах
Вы не можете прикреплять файлы к сообщениям
Вы не можете скачивать файлы