Ошибка

(Punk-Rock) Useless ID - Discography - 2001-2012, FLAC (tracks/image+.cue), lossless

Ответить на тему
 
Автор Сообщение

The Royal

Пол: Пол:Муж

Стаж: 6 лет 11 месяцев

Сообщений: 652

Россия
Рейтинг

post 23-Мар-2013 19:43 0[+]

[Цитировать] 

pic="http://s001.youpic.su/pictures/1363982400/aac79896730580ce3c37bff19580c7f8.jpg"
Useless ID - Discography

Жанр: Punk-Rock
Год издания данного носителя: 2001-2012
Страна-производитель носителя: Israel
Аудио кодек: FLAC
Тип рипа: tracks/image+.cue
Битрейт аудио: lossless
Продолжительность: 02:56:17
Полиграфия: Отсутствует

Цитата:

Useless ID — панк рок-группа из четырёх человек, основанная в городе Хайфа, Израиль в 1994 году, одна из самых известных израильских панк групп.

История этой пробивной группы началась в январе 1995 года в городе Хайфа. Четверо друзей-скейтеров решили организовать свою панк-команду, которую назвали Useless ID. К началу 96-го года они уже успели отыграть концерты по всей стране и записать свой первый пробный диск из 7 песен. В один прекрасный момент музыканты поняли, что просиживать штаны в маленьком Израиле бесперспективно, а им нужна мировая известность. Они отправились покорять Европу и Америку в концертный diy – world – tour. Путешествие принесло им ряд знаковых встреч и полезных знакомств. Вернувшись в Израиль, ребята открыли свой лейбл «Falafel Records», на котором вышли два номерных альбома Useless ID.

Безбашенных панк-рокеров заметила уже известная к тому времени группа «The Ataris» и предложила выпустить сплит на лейбле Кунг Фу Рекордз, работающем с The Offspring, AFI и множеством других панк-коллективов. Эта совместная пластинка под названием «Let It Burn» мощно продвинула группу в панк-рок чартах и стала решающей в дальнейшей биографии команды.

Окрыленные растущей популярностью своего нового музыкального открытия, продюсеры Kung Fu Records предложили Useless ID подписать долгосрочный контракт. Результатом плодотворного сотрудничества стали 3 полноценных альбома, успешно разошедшиеся по всему миру. Последний релиз «Redemption» датирован 2005 годом, продюсером альбома стал барабанщик культовой группы Black Flag Билл Стивенсон.
01. At the Stadium (1:16)
02. Another Bad Taste (2:14)
03. No Time for Me to Be a Teenager (2:52)
04. Presents (1:54)
05. Just Friends (2:31)
06. Oh, My Guard (2:09)
07. Day By Day (1:42)
08. Nothing Logical In This Lifetime (3:28)
09. Out of Tune (1:56)
10. Note (1:56)
11. Far from Distance (2:06)
12. Operation New Years (1:41)
13. Working Jerk (1:52)
14. Wake Up Call (2:10)
15. A Year to Forget (3:21)
X Lossless Decoder version 20110821 (136.1) 

XLD extraction logfile from 2011-09-12 22:53:47 -0700

Useless ID / Bad Story, Happy Ending

Used drive : HL-DT-ST DVDRW GS23N (revision SB00)

Ripper mode : XLD Secure Ripper
Disable audio cache : OK for the drive with a cache less than 1375KiB
Make use of C2 pointers : NO
Read offset correction : 667
Max retry count : 100
Gap status : Analyzed, Appended

TOC of the extracted CD
Track | Start | Length | Start sector | End sector
---------------------------------------------------------
1 | 00:00:00 | 01:16:15 | 0 | 5714
2 | 01:16:15 | 02:13:66 | 5715 | 15755
3 | 03:30:06 | 02:52:24 | 15756 | 28679
4 | 06:22:30 | 01:53:72 | 28680 | 37226
5 | 08:16:27 | 02:30:67 | 37227 | 48543
6 | 10:47:19 | 02:09:20 | 48544 | 58238
7 | 12:56:39 | 01:42:31 | 58239 | 65919
8 | 14:38:70 | 03:28:09 | 65920 | 81528
9 | 18:07:04 | 01:55:74 | 81529 | 90227
10 | 20:03:03 | 01:56:04 | 90228 | 98931
11 | 21:59:07 | 02:06:33 | 98932 | 108414
12 | 24:05:40 | 01:41:16 | 108415 | 116005
13 | 25:46:56 | 01:52:26 | 116006 | 124431
14 | 27:39:07 | 02:10:18 | 124432 | 134199
15 | 29:49:25 | 03:21:01 | 134200 | 149275

AccurateRip Summary
Track 01 : OK (confidence 3)
Track 02 : OK (confidence 3)
Track 03 : OK (confidence 3)
Track 04 : OK (confidence 3)
Track 05 : OK (confidence 3)
Track 06 : OK (confidence 3)
Track 07 : OK (confidence 3)
Track 08 : OK (confidence 3)
Track 09 : OK (confidence 3)
Track 10 : OK (confidence 3)
Track 11 : OK (confidence 3)
Track 12 : OK (confidence 3)
Track 13 : OK (confidence 3)
Track 14 : OK (confidence 3)
Track 15 : OK (confidence 3)
->All tracks accurately ripped.

All Tracks
Album gain : -8.67 dB
Peak : 0.988556
Statistics
Read error : 0
Jitter error (maybe fixed) : 0
Retry sector count : 0
Damaged sector count : 0

Track 01
Filename : /Users/tylermarsh/Music/XLD/01 - At the Stadium.flac
/Users/tylermarsh/Music/XLD/01 - At the Stadium.mp3
Pre-gap length : 00:02:00

Track gain : -10.19 dB
Peak : 0.988556
CRC32 hash (test run) : ED433CE5
CRC32 hash : ED433CE5
CRC32 hash (skip zero) : 31A6F3E4
AccurateRip signature : BCDD21F5
->Accurately ripped! (confidence 3)
Statistics
Read error : 0
Jitter error (maybe fixed) : 0
Retry sector count : 0
Damaged sector count : 0

Track 02
Filename : /Users/tylermarsh/Music/XLD/02 - Another Bad Taste.flac
/Users/tylermarsh/Music/XLD/02 - Another Bad Taste.mp3
Pre-gap length : 00:00:15

Track gain : -8.51 dB
Peak : 0.988495
CRC32 hash (test run) : 138D011B
CRC32 hash : 138D011B
CRC32 hash (skip zero) : 8F70652B
AccurateRip signature : DD3136B8
->Accurately ripped! (confidence 3)
Statistics
Read error : 0
Jitter error (maybe fixed) : 0
Retry sector count : 0
Damaged sector count : 0

Track 03
Filename : /Users/tylermarsh/Music/XLD/03 - No Time for Me to Be a Teenager.flac
/Users/tylermarsh/Music/XLD/03 - No Time for Me to Be a Teenager.mp3
Pre-gap length : 00:00:05

Track gain : -8.34 dB
Peak : 0.988525
CRC32 hash (test run) : D18F5BF2
CRC32 hash : D18F5BF2
CRC32 hash (skip zero) : 6A02F4DA
AccurateRip signature : BF6F0983
->Accurately ripped! (confidence 3)
Statistics
Read error : 0
Jitter error (maybe fixed) : 0
Retry sector count : 0
Damaged sector count : 0

Track 04
Filename : /Users/tylermarsh/Music/XLD/04 - Presents.flac
/Users/tylermarsh/Music/XLD/04 - Presents.mp3
Pre-gap length : 00:00:05

Track gain : -8.07 dB
Peak : 0.988525
CRC32 hash (test run) : 9091D340
CRC32 hash : 9091D340
CRC32 hash (skip zero) : 0FFB8E81
AccurateRip signature : 7C1B3235
->Accurately ripped! (confidence 3)
Statistics
Read error : 0
Jitter error (maybe fixed) : 0
Retry sector count : 0
Damaged sector count : 0

Track 05
Filename : /Users/tylermarsh/Music/XLD/05 - Just Friends.flac
/Users/tylermarsh/Music/XLD/05 - Just Friends.mp3
Pre-gap length : 00:00:05

Track gain : -8.76 dB
Peak : 0.988556
CRC32 hash (test run) : 86C74A9F
CRC32 hash : 86C74A9F
CRC32 hash (skip zero) : F7D45F6B
AccurateRip signature : E687CDEF
->Accurately ripped! (confidence 3)
Statistics
Read error : 0
Jitter error (maybe fixed) : 0
Retry sector count : 0
Damaged sector count : 0

Track 06
Filename : /Users/tylermarsh/Music/XLD/06 - Oh, My Guard.flac
/Users/tylermarsh/Music/XLD/06 - Oh, My Guard.mp3
Pre-gap length : 00:00:05

Track gain : -9.29 dB
Peak : 0.988556
CRC32 hash (test run) : FFA9C95E
CRC32 hash : FFA9C95E
CRC32 hash (skip zero) : 25F94A75
AccurateRip signature : 98ABBF66
->Accurately ripped! (confidence 3)
Statistics
Read error : 0
Jitter error (maybe fixed) : 0
Retry sector count : 0
Damaged sector count : 0

Track 07
Filename : /Users/tylermarsh/Music/XLD/07 - Day By Day.flac
/Users/tylermarsh/Music/XLD/07 - Day By Day.mp3
Pre-gap length : 00:00:05

Track gain : -9.07 dB
Peak : 0.988525
CRC32 hash (test run) : DC6A34AE
CRC32 hash : DC6A34AE
CRC32 hash (skip zero) : A36AC927
AccurateRip signature : 75EFFAA8
->Accurately ripped! (confidence 3)
Statistics
Read error : 0
Jitter error (maybe fixed) : 0
Retry sector count : 0
Damaged sector count : 0

Track 08
Filename : /Users/tylermarsh/Music/XLD/08 - Nothing Logical In This Lifetime.flac
/Users/tylermarsh/Music/XLD/08 - Nothing Logical In This Lifetime.mp3
Pre-gap length : 00:00:35

Track gain : -8.25 dB
Peak : 0.988525
CRC32 hash (test run) : 1293B3E3
CRC32 hash : 1293B3E3
CRC32 hash (skip zero) : 14B81461
AccurateRip signature : F83F4CD4
->Accurately ripped! (confidence 3)
Statistics
Read error : 0
Jitter error (maybe fixed) : 0
Retry sector count : 0
Damaged sector count : 0

Track 09
Filename : /Users/tylermarsh/Music/XLD/09 - Out of Tune.flac
/Users/tylermarsh/Music/XLD/09 - Out of Tune.mp3
Pre-gap length : 00:00:25

Track gain : -8.23 dB
Peak : 0.988525
CRC32 hash (test run) : AC119D67
CRC32 hash : AC119D67
CRC32 hash (skip zero) : A3C21CFD
AccurateRip signature : E0505E11
->Accurately ripped! (confidence 3)
Statistics
Read error : 0
Jitter error (maybe fixed) : 0
Retry sector count : 0
Damaged sector count : 0

Track 10
Filename : /Users/tylermarsh/Music/XLD/10 - Note.flac
/Users/tylermarsh/Music/XLD/10 - Note.mp3
Pre-gap length : 00:00:15

Track gain : -8.07 dB
Peak : 0.988312
CRC32 hash (test run) : 69F3D33F
CRC32 hash : 69F3D33F
CRC32 hash (skip zero) : 2D16C443
AccurateRip signature : 6CE519DC
->Accurately ripped! (confidence 3)
Statistics
Read error : 0
Jitter error (maybe fixed) : 0
Retry sector count : 0
Damaged sector count : 0

Track 11
Filename : /Users/tylermarsh/Music/XLD/11 - Far from Distance.flac
/Users/tylermarsh/Music/XLD/11 - Far from Distance.mp3
Pre-gap length : 00:00:05

Track gain : -8.43 dB
Peak : 0.988495
CRC32 hash (test run) : 9C9896F9
CRC32 hash : 9C9896F9
CRC32 hash (skip zero) : 97DD39D1
AccurateRip signature : C8973882
->Accurately ripped! (confidence 3)
Statistics
Read error : 0
Jitter error (maybe fixed) : 0
Retry sector count : 0
Damaged sector count : 0

Track 12
Filename : /Users/tylermarsh/Music/XLD/12 - Operation New Years.flac
/Users/tylermarsh/Music/XLD/12 - Operation New Years.mp3
Pre-gap length : 00:00:49

Track gain : -8.72 dB
Peak : 0.988525
CRC32 hash (test run) : 47D821B5
CRC32 hash : 47D821B5
CRC32 hash (skip zero) : C62F112A
AccurateRip signature : C774C0B0
->Accurately ripped! (confidence 3)
Statistics
Read error : 0
Jitter error (maybe fixed) : 0
Retry sector count : 0
Damaged sector count : 0

Track 13
Filename : /Users/tylermarsh/Music/XLD/13 - Working Jerk.flac
/Users/tylermarsh/Music/XLD/13 - Working Jerk.mp3
Pre-gap length : 00:00:05

Track gain : -8.62 dB
Peak : 0.988495
CRC32 hash (test run) : E2C3063F
CRC32 hash : E2C3063F
CRC32 hash (skip zero) : FEFBAD38
AccurateRip signature : EA6AC5C8
->Accurately ripped! (confidence 3)
Statistics
Read error : 0
Jitter error (maybe fixed) : 0
Retry sector count : 0
Damaged sector count : 0

Track 14
Filename : /Users/tylermarsh/Music/XLD/14 - Wake Up Call.flac
/Users/tylermarsh/Music/XLD/14 - Wake Up Call.mp3
Pre-gap length : 00:00:05

Track gain : -7.94 dB
Peak : 0.988495
CRC32 hash (test run) : 79A0F825
CRC32 hash : 79A0F825
CRC32 hash (skip zero) : 65C7D1EF
AccurateRip signature : D0123FB4
->Accurately ripped! (confidence 3)
Statistics
Read error : 0
Jitter error (maybe fixed) : 0
Retry sector count : 0
Damaged sector count : 0

Track 15
Filename : /Users/tylermarsh/Music/XLD/15 - A Year to Forget.flac
/Users/tylermarsh/Music/XLD/15 - A Year to Forget.mp3
Pre-gap length : 00:00:33

Track gain : -7.66 dB
Peak : 0.988525
CRC32 hash (test run) : 5FB32097
CRC32 hash : 5FB32097
CRC32 hash (skip zero) : 6C2D1658
AccurateRip signature : D67FB4AC
->Accurately ripped! (confidence 3)
Statistics
Read error : 0
Jitter error (maybe fixed) : 0
Retry sector count : 0
Damaged sector count : 0

No errors occurred

End of status report
TITLE "Bad Story, Happy Ending" 
PERFORMER "Useless ID"
REM GENRE "Punk-Rock"
REM DATE "2001"
REM DISCID D607C60F
REM REPLAYGAIN_ALBUM_GAIN -8.67 dB
REM REPLAYGAIN_ALBUM_PEAK 0.988556
FILE "01 - At the Stadium.flac" WAVE
TRACK 01 AUDIO
TITLE "At the Stadium"
FLAGS DCP
REM REPLAYGAIN_TRACK_GAIN -10.19 dB
REM REPLAYGAIN_TRACK_PEAK 0.988556
INDEX 01 00:00:00
TRACK 02 AUDIO
TITLE "Another Bad Taste"
FLAGS DCP
REM REPLAYGAIN_TRACK_GAIN -8.51 dB
REM REPLAYGAIN_TRACK_PEAK 0.988495
INDEX 00 01:16:00
FILE "02 - Another Bad Taste.flac" WAVE
INDEX 01 00:00:00
TRACK 03 AUDIO
TITLE "No Time for Me to Be a Teenager"
FLAGS DCP
REM REPLAYGAIN_TRACK_GAIN -8.34 dB
REM REPLAYGAIN_TRACK_PEAK 0.988525
INDEX 00 02:13:61
FILE "03 - No Time for Me to Be a Teenager.flac" WAVE
INDEX 01 00:00:00
TRACK 04 AUDIO
TITLE "Presents"
FLAGS DCP
REM REPLAYGAIN_TRACK_GAIN -8.07 dB
REM REPLAYGAIN_TRACK_PEAK 0.988525
INDEX 00 02:52:19
FILE "04 - Presents.flac" WAVE
INDEX 01 00:00:00
TRACK 05 AUDIO
TITLE "Just Friends"
FLAGS DCP
REM REPLAYGAIN_TRACK_GAIN -8.76 dB
REM REPLAYGAIN_TRACK_PEAK 0.988556
INDEX 00 01:53:67
FILE "05 - Just Friends.flac" WAVE
INDEX 01 00:00:00
TRACK 06 AUDIO
TITLE "Oh, My Guard"
FLAGS DCP
REM REPLAYGAIN_TRACK_GAIN -9.29 dB
REM REPLAYGAIN_TRACK_PEAK 0.988556
INDEX 00 02:30:62
FILE "06 - Oh, My Guard.flac" WAVE
INDEX 01 00:00:00
TRACK 07 AUDIO
TITLE "Day By Day"
FLAGS DCP
REM REPLAYGAIN_TRACK_GAIN -9.07 dB
REM REPLAYGAIN_TRACK_PEAK 0.988525
INDEX 00 02:09:15
FILE "07 - Day By Day.flac" WAVE
INDEX 01 00:00:00
TRACK 08 AUDIO
TITLE "Nothing Logical In This Lifetime"
FLAGS DCP
REM REPLAYGAIN_TRACK_GAIN -8.25 dB
REM REPLAYGAIN_TRACK_PEAK 0.988525
INDEX 00 01:41:71
FILE "08 - Nothing Logical In This Lifetime.flac" WAVE
INDEX 01 00:00:00
TRACK 09 AUDIO
TITLE "Out of Tune"
FLAGS DCP
REM REPLAYGAIN_TRACK_GAIN -8.23 dB
REM REPLAYGAIN_TRACK_PEAK 0.988525
INDEX 00 03:27:59
FILE "09 - Out of Tune.flac" WAVE
INDEX 01 00:00:00
TRACK 10 AUDIO
TITLE "Note"
FLAGS DCP
REM REPLAYGAIN_TRACK_GAIN -8.07 dB
REM REPLAYGAIN_TRACK_PEAK 0.988312
INDEX 00 01:55:59
FILE "10 - Note.flac" WAVE
INDEX 01 00:00:00
TRACK 11 AUDIO
TITLE "Far from Distance"
FLAGS DCP
REM REPLAYGAIN_TRACK_GAIN -8.43 dB
REM REPLAYGAIN_TRACK_PEAK 0.988495
INDEX 00 01:55:74
FILE "11 - Far from Distance.flac" WAVE
INDEX 01 00:00:00
TRACK 12 AUDIO
TITLE "Operation New Years"
FLAGS DCP
REM REPLAYGAIN_TRACK_GAIN -8.72 dB
REM REPLAYGAIN_TRACK_PEAK 0.988525
INDEX 00 02:05:59
FILE "12 - Operation New Years.flac" WAVE
INDEX 01 00:00:00
TRACK 13 AUDIO
TITLE "Working Jerk"
FLAGS DCP
REM REPLAYGAIN_TRACK_GAIN -8.62 dB
REM REPLAYGAIN_TRACK_PEAK 0.988495
INDEX 00 01:41:11
FILE "13 - Working Jerk.flac" WAVE
INDEX 01 00:00:00
TRACK 14 AUDIO
TITLE "Wake Up Call"
FLAGS DCP
REM REPLAYGAIN_TRACK_GAIN -7.94 dB
REM REPLAYGAIN_TRACK_PEAK 0.988495
INDEX 00 01:52:21
FILE "14 - Wake Up Call.flac" WAVE
INDEX 01 00:00:00
TRACK 15 AUDIO
TITLE "A Year to Forget"
FLAGS DCP
REM REPLAYGAIN_TRACK_GAIN -7.66 dB
REM REPLAYGAIN_TRACK_PEAK 0.988525
INDEX 00 02:09:60
FILE "15 - A Year to Forget.flac" WAVE
INDEX 01 00:00:00
01. Same Story Someone New (2:59)
02. The Worst Holiday I've Ever Had (3:18)
03. Bring Me Down (1:57)
04. My Therapy (3:13)
05. Jukebox 86 (2:35)
06. Too Late to Start Over (2:50)
07. Unhappy Hour (1:01)
08. Birthday Song (1:29)
09. Crush (2:38)
10. Weird Rock (2:34)
11. Stuck Without A Ride (1:33)
12. Diary (2:19)
13. At Least I Tried (2:59)
14. End (3:10)
15. talk (0:27)
Exact Audio Copy V0.99 prebeta 4 from 23. January 2008 

EAC extraction logfile from 10. May 2009, 23:16

useless ID / No Vacation From The World

Used drive : PHILIPS DVD+-RW DVD8631 Adapter: 0 ID: 0

Read mode : Secure
Utilize accurate stream : Yes
Defeat audio cache : Yes
Make use of C2 pointers : No

Read offset correction : 618
Overread into Lead-In and Lead-Out : No
Fill up missing offset samples with silence : Yes
Delete leading and trailing silent blocks : No
Null samples used in CRC calculations : Yes
Used interface : Native Win32 interface for Win NT & 2000
Gap handling : Appended to previous track

Used output format : User Defined Encoder
Selected bitrate : 768 kBit/s
Quality : High
Add ID3 tag : No
Command line compressor : C:\Program Files\FLAC\flac.exe
Additional command line options : -V -8 -T "artist=%a" -T "title=%t" -T "album=%g" -T "date=%y" -T "tracknumber=%n" -T "genre=%m" %s

TOC of the extracted CD

Track | Start | Length | Start sector | End sector
---------------------------------------------------------
1 | 0:00.00 | 2:59.02 | 0 | 13426
2 | 2:59.02 | 3:17.48 | 13427 | 28249
3 | 6:16.50 | 1:57.07 | 28250 | 37031
4 | 8:13.57 | 3:12.65 | 37032 | 51496
5 | 11:26.47 | 2:35.35 | 51497 | 63156
6 | 14:02.07 | 2:50.13 | 63157 | 75919
7 | 16:52.20 | 1:01.02 | 75920 | 80496
8 | 17:53.22 | 1:29.10 | 80497 | 87181
9 | 19:22.32 | 2:37.50 | 87182 | 99006
10 | 22:00.07 | 2:34.35 | 99007 | 110591
11 | 24:34.42 | 1:33.28 | 110592 | 117594
12 | 26:07.70 | 2:18.40 | 117595 | 127984
13 | 28:26.35 | 2:59.07 | 127985 | 141416
14 | 31:25.42 | 3:10.28 | 141417 | 155694
15 | 34:35.70 | 0:27.15 | 155695 | 157734
16 | 37:35.10 | 4:25.52 | 169135 | 189061

Track 1

Filename I:\Rip\Useless Id - No Vacation From The World [FLAC]\01 - Same Story Someone New.wav

Pre-gap length 0:00:02.00

Peak level 98.8 %
Track quality 100.0 %
Test CRC 81EDFCE5
Copy CRC 81EDFCE5
Copy OK

Track 2

Filename I:\Rip\Useless Id - No Vacation From The World [FLAC]\02 - The Worst Holiday I've Ever Had.wav

Peak level 100.0 %
Track quality 100.0 %
Test CRC ACF8D29E
Copy CRC ACF8D29E
Copy OK

Track 3

Filename I:\Rip\Useless Id - No Vacation From The World [FLAC]\03 - Bring Me Down.wav

Peak level 100.0 %
Track quality 100.0 %
Test CRC B1F414B0
Copy CRC B1F414B0
Copy OK

Track 4

Filename I:\Rip\Useless Id - No Vacation From The World [FLAC]\04 - My Therapy.wav

Pre-gap length 0:00:01.02

Peak level 98.8 %
Track quality 100.0 %
Test CRC A04461DD
Copy CRC A04461DD
Copy OK

Track 5

Filename I:\Rip\Useless Id - No Vacation From The World [FLAC]\05 - Jukebox 86.wav

Pre-gap length 0:00:01.02

Peak level 98.8 %
Track quality 100.0 %
Test CRC BA7FAC1D
Copy CRC BA7FAC1D
Copy OK

Track 6

Filename I:\Rip\Useless Id - No Vacation From The World [FLAC]\06 - Too Late to Start Over.wav

Peak level 98.8 %
Track quality 100.0 %
Test CRC A6B94731
Copy CRC A6B94731
Copy OK

Track 7

Filename I:\Rip\Useless Id - No Vacation From The World [FLAC]\07 - Unhappy Hour.wav

Peak level 98.8 %
Track quality 100.0 %
Test CRC 7359F33B
Copy CRC 7359F33B
Copy OK

Track 8

Filename I:\Rip\Useless Id - No Vacation From The World [FLAC]\08 - Birthday Song.wav

Peak level 98.8 %
Track quality 100.0 %
Test CRC 6B0E17C8
Copy CRC 6B0E17C8
Copy OK

Track 9

Filename I:\Rip\Useless Id - No Vacation From The World [FLAC]\09 - Crush.wav

Peak level 99.2 %
Track quality 100.0 %
Test CRC AF9A88D8
Copy CRC AF9A88D8
Copy OK

Track 10

Filename I:\Rip\Useless Id - No Vacation From The World [FLAC]\10 - Weird Rock.wav

Peak level 98.8 %
Track quality 100.0 %
Test CRC 53EC7B1A
Copy CRC 53EC7B1A
Copy OK

Track 11

Filename I:\Rip\Useless Id - No Vacation From The World [FLAC]\11 - Stuck Without A Ride.wav

Pre-gap length 0:00:02.03

Peak level 98.8 %
Track quality 100.0 %
Test CRC 23F4123D
Copy CRC 23F4123D
Copy OK

Track 12

Filename I:\Rip\Useless Id - No Vacation From The World [FLAC]\12 - Diary.wav

Pre-gap length 0:00:01.02

Peak level 62.3 %
Track quality 100.0 %
Test CRC C33CA62E
Copy CRC C33CA62E
Copy OK

Track 13

Filename I:\Rip\Useless Id - No Vacation From The World [FLAC]\13 - At Least I Tried.wav

Peak level 98.9 %
Track quality 100.0 %
Test CRC 53DE80B6
Copy CRC 53DE80B6
Copy OK

Track 14

Filename I:\Rip\Useless Id - No Vacation From The World [FLAC]\14 - End.wav

Peak level 98.8 %
Track quality 100.0 %
Test CRC 3A7FEB86
Copy CRC 3A7FEB86
Copy OK

Track 15

Filename I:\Rip\Useless Id - No Vacation From The World [FLAC]\15 - talk.wav

Pre-gap length 0:01:01.62

Peak level 55.4 %
Track quality 100.0 %
Test CRC C9E899C6
Copy CRC C9E899C6
Copy OK

No errors occurred

End of status report
REM GENRE "Hard Rock" 
REM DATE 2003
REM DISCID EC09D810
REM COMMENT "ExactAudioCopy v0.99pb4"
PERFORMER "useless ID"
TITLE "No Vacation From The World"
FILE "01 - Same Story Someone New.wav" WAVE
TRACK 01 AUDIO
TITLE "Same Story Someone New"
PERFORMER "useless ID"
INDEX 01 00:00:00
FILE "02 - The Worst Holiday I've Ever Had.wav" WAVE
TRACK 02 AUDIO
TITLE "The Worst Holiday I've Ever Had"
PERFORMER "useless ID"
INDEX 01 00:00:00
FILE "03 - Bring Me Down.wav" WAVE
TRACK 03 AUDIO
TITLE "Bring Me Down"
PERFORMER "useless ID"
INDEX 01 00:00:00
TRACK 04 AUDIO
TITLE "My Therapy"
PERFORMER "useless ID"
INDEX 00 01:56:05
FILE "04 - My Therapy.wav" WAVE
INDEX 01 00:00:00
TRACK 05 AUDIO
TITLE "Jukebox 86"
PERFORMER "useless ID"
INDEX 00 03:11:63
FILE "05 - Jukebox 86.wav" WAVE
INDEX 01 00:00:00
FILE "06 - Too Late to Start Over.wav" WAVE
TRACK 06 AUDIO
TITLE "Too Late to Start Over"
PERFORMER "useless ID"
INDEX 01 00:00:00
FILE "07 - Unhappy Hour.wav" WAVE
TRACK 07 AUDIO
TITLE "Unhappy Hour"
PERFORMER "useless ID"
INDEX 01 00:00:00
FILE "08 - Birthday Song.wav" WAVE
TRACK 08 AUDIO
TITLE "Birthday Song"
PERFORMER "useless ID"
INDEX 01 00:00:00
FILE "09 - Crush.wav" WAVE
TRACK 09 AUDIO
TITLE "Crush"
PERFORMER "useless ID"
INDEX 01 00:00:00
FILE "10 - Weird Rock.wav" WAVE
TRACK 10 AUDIO
TITLE "Weird Rock"
PERFORMER "useless ID"
INDEX 01 00:00:00
TRACK 11 AUDIO
TITLE "Stuck Without A Ride"
PERFORMER "useless ID"
INDEX 00 02:32:32
FILE "11 - Stuck Without A Ride.wav" WAVE
INDEX 01 00:00:00
TRACK 12 AUDIO
TITLE "Diary"
PERFORMER "useless ID"
INDEX 00 01:32:26
FILE "12 - Diary.wav" WAVE
INDEX 01 00:00:00
FILE "13 - At Least I Tried.wav" WAVE
TRACK 13 AUDIO
TITLE "At Least I Tried"
PERFORMER "useless ID"
INDEX 01 00:00:00
FILE "14 - End.wav" WAVE
TRACK 14 AUDIO
TITLE " End"
PERFORMER "useless ID"
INDEX 01 00:00:00
TRACK 15 AUDIO
TITLE "talk"
PERFORMER "useless ID"
INDEX 00 02:08:41
FILE "15 - talk.wav" WAVE
INDEX 01 00:00:00
TRACK 16 MODEx/2xxx
TITLE "-data-"
PERFORMER "useless ID"
INDEX 00 00:27:15
01. It's Alright (02:57)
02. Kiss Me, Kill Me (02:36)
03. Pink Stars & Magazines (02:14)
04. Deny It (03:04)
05. Suffer For The Fame (02:36)
06. Turn Up The Stereo (03:27)
07. Before I Go (03:13)
08. Dying Love (03:22)
09. Drinkage (02:40)
10. Eveything Turned Red (03:02)
11. State Of Fear (03:11)
12. Redemption (03:34)
Exact Audio Copy V0.99 prebeta 5 from 4. May 2009 

EAC extraction logfile from 16. January 2011, 16:10

Useless ID / Redemption

Used drive : _NEC DVD_RW ND-3550A Adapter: 0 ID: 0

Read mode : Secure
Utilize accurate stream : Yes
Defeat audio cache : Yes
Make use of C2 pointers : No

Read offset correction : 48
Overread into Lead-In and Lead-Out : No
Fill up missing offset samples with silence : Yes
Delete leading and trailing silent blocks : No
Null samples used in CRC calculations : Yes
Used interface : Installed external ASPI interface

Used output format : User Defined Encoder
Selected bitrate : 1024 kBit/s
Quality : High
Add ID3 tag : No
Command line compressor : C:\Program Files\Exact Audio Copy\FLAC\FLAC.EXE
Additional command line options : -V -8 -T "artist=%a" -T "title=%t" -T "album=%g" -T "date=%y" -T "tracknumber=%n" -T "genre=%m" %s

TOC of the extracted CD

Track | Start | Length | Start sector | End sector
---------------------------------------------------------
1 | 0:00.00 | 2:57.23 | 0 | 13297
2 | 2:57.23 | 2:35.50 | 13298 | 24972
3 | 5:32.73 | 2:12.48 | 24973 | 34920
4 | 7:45.46 | 3:02.11 | 34921 | 48581
5 | 10:47.57 | 2:36.20 | 48582 | 60301
6 | 13:24.02 | 3:27.00 | 60302 | 75826
7 | 16:51.02 | 3:13.07 | 75827 | 90308
8 | 20:04.09 | 3:24.15 | 90309 | 105623
9 | 23:28.24 | 2:40.00 | 105624 | 117623
10 | 26:08.24 | 3:01.48 | 117624 | 131246
11 | 29:09.72 | 3:10.71 | 131247 | 145567
12 | 32:20.68 | 3:34.70 | 145568 | 161687
13 | 38:27.63 | 11:27.67 | 173088 | 224679

Range status and errors

Selected range

Filename C:\EAC\Useless ID - Redemption.wav

Peak level 97.6 %
Range quality 100.0 %
Test CRC 4D48B400
Copy CRC 4D48B400
Copy OK

No errors occurred

AccurateRip summary
Track 1 not present in database
Track 2 not present in database
Track 3 not present in database
Track 4 not present in database
Track 5 not present in database
Track 6 not present in database
Track 7 not present in database
Track 8 not present in database
Track 9 not present in database
Track 10 not present in database
Track 11 not present in database
Track 12 not present in database
None of the tracks are present in the AccurateRip database

End of status report

REM GENRE Punk 
REM DATE 2004
REM DISCID 9C0BB30D
REM COMMENT "ExactAudioCopy v0.99pb5"
PERFORMER "Useless ID"
TITLE "Redemption"
FILE "Useless ID - Redemption.flac" WAVE
TRACK 01 AUDIO
TITLE "It's Alright"
PERFORMER "Useless ID"
INDEX 01 00:00:00
TRACK 02 AUDIO
TITLE "Kiss Me. Kill Me"
PERFORMER "Useless ID"
INDEX 01 02:57:23
TRACK 03 AUDIO
TITLE "Pink Stars And Magazines"
PERFORMER "Useless ID"
INDEX 01 05:32:73
TRACK 04 AUDIO
TITLE "Deny It"
PERFORMER "Useless ID"
INDEX 01 07:45:46
TRACK 05 AUDIO
TITLE "Suffer For The Fame"
PERFORMER "Useless ID"
INDEX 01 10:47:57
TRACK 06 AUDIO
TITLE "Turn Up The Stereo"
PERFORMER "Useless ID"
INDEX 01 13:24:02
TRACK 07 AUDIO
TITLE "Before I Go"
PERFORMER "Useless ID"
INDEX 01 16:51:02
TRACK 08 AUDIO
TITLE "Dying Love"
PERFORMER "Useless ID"
INDEX 01 20:04:09
TRACK 09 AUDIO
TITLE "Drinkage"
PERFORMER "Useless ID"
INDEX 01 23:28:24
TRACK 10 AUDIO
TITLE "Everything Turned Red"
PERFORMER "Useless ID"
INDEX 01 26:08:24
TRACK 11 AUDIO
TITLE "State Of Fear"
PERFORMER "Useless ID"
INDEX 01 29:09:72
TRACK 12 AUDIO
TITLE "Redemption"
PERFORMER "Useless ID"
INDEX 01 32:20:68
01. Isolate Me (3:31)
02. Killing A Ghost (2:49)
03. Mouse In A Maze (2:33)
04. Undecided (3:06)
05. Blood Pressure (2:46)
06. Shallow End (3:34)
07. Night Stalker (3:29)
08. Always The Same (2:47)
09. Misconception (2:26)
10. Already Dead (1:37)
11. Give It Up (3:31)
12. One Way Down (3:52)
Exact Audio Copy V0.99 prebeta 4 from 23. January 2008 

EAC extraction logfile from 19. October 2008, 15:59

Useless ID / The Lost Broken Bones

Used drive : HL-DT-STDVDRAM GSA-4167B Adapter: 1 ID: 0

Read mode : Secure
Utilize accurate stream : Yes
Defeat audio cache : Yes
Make use of C2 pointers : No

Read offset correction : 667
Overread into Lead-In and Lead-Out : No
Fill up missing offset samples with silence : Yes
Delete leading and trailing silent blocks : No
Null samples used in CRC calculations : Yes
Used interface : Installed external ASPI interface
Gap handling : Appended to previous track

Used output format : User Defined Encoder
Selected bitrate : 192 kBit/s
Quality : High
Add ID3 tag : No
Command line compressor : C:\Program Files\Exact Audio Copy\bin\flac.exe
Additional command line options : -8 -A tukey(0.25) -A gauss(0.1875) -b 4096 -V -T "artist=%a" -T "title=%t" -T "album=%g" -T "date=%y" -T "tracknumber=%n" -T "genre=%m" %s --sector-align

TOC of the extracted CD

Track | Start | Length | Start sector | End sector
---------------------------------------------------------
1 | 0:00.00 | 3:31.07 | 0 | 15831
2 | 3:31.07 | 2:49.17 | 15832 | 28523
3 | 6:20.24 | 2:33.00 | 28524 | 39998
4 | 8:53.24 | 3:06.37 | 39999 | 53985
5 | 11:59.61 | 2:46.18 | 53986 | 66453
6 | 14:46.04 | 3:34.33 | 66454 | 82536
7 | 18:20.37 | 3:29.05 | 82537 | 98216
8 | 21:49.42 | 2:47.25 | 98217 | 110766
9 | 24:36.67 | 2:25.67 | 110767 | 121708
10 | 27:02.59 | 1:37.23 | 121709 | 129006
11 | 28:40.07 | 3:31.36 | 129007 | 144867
12 | 32:11.43 | 3:52.23 | 144868 | 162290
13 | 38:35.66 | 4:01.00 | 173691 | 191765

Track 1

Filename C:\Music\Ripped\Useless ID - The Lost Broken Bones (Flac)\01 Useless ID - Isolate Me.wav

Pre-gap length 0:00:02.00

Peak level 98.8 %
Track quality 100.0 %
Test CRC 736645F9
Copy CRC 736645F9
Track not present in AccurateRip database
Copy OK

Track 2

Filename C:\Music\Ripped\Useless ID - The Lost Broken Bones (Flac)\02 Useless ID - Killing A Ghost.wav

Peak level 98.8 %
Track quality 100.0 %
Test CRC 97C4358E
Copy CRC 97C4358E
Track not present in AccurateRip database
Copy OK

Track 3

Filename C:\Music\Ripped\Useless ID - The Lost Broken Bones (Flac)\03 Useless ID - Mouse In A Maze.wav

Peak level 98.8 %
Track quality 100.0 %
Test CRC 77CA5BFB
Copy CRC 77CA5BFB
Track not present in AccurateRip database
Copy OK

Track 4

Filename C:\Music\Ripped\Useless ID - The Lost Broken Bones (Flac)\04 Useless ID - Undecided.wav

Peak level 98.8 %
Track quality 100.0 %
Test CRC 1F732818
Copy CRC 1F732818
Track not present in AccurateRip database
Copy OK

Track 5

Filename C:\Music\Ripped\Useless ID - The Lost Broken Bones (Flac)\05 Useless ID - Blood Pressure.wav

Pre-gap length 0:00:00.72

Peak level 98.8 %
Track quality 100.0 %
Test CRC 7F86CE2E
Copy CRC 7F86CE2E
Track not present in AccurateRip database
Copy OK

Track 6

Filename C:\Music\Ripped\Useless ID - The Lost Broken Bones (Flac)\06 Useless ID - Shallow End.wav

Pre-gap length 0:00:00.46

Peak level 98.8 %
Track quality 100.0 %
Test CRC B62C9B8C
Copy CRC B62C9B8C
Track not present in AccurateRip database
Copy OK

Track 7

Filename C:\Music\Ripped\Useless ID - The Lost Broken Bones (Flac)\07 Useless ID - Night Stalker.wav

Peak level 98.8 %
Track quality 100.0 %
Test CRC 9617A0DE
Copy CRC 9617A0DE
Track not present in AccurateRip database
Copy OK

Track 8

Filename C:\Music\Ripped\Useless ID - The Lost Broken Bones (Flac)\08 Useless ID - Always The Same.wav

Pre-gap length 0:00:00.56

Peak level 98.8 %
Track quality 100.0 %
Test CRC C11569B2
Copy CRC C11569B2
Track not present in AccurateRip database
Copy OK

Track 9

Filename C:\Music\Ripped\Useless ID - The Lost Broken Bones (Flac)\09 Useless ID - Misconception.wav

Peak level 98.8 %
Track quality 100.0 %
Test CRC 2E5B2A36
Copy CRC 2E5B2A36
Track not present in AccurateRip database
Copy OK

Track 10

Filename C:\Music\Ripped\Useless ID - The Lost Broken Bones (Flac)\10 Useless ID - Already Dead.wav

Peak level 98.8 %
Track quality 99.8 %
Test CRC 1E50B3EA
Copy CRC 1E50B3EA
Track not present in AccurateRip database
Copy OK

Track 11

Filename C:\Music\Ripped\Useless ID - The Lost Broken Bones (Flac)\11 Useless ID - Give It Up.wav

Peak level 98.8 %
Track quality 100.0 %
Test CRC 8847A0DC
Copy CRC 8847A0DC
Track not present in AccurateRip database
Copy OK

Track 12

Filename C:\Music\Ripped\Useless ID - The Lost Broken Bones (Flac)\12 Useless ID - One Way Down.wav

Pre-gap length 0:00:01.50

Peak level 98.8 %
Track quality 100.0 %
Test CRC D1308E7F
Copy CRC D1308E7F
Track not present in AccurateRip database
Copy OK

None of the tracks are present in the AccurateRip database

No errors occurred

End of status report
REM GENRE "Punk Rock" 
REM DATE 2008
REM DISCID 9809FC0D
REM COMMENT "ExactAudioCopy v0.99pb4"
PERFORMER "Useless ID"
TITLE "The Lost Broken Bones"
FILE "01 Useless ID - Isolate Me.wav" WAVE
TRACK 01 AUDIO
TITLE "Isolate Me"
PERFORMER "Useless ID"
INDEX 01 00:00:00
FILE "02 Useless ID - Killing A Ghost.wav" WAVE
TRACK 02 AUDIO
TITLE "Killing A Ghost"
PERFORMER "Useless ID"
INDEX 01 00:00:00
FILE "03 Useless ID - Mouse In A Maze.wav" WAVE
TRACK 03 AUDIO
TITLE "Mouse In A Maze"
PERFORMER "Useless ID"
INDEX 01 00:00:00
FILE "04 Useless ID - Undecided.wav" WAVE
TRACK 04 AUDIO
TITLE "Undecided"
PERFORMER "Useless ID"
INDEX 01 00:00:00
TRACK 05 AUDIO
TITLE "Blood Pressure"
PERFORMER "Useless ID"
INDEX 00 03:05:58
FILE "05 Useless ID - Blood Pressure.wav" WAVE
INDEX 01 00:00:00
TRACK 06 AUDIO
TITLE "Shallow End"
PERFORMER "Useless ID"
INDEX 00 02:45:58
FILE "06 Useless ID - Shallow End.wav" WAVE
INDEX 01 00:00:00
FILE "07 Useless ID - Night Stalker.wav" WAVE
TRACK 07 AUDIO
TITLE "Night Stalker"
PERFORMER "Useless ID"
INDEX 01 00:00:00
TRACK 08 AUDIO
TITLE "Always The Same"
PERFORMER "Useless ID"
INDEX 00 03:28:38
FILE "08 Useless ID - Always The Same.wav" WAVE
INDEX 01 00:00:00
FILE "09 Useless ID - Misconception.wav" WAVE
TRACK 09 AUDIO
TITLE "Misconception"
PERFORMER "Useless ID"
INDEX 01 00:00:00
FILE "10 Useless ID - Already Dead.wav" WAVE
TRACK 10 AUDIO
TITLE "Already Dead"
PERFORMER "Useless ID"
INDEX 01 00:00:00
FILE "11 Useless ID - Give It Up.wav" WAVE
TRACK 11 AUDIO
TITLE "Give It Up"
PERFORMER "Useless ID"
INDEX 01 00:00:00
TRACK 12 AUDIO
TITLE "One Way Down"
PERFORMER "Useless ID"
INDEX 00 03:29:73
FILE "12 Useless ID - One Way Down.wav" WAVE
INDEX 01 00:00:00
TRACK 13 MODEx/2xxx
TITLE "The Lost Broken Bones"
PERFORMER "Useless ID"
INDEX 00 03:52:23
01. Live Or Die (3:15)
02. Before It Kills (2:00)
03. Normal With You (2:53)
04. Erratic (2:56)
05. Manic Depression (3:17)
06. Sleeping With Knives (3:20)
07. Symptoms (3:09)
08. Obsessive Compulsive Disorder (2:33)
09. New Misery (3:01)
10. Waiting For An Accident (2:51)
11. Fear In The Mirror (3:12)
12. Somewhere (3:36)
Exact Audio Copy V1.0 beta 3 from 29. August 2011 

EAC extraction logfile from 14. May 2012, 20:19

Useless I.D. / Symptoms

Used drive : PIONEER DVD-RW DVR-215 Adapter: 1 ID: 0

Read mode : Secure
Utilize accurate stream : Yes
Defeat audio cache : Yes
Make use of C2 pointers : No

Read offset correction : 48
Overread into Lead-In and Lead-Out : No
Fill up missing offset samples with silence : Yes
Delete leading and trailing silent blocks : No
Null samples used in CRC calculations : Yes
Used interface : Native Win32 interface for Win NT & 2000
Gap handling : Appended to previous track

Used output format : User Defined Encoder
Selected bitrate : 128 kBit/s
Quality : High
Add ID3 tag : No
Command line compressor : C:\Program Files\Exact Audio Copy\Flac\Flac.exe
Additional command line options : -V -8 -T "genre=%genre%" -T "artist=%artist%" -T "title=%title%" -T "album=%albumtitle%" -T "date=%year%" -T "tracknumber=%tracknr%" -T "comment=ExactAudioCopy v1.0b3" %source%

TOC of the extracted CD

Track | Start | Length | Start sector | End sector
---------------------------------------------------------
1 | 0:00.00 | 3:15.20 | 0 | 14644
2 | 3:15.20 | 1:59.61 | 14645 | 23630
3 | 5:15.06 | 2:52.67 | 23631 | 36597
4 | 8:07.73 | 2:55.56 | 36598 | 49778
5 | 11:03.54 | 3:17.24 | 49779 | 64577
6 | 14:21.03 | 3:20.28 | 64578 | 79605
7 | 17:41.31 | 3:09.10 | 79606 | 93790
8 | 20:50.41 | 2:33.07 | 93791 | 105272
9 | 23:23.48 | 3:01.13 | 105273 | 118860
10 | 26:24.61 | 2:51.07 | 118861 | 131692
11 | 29:15.68 | 3:12.15 | 131693 | 146107
12 | 32:28.08 | 3:35.72 | 146108 | 162304

Track 1

Filename E:\FLAC\Useless ID\Useless ID - Symptoms (2012) FLAC\Новая папка\01 - Live Or Die.wav

Pre-gap length 0:00:02.00

Peak level 98.8 %
Extraction speed 4.2 X
Track quality 100.0 %
Test CRC 9AC64BA9
Copy CRC 9AC64BA9
Track not present in AccurateRip database
Copy OK

Track 2

Filename E:\FLAC\Useless ID\Useless ID - Symptoms (2012) FLAC\Новая папка\02 - Before It Kills.wav

Peak level 98.8 %
Extraction speed 4.1 X
Track quality 100.0 %
Test CRC 350A4215
Copy CRC 350A4215
Track not present in AccurateRip database
Copy OK

Track 3

Filename E:\FLAC\Useless ID\Useless ID - Symptoms (2012) FLAC\Новая папка\03 - Normal With You.wav

Peak level 98.8 %
Extraction speed 4.7 X
Track quality 100.0 %
Test CRC 4F723BFA
Copy CRC 4F723BFA
Track not present in AccurateRip database
Copy OK

Track 4

Filename E:\FLAC\Useless ID\Useless ID - Symptoms (2012) FLAC\Новая папка\04 - Erratic.wav

Peak level 98.8 %
Extraction speed 5.0 X
Track quality 100.0 %
Test CRC 47AADCE7
Copy CRC 47AADCE7
Track not present in AccurateRip database
Copy OK

Track 5

Filename E:\FLAC\Useless ID\Useless ID - Symptoms (2012) FLAC\Новая папка\05 - Manic Depression.wav

Peak level 98.8 %
Extraction speed 5.3 X
Track quality 100.0 %
Test CRC 5B63E33D
Copy CRC 5B63E33D
Track not present in AccurateRip database
Copy OK

Track 6

Filename E:\FLAC\Useless ID\Useless ID - Symptoms (2012) FLAC\Новая папка\06 - Sleeping With Knives.wav

Peak level 98.8 %
Extraction speed 5.7 X
Track quality 100.0 %
Test CRC D9E145F0
Copy CRC D9E145F0
Track not present in AccurateRip database
Copy OK

Track 7

Filename E:\FLAC\Useless ID\Useless ID - Symptoms (2012) FLAC\Новая папка\07 - Symptoms.wav

Peak level 98.8 %
Extraction speed 5.9 X
Track quality 100.0 %
Test CRC 99A87C92
Copy CRC 99A87C92
Track not present in AccurateRip database
Copy OK

Track 8

Filename E:\FLAC\Useless ID\Useless ID - Symptoms (2012) FLAC\Новая папка\08 - Obsessive Compulsive Disorder.wav

Peak level 98.8 %
Extraction speed 5.8 X
Track quality 100.0 %
Test CRC 6FC4841A
Copy CRC 6FC4841A
Track not present in AccurateRip database
Copy OK

Track 9

Filename E:\FLAC\Useless ID\Useless ID - Symptoms (2012) FLAC\Новая папка\09 - New Misery.wav

Peak level 98.8 %
Extraction speed 6.3 X
Track quality 100.0 %
Test CRC 4B50814E
Copy CRC 4B50814E
Track not present in AccurateRip database
Copy OK

Track 10

Filename E:\FLAC\Useless ID\Useless ID - Symptoms (2012) FLAC\Новая папка\10 - Waiting For An Accident.wav

Peak level 98.8 %
Extraction speed 6.4 X
Track quality 100.0 %
Test CRC 29D1B36A
Copy CRC 29D1B36A
Track not present in AccurateRip database
Copy OK

Track 11

Filename E:\FLAC\Useless ID\Useless ID - Symptoms (2012) FLAC\Новая папка\11 - Fear In The Mirror.wav

Peak level 98.8 %
Extraction speed 5.9 X
Track quality 99.9 %
Test CRC B7EF8FB2
Copy CRC B7EF8FB2
Track not present in AccurateRip database
Copy OK

Track 12

Filename E:\FLAC\Useless ID\Useless ID - Symptoms (2012) FLAC\Новая папка\12 - Somewhere.wav

Peak level 98.8 %
Extraction speed 7.1 X
Track quality 100.0 %
Test CRC 2E2EE3EE
Copy CRC 2E2EE3EE
Track not present in AccurateRip database
Copy OK

None of the tracks are present in the AccurateRip database

No errors occurred

End of status report

==== Log checksum 4C957CB01D6341D82B511FFCCEE642D2FB8F28AD1254AA175D77B8F851057E9C ====
REM GENRE "Alternative & Punk" 
REM DATE 2012
REM DISCID AA08740C
REM COMMENT "ExactAudioCopy v1.0b3"
PERFORMER "Useless I.D."
TITLE "Symptoms"
FILE "01 - Live Or Die.wav" WAVE
TRACK 01 AUDIO
TITLE "Live Or Die"
PERFORMER "Useless I.D."
INDEX 01 00:00:00
FILE "02 - Before It Kills.wav" WAVE
TRACK 02 AUDIO
TITLE "Before It Kills"
PERFORMER "Useless I.D."
INDEX 01 00:00:00
FILE "03 - Normal With You.wav" WAVE
TRACK 03 AUDIO
TITLE "Normal With You"
PERFORMER "Useless I.D."
INDEX 01 00:00:00
FILE "04 - Erratic.wav" WAVE
TRACK 04 AUDIO
TITLE "Erratic"
PERFORMER "Useless I.D."
INDEX 01 00:00:00
FILE "05 - Manic Depression.wav" WAVE
TRACK 05 AUDIO
TITLE "Manic Depression"
PERFORMER "Useless I.D."
INDEX 01 00:00:00
FILE "06 - Sleeping With Knives.wav" WAVE
TRACK 06 AUDIO
TITLE "Sleeping With Knives"
PERFORMER "Useless I.D."
INDEX 01 00:00:00
FILE "07 - Symptoms.wav" WAVE
TRACK 07 AUDIO
TITLE "Symptoms"
PERFORMER "Useless I.D."
INDEX 01 00:00:00
FILE "08 - Obsessive Compulsive Disorder.wav" WAVE
TRACK 08 AUDIO
TITLE "Obsessive Compulsive Disorder"
PERFORMER "Useless I.D."
INDEX 01 00:00:00
FILE "09 - New Misery.wav" WAVE
TRACK 09 AUDIO
TITLE "New Misery"
PERFORMER "Useless I.D."
INDEX 01 00:00:00
FILE "10 - Waiting For An Accident.wav" WAVE
TRACK 10 AUDIO
TITLE "Waiting For An Accident"
PERFORMER "Useless I.D."
INDEX 01 00:00:00
FILE "11 - Fear In The Mirror.wav" WAVE
TRACK 11 AUDIO
TITLE "Fear In The Mirror"
PERFORMER "Useless I.D."
INDEX 01 00:00:00
FILE "12 - Somewhere.wav" WAVE
TRACK 12 AUDIO
TITLE "Somewhere"
PERFORMER "Useless I.D."
INDEX 01 00:00:00
info [Профиль]  [ЛС] 
Показать сообщения:    
Ответить на тему

Текущее время: 08-Дек 10:02

Часовой пояс: GMT + 4



Вы не можете начинать темы
Вы не можете отвечать на сообщения
Вы не можете редактировать свои сообщения
Вы не можете удалять свои сообщения
Вы не можете голосовать в опросах
Вы не можете прикреплять файлы к сообщениям
Вы не можете скачивать файлы