Ошибка

(Melodic Metalcore) Bullet For My Valentine - Temper Temper [Japanese Deluxe Edition] - 2013, FLAC (tracks+.сue), lossless

Ответить на тему
 
Автор Сообщение

The Buzzhorn

Пол: Пол:Муж

Стаж: 6 лет 2 месяца

Сообщений: 901

Германия
Рейтинг

post 26-Фев-2013 14:52 0[+]

[Цитировать] 


Temper Temper [Japanese Deluxe Edition]

pic="http://i51.fastpic.ru/big/2013/0211/3a/d658f7fb7dfa0c1cc8020ad35699703a.jpg"


Жанр: Melodic Metalcore
Год издания данного носителя: 2013
Страна-производитель носителя: USA
Лейбл: RCA Records
Каталоговый номер: 438622
Аудио кодек: FLAC
Тип рипа: tracks+.cue
Битрейт аудио: lossless
Продолжительность: 00:57:11
Полиграфия: Отсутствует
Треклист:
01. Breaking Point
02. Truth Hurts
03. Temper Temper
04. P.O.W.
05. Dirty Little Secret
06. Leech
07. Dead To The World
08. Riot
09. Saints & Sinners
10. Tears Don't Fall (Part 2)
11. Livin' Life (On The Edge Of A Knife)
Deluxe Edition:
12. Not Invincible (3:26)
13. Whole Lotta Rosie (Live At BBC Radio 1) (4:10)
14. Scream Aim Fire (Live At BBC Radio 1) (5:04)
Japanese Deluxe Edition:
15. Playing With Fire (2:50)

Цитата:

Temper Temper (с англ. «Умерь нрав») — четвёртый студийный альбом валлийской металкор-группы Bullet for My Valentine, издан в феврале 2013 года американским лейблом RCA Records. Продюсером альбома стал Дон Гилмор (Linkin Park, Good Charlotte), который уже ранее продюсировал альбом Fever

X Lossless Decoder version 20130127 (142.3) 

XLD extraction logfile from 2013-02-27 00:23:54 -0800

Bullet for My Valentine / Temper Temper (Japanese Deluxe Edition)

Used drive : HL-DT-ST DVDRW GS23N (revision SB00)
Media type : Pressed CD

Ripper mode : XLD Secure Ripper
Disable audio cache : OK for the drive with a cache less than 1375KiB
Make use of C2 pointers : NO
Read offset correction : 667
Max retry count : 100
Gap status : Analyzed, Appended

TOC of the extracted CD
Track | Start | Length | Start sector | End sector
---------------------------------------------------------
1 | 00:00:00 | 03:42:34 | 0 | 16683
2 | 03:42:34 | 03:36:44 | 16684 | 32927
3 | 07:19:03 | 03:08:67 | 32928 | 47094
4 | 10:27:70 | 03:53:53 | 47095 | 64622
5 | 14:21:48 | 04:55:29 | 64623 | 86776
6 | 19:17:02 | 03:59:34 | 86777 | 104735
7 | 23:16:36 | 05:15:67 | 104736 | 128427
8 | 28:32:28 | 02:49:23 | 128428 | 141125
9 | 31:21:51 | 03:29:17 | 141126 | 156817
10 | 34:50:68 | 05:38:48 | 156818 | 182215
11 | 40:29:41 | 04:01:72 | 182216 | 200362
12 | 44:31:38 | 03:26:30 | 200363 | 215842
13 | 47:57:68 | 04:10:01 | 215843 | 234593
14 | 52:07:69 | 05:05:21 | 234594 | 257489
15 | 57:13:15 | 02:50:36 | 257490 | 270275

AccurateRip Summary
Disc not found in AccurateRip DB.

All Tracks
Album gain : -10.41 dB
Peak : 1.000000
Statistics
Read error : 0
Jitter error (maybe fixed) : 0
Retry sector count : 0
Damaged sector count : 0

Track 01
Filename : /Users/Shared/XLD/01 Breaking Point.flac
Pre-gap length : 00:02:00

Track gain : -11.01 dB
Peak : 1.000000
CRC32 hash (test run) : 01B336F3
CRC32 hash : 01B336F3
CRC32 hash (skip zero) : 4C65C764
AccurateRip v1 signature : BBA9476B
AccurateRip v2 signature : 25BBF393
->Track not present in AccurateRip database.
Statistics
Read error : 0
Jitter error (maybe fixed) : 0
Retry sector count : 0
Damaged sector count : 0

Track 02
Filename : /Users/Shared/XLD/02 Truth Hurts.flac

Track gain : -9.89 dB
Peak : 1.000000
CRC32 hash (test run) : 94A9BEC7
CRC32 hash : 94A9BEC7
CRC32 hash (skip zero) : FFD075E1
AccurateRip v1 signature : 832A9150
AccurateRip v2 signature : 47FEF3EA
->Track not present in AccurateRip database.
Statistics
Read error : 0
Jitter error (maybe fixed) : 0
Retry sector count : 0
Damaged sector count : 0

Track 03
Filename : /Users/Shared/XLD/03 Temper Temper.flac

Track gain : -10.17 dB
Peak : 1.000000
CRC32 hash (test run) : C730D162
CRC32 hash : C730D162
CRC32 hash (skip zero) : 75DB6216
AccurateRip v1 signature : 958BAEBD
AccurateRip v2 signature : 0CA718E8
->Track not present in AccurateRip database.
Statistics
Read error : 0
Jitter error (maybe fixed) : 0
Retry sector count : 0
Damaged sector count : 0

Track 04
Filename : /Users/Shared/XLD/04 P.O.W..flac

Track gain : -9.83 dB
Peak : 1.000000
CRC32 hash (test run) : 68AA3272
CRC32 hash : 68AA3272
CRC32 hash (skip zero) : 237D0547
AccurateRip v1 signature : A92123D6
AccurateRip v2 signature : CCC0023B
->Track not present in AccurateRip database.
Statistics
Read error : 0
Jitter error (maybe fixed) : 0
Retry sector count : 0
Damaged sector count : 0

Track 05
Filename : /Users/Shared/XLD/05 Dirty Little Secret.flac

Track gain : -10.08 dB
Peak : 1.000000
CRC32 hash (test run) : 6E3EC748
CRC32 hash : 6E3EC748
CRC32 hash (skip zero) : B68A1DF5
AccurateRip v1 signature : 8AF39D65
AccurateRip v2 signature : 817E0D07
->Track not present in AccurateRip database.
Statistics
Read error : 0
Jitter error (maybe fixed) : 0
Retry sector count : 0
Damaged sector count : 0

Track 06
Filename : /Users/Shared/XLD/06 Leech.flac

Track gain : -10.67 dB
Peak : 1.000000
CRC32 hash (test run) : 913AAFD0
CRC32 hash : 913AAFD0
CRC32 hash (skip zero) : 1CE1A83B
AccurateRip v1 signature : 38B12605
AccurateRip v2 signature : 385A1FE6
->Track not present in AccurateRip database.
Statistics
Read error : 0
Jitter error (maybe fixed) : 0
Retry sector count : 0
Damaged sector count : 0

Track 07
Filename : /Users/Shared/XLD/07 Dead to the World.flac

Track gain : -9.75 dB
Peak : 1.000000
CRC32 hash (test run) : 66416EB8
CRC32 hash : 66416EB8
CRC32 hash (skip zero) : D71824A4
AccurateRip v1 signature : 76E41EC3
AccurateRip v2 signature : F6E1DE45
->Track not present in AccurateRip database.
Statistics
Read error : 0
Jitter error (maybe fixed) : 0
Retry sector count : 0
Damaged sector count : 0

Track 08
Filename : /Users/Shared/XLD/08 Riot.flac

Track gain : -9.87 dB
Peak : 1.000000
CRC32 hash (test run) : 9D0B7A61
CRC32 hash : 9D0B7A61
CRC32 hash (skip zero) : 557D7F06
AccurateRip v1 signature : 60633E5A
AccurateRip v2 signature : 959FB5C0
->Track not present in AccurateRip database.
Statistics
Read error : 0
Jitter error (maybe fixed) : 0
Retry sector count : 0
Damaged sector count : 0

Track 09
Filename : /Users/Shared/XLD/09 Saints & Sinners.flac

Track gain : -10.19 dB
Peak : 1.000000
CRC32 hash (test run) : 2CEE27E8
CRC32 hash : 2CEE27E8
CRC32 hash (skip zero) : 056366B6
AccurateRip v1 signature : D139956C
AccurateRip v2 signature : 3AABE2DB
->Track not present in AccurateRip database.
Statistics
Read error : 0
Jitter error (maybe fixed) : 0
Retry sector count : 0
Damaged sector count : 0

Track 10
Filename : /Users/Shared/XLD/10 Tears Don't Fall (Part 2).flac

Track gain : -10.37 dB
Peak : 1.000000
CRC32 hash (test run) : FE6D10CF
CRC32 hash : FE6D10CF
CRC32 hash (skip zero) : 88608AF3
AccurateRip v1 signature : F2084FA4
AccurateRip v2 signature : 2D07658B
->Track not present in AccurateRip database.
Statistics
Read error : 0
Jitter error (maybe fixed) : 0
Retry sector count : 0
Damaged sector count : 0

Track 11
Filename : /Users/Shared/XLD/11 Livin' Life (On the Edge of a Knife).flac

Track gain : -10.40 dB
Peak : 1.000000
CRC32 hash (test run) : 248D68FB
CRC32 hash : 248D68FB
CRC32 hash (skip zero) : FEC6DBAA
AccurateRip v1 signature : 852EC035
AccurateRip v2 signature : 3846025E
->Track not present in AccurateRip database.
Statistics
Read error : 0
Jitter error (maybe fixed) : 0
Retry sector count : 0
Damaged sector count : 0

Track 12
Filename : /Users/Shared/XLD/12 Not Invincible.flac

Track gain : -10.88 dB
Peak : 1.000000
CRC32 hash (test run) : C92DB758
CRC32 hash : C92DB758
CRC32 hash (skip zero) : 2E5934F0
AccurateRip v1 signature : 2A8D85CE
AccurateRip v2 signature : 9CF500AA
->Track not present in AccurateRip database.
Statistics
Read error : 0
Jitter error (maybe fixed) : 0
Retry sector count : 0
Damaged sector count : 0

Track 13
Filename : /Users/Shared/XLD/13 Whole Lotta Rosie (AC/DC Cover) [Live at BBC Radio 1].flac

Track gain : -10.69 dB
Peak : 1.000000
CRC32 hash (test run) : DFE78128
CRC32 hash : DFE78128
CRC32 hash (skip zero) : 6CE4547C
AccurateRip v1 signature : 0BA64AD3
AccurateRip v2 signature : BC86222D
->Track not present in AccurateRip database.
Statistics
Read error : 0
Jitter error (maybe fixed) : 0
Retry sector count : 0
Damaged sector count : 0

Track 14
Filename : /Users/Shared/XLD/14 Scream Aim Fire (Live at BBC Radio 1).flac

Track gain : -9.98 dB
Peak : 1.000000
CRC32 hash (test run) : FB3A63F1
CRC32 hash : FB3A63F1
CRC32 hash (skip zero) : AA44A268
AccurateRip v1 signature : 371CA2F5
AccurateRip v2 signature : 9FD1F19A
->Track not present in AccurateRip database.
Statistics
Read error : 0
Jitter error (maybe fixed) : 0
Retry sector count : 0
Damaged sector count : 0

Track 15
Filename : /Users/Shared/XLD/15 Playing With Fire (Japan Bonus Song).flac

Track gain : -11.31 dB
Peak : 1.000000
CRC32 hash (test run) : BFACA488
CRC32 hash : BFACA488
CRC32 hash (skip zero) : E1E57FC7
AccurateRip v1 signature : 0E020B6F
AccurateRip v2 signature : 248B976D
->Track not present in AccurateRip database.
Statistics
Read error : 0
Jitter error (maybe fixed) : 0
Retry sector count : 0
Damaged sector count : 0

No errors occurred

End of status report
TITLE "Temper Temper (Japanese Deluxe Edition)" 
PERFORMER "Bullet for My Valentine"
REM GENRE "Metal"
REM DATE "2013"
REM DISCID DC0E130F
REM REPLAYGAIN_ALBUM_GAIN -10.41 dB
REM REPLAYGAIN_ALBUM_PEAK 1.000000
FILE "01 Breaking Point.flac" WAVE
TRACK 01 AUDIO
TITLE "Breaking Point"
SONGWRITER "Don Gilmore/Michael Thomas/Michael Paget/Jason James/Matthew Tuck"
ISRC USRC11201546
REM REPLAYGAIN_TRACK_GAIN -11.01 dB
REM REPLAYGAIN_TRACK_PEAK 1.000000
INDEX 01 00:00:00
FILE "02 Truth Hurts.flac" WAVE
TRACK 02 AUDIO
TITLE "Truth Hurts"
SONGWRITER "Michael Thomas/Michael Paget/Matthew Tuck/Jason James"
ISRC USRC11201547
REM REPLAYGAIN_TRACK_GAIN -9.89 dB
REM REPLAYGAIN_TRACK_PEAK 1.000000
INDEX 01 00:00:00
FILE "03 Temper Temper.flac" WAVE
TRACK 03 AUDIO
TITLE "Temper Temper"
SONGWRITER "Michael Paget/Michael Thomas/Matt Tuck/Jason James"
ISRC USRC11201249
REM REPLAYGAIN_TRACK_GAIN -10.17 dB
REM REPLAYGAIN_TRACK_PEAK 1.000000
INDEX 01 00:00:00
FILE "04 P.O.W..flac" WAVE
TRACK 04 AUDIO
TITLE "P.O.W."
SONGWRITER "Jason James/Michael Thomas/Michael Paget/Matthew Tuck"
ISRC USRC11201548
REM REPLAYGAIN_TRACK_GAIN -9.83 dB
REM REPLAYGAIN_TRACK_PEAK 1.000000
INDEX 01 00:00:00
FILE "05 Dirty Little Secret.flac" WAVE
TRACK 05 AUDIO
TITLE "Dirty Little Secret"
SONGWRITER "Michael Paget/Michael Thomas/Jason James/Matthew Tuck"
ISRC USRC11201549
REM REPLAYGAIN_TRACK_GAIN -10.08 dB
REM REPLAYGAIN_TRACK_PEAK 1.000000
INDEX 01 00:00:00
FILE "06 Leech.flac" WAVE
TRACK 06 AUDIO
TITLE "Leech"
SONGWRITER "Matthew Tuck/Jason James/Michael Paget/Michael Thomas"
ISRC USRC11201550
REM REPLAYGAIN_TRACK_GAIN -10.67 dB
REM REPLAYGAIN_TRACK_PEAK 1.000000
INDEX 01 00:00:00
FILE "07 Dead to the World.flac" WAVE
TRACK 07 AUDIO
TITLE "Dead to the World"
SONGWRITER "Michael Paget/Chris Jericho/Jason James/Matthew Tuck/Michael Thomas"
ISRC USRC11201551
REM REPLAYGAIN_TRACK_GAIN -9.75 dB
REM REPLAYGAIN_TRACK_PEAK 1.000000
INDEX 01 00:00:00
FILE "08 Riot.flac" WAVE
TRACK 08 AUDIO
TITLE "Riot"
SONGWRITER "Michael Thomas/Jason James/Matt Tuck/Michael Paget"
ISRC USRC11201472
REM REPLAYGAIN_TRACK_GAIN -9.87 dB
REM REPLAYGAIN_TRACK_PEAK 1.000000
INDEX 01 00:00:00
FILE "09 Saints & Sinners.flac" WAVE
TRACK 09 AUDIO
TITLE "Saints & Sinners"
SONGWRITER "Michael Thomas/Matthew Tuck/Jason James/Michael Paget"
ISRC USRC11201552
REM REPLAYGAIN_TRACK_GAIN -10.19 dB
REM REPLAYGAIN_TRACK_PEAK 1.000000
INDEX 01 00:00:00
FILE "10 Tears Don't Fall (Part 2).flac" WAVE
TRACK 10 AUDIO
TITLE "Tears Don't Fall (Part 2)"
SONGWRITER "Matthew Tuck/Michael Paget/Jason James/Don Gilmore/Michael Thomas"
ISRC USRC11201553
REM REPLAYGAIN_TRACK_GAIN -10.37 dB
REM REPLAYGAIN_TRACK_PEAK 1.000000
INDEX 01 00:00:00
FILE "11 Livin' Life (On the Edge of a Knife).flac" WAVE
TRACK 11 AUDIO
TITLE "Livin' Life (On the Edge of a Knife)"
SONGWRITER "Matthew Tuck/Michael Thomas/Michael Paget/Jason James"
ISRC USRC11201554
REM REPLAYGAIN_TRACK_GAIN -10.40 dB
REM REPLAYGAIN_TRACK_PEAK 1.000000
INDEX 01 00:00:00
FILE "12 Not Invincible.flac" WAVE
TRACK 12 AUDIO
TITLE "Not Invincible"
SONGWRITER "Michael Thomas/Michael Paget/Jason James/Matthew Tuck"
ISRC USRC11201555
REM REPLAYGAIN_TRACK_GAIN -10.88 dB
REM REPLAYGAIN_TRACK_PEAK 1.000000
INDEX 01 00:00:00
FILE "13 Whole Lotta Rosie (AC/DC Cover) [Live at BBC Radio 1].flac" WAVE
TRACK 13 AUDIO
TITLE "Whole Lotta Rosie (AC/DC Cover) [Live at BBC Radio 1]"
SONGWRITER "M. Young/The Young/B. Scott"
ISRC USRC11201556
REM REPLAYGAIN_TRACK_GAIN -10.69 dB
REM REPLAYGAIN_TRACK_PEAK 1.000000
INDEX 01 00:00:00
FILE "14 Scream Aim Fire (Live at BBC Radio 1).flac" WAVE
TRACK 14 AUDIO
TITLE "Scream Aim Fire (Live at BBC Radio 1)"
SONGWRITER "Michael Paget/Matthew Tuck/Michael Thomas/Jason James"
ISRC USRC11201557
REM REPLAYGAIN_TRACK_GAIN -9.98 dB
REM REPLAYGAIN_TRACK_PEAK 1.000000
INDEX 01 00:00:00
FILE "15 Playing With Fire (Japan Bonus Song).flac" WAVE
TRACK 15 AUDIO
TITLE "Playing With Fire (Japan Bonus Song)"
SONGWRITER "Jason James/Michael Paget/Matthew Tuck/Michael Thomas"
ISRC USRC11201582
REM REPLAYGAIN_TRACK_GAIN -11.31 dB
REM REPLAYGAIN_TRACK_PEAK 1.000000
INDEX 01 00:00:00


info [Профиль]  [ЛС] 

Vassell

Стаж: 4 года 7 месяцев

Сообщений: 14

Рейтинг

post 26-Фев-2013 18:27 (спустя 3 часа) [-]0[+]

[Цитировать] 

kolob_123 kolob_199 kolob_123
info [Профиль]  [ЛС] 

Kostyani4

Пол: Пол:Муж

Стаж: 7 лет

Сообщений: 23

Россия
Рейтинг

post 26-Фев-2013 18:31 (спустя 4 минуты) [-]-4[+]

[Цитировать] 

Мое ИМХО альбом вообще никакой. Может пора уже задуматься о смене продюсера?

_________________
info [Профиль]  [ЛС] 

Polifufacka

Пол: Пол:Муж

Стаж: 5 лет 3 месяца

Сообщений: 34

Рейтинг

post 26-Фев-2013 20:24 (спустя 1 час 53 минуты) [-]0[+]

[Цитировать] 

Kostyani4
музыку делают продюсеры?
info [Профиль]  [ЛС] 

Suicide_Boy

Пол: Пол:Муж

Стаж: 4 года 11 месяцев

Сообщений: 10

Ямайка
Рейтинг

post 26-Фев-2013 21:09 (спустя 44 минуты) [-]2[+]

[Цитировать] 

Kostyani4 писал(а):

Мое ИМХО альбом вообще никакой. Может пора уже задуматься о смене продюсера?
поддерживаю полностью,буллеты уже не торт.
где старые буллеты с их офигительными соляками и гитарными запилами??? kolob_121
info [Профиль]  [ЛС] 

Kostyani4

Пол: Пол:Муж

Стаж: 7 лет

Сообщений: 23

Россия
Рейтинг

post 26-Фев-2013 23:14 (спустя 2 часа 4 минуты) [-]-1[+]

[Цитировать] 

Polifufacka писал(а):

Kostyani4
музыку делают продюсеры?
Продюсеры диктуют то,какой музыка должна быть так как они в это вкладывают деньги. Шоу бизнес он такой,пока ты не особо знаменит ты пишешь что хочешь,как только стал популярен и появился кто-то кто вкладывает в тебя деньги,то будь любезен выполнять его условия...либо денег не будет.

_________________
info [Профиль]  [ЛС] 

Polifufacka

Пол: Пол:Муж

Стаж: 5 лет 3 месяца

Сообщений: 34

Рейтинг

post 27-Фев-2013 19:47 (спустя 20 часов) [-]0[+]

[Цитировать] 

Kostyani4
Ну если они так "продажны" и не самодостаточны,то что ещё от них ждать?Metallica,Megadeth или Iron Maiden знамениты и пишут то,что хотят,и до известности писали то,что хотели.
info [Профиль]  [ЛС] 

The Buzzhorn

Пол: Пол:Муж

Стаж: 6 лет 2 месяца

Сообщений: 901

Германия
Рейтинг

post 28-Фев-2013 12:56 (спустя 17 часов) [-]0[+]

[Цитировать] 

Заменил на идеальный рип.
info [Профиль]  [ЛС] 
Показать сообщения:    
Ответить на тему

Текущее время: 11-Дек 04:26

Часовой пояс: GMT + 4



Вы не можете начинать темы
Вы не можете отвечать на сообщения
Вы не можете редактировать свои сообщения
Вы не можете удалять свои сообщения
Вы не можете голосовать в опросах
Вы не можете прикреплять файлы к сообщениям
Вы не можете скачивать файлы