Ошибка

До окончания фрилича осталось:


(Punk-Rock) Pennywise - Discography - 1999-2012, FLAC (tracks+.cue), lossless

Ответить на тему
 
Автор Сообщение

The Royal

Пол: Пол:Муж

Стаж: 6 лет 11 месяцев

Сообщений: 652

Россия
Рейтинг

post 27-Янв-2013 17:38 0[+]

[Цитировать] 

pic="http://s002.youpic.su/pictures/1359234000/1af1294e29649ff5b45cccb6741f2b9e.png"
Pennywise - Discography

Жанр: Punk-Rock
Год издания данного носителя: 1999-2012
Страна-производитель носителя: USA
Аудио кодек: FLAC
Тип рипа: tracks+.cue
Битрейт аудио: lossless
Продолжительность: 07:38:39
Полиграфия: Отсутствует

Цитата:

"Pennywise" – одна из ключевых банд, возродивших панк движение в 90-х годах, и сумевших выдвинуть некоторую альтернативу нарастающей волне гранжа. Взяв за основу калифорнийский хардкор, музыканты привнесли в свой саунд фанк-метал и так называемый скейт-панк, причем тексты у них в отличие от гранжевиков оставались довольно-таки оптимистичными. "Pennywise" могли конечно достичь такого высокого статуса как "Offspring", "Green day" или "Bad Religion", но в силу ряда причин им это так и не удалось. Команда была сформирована в 1988 году гитаристом Флетчером Дрэггом и басистом Джейсоном Тирксом при участии Джима Линберга (вокал) и барабанщика Байрона Макмакина.

01. Greed (3:15)
02. My Own Country (2:36)
03. Can't Believe it (1:57)
04. Victim of Reality (2:28)
05. Might Be a Dream (2:43)
06. Still Can Be Great (2:53)
07. Straight Ahead (2:42)
08. My Own Way (2:52)
09. One Voice (2:46)
10. Alien (4:07)
11. Watch Me as I Fall (2:11)
12. Just For You (2:28)
13. Can't Take Anymore (3:16)
14. American Dream (2:57)
15. Need More (2:57)
16. Never Know (2:42)
17. Badge of Pride (3:36)
Exact Audio Copy V0.99 prebeta 4 from 23. January 2008 

EAC extraction logfile from 19. July 2008, 16:04

Pennywise / Straight Ahead

Used drive : PHILIPS DVD+-RW DVD8801 Adapter: 0 ID: 0

Read mode : Secure
Utilize accurate stream : Yes
Defeat audio cache : Yes
Make use of C2 pointers : No

Read offset correction : 618
Overread into Lead-In and Lead-Out : No
Fill up missing offset samples with silence : Yes
Delete leading and trailing silent blocks : No
Null samples used in CRC calculations : Yes
Used interface : Installed external ASPI interface
Gap handling : Appended to previous track

Used output format : User Defined Encoder
Selected bitrate : 128 kBit/s
Quality : High
Add ID3 tag : No
Command line compressor : C:\Program Files\Exact Audio Copy\Flac\flac.exe
Additional command line options : -8 -A tukey(0.25) -A gauss(0.1875) -b 4096 -V -T "artist=%a" -T "title=%t" -T "album=%g" -T "date=%y" -T "tracknumber=%n" -T "genre=%m" %s --sector-align

TOC of the extracted CD

Track | Start | Length | Start sector | End sector
---------------------------------------------------------
1 | 0:00.00 | 3:15.25 | 0 | 14649
2 | 3:15.25 | 2:36.15 | 14650 | 26364
3 | 5:51.40 | 1:57.12 | 26365 | 35151
4 | 7:48.52 | 2:28.28 | 35152 | 46279
5 | 10:17.05 | 2:43.32 | 46280 | 58536
6 | 13:00.37 | 2:52.50 | 58537 | 71486
7 | 15:53.12 | 2:41.50 | 71487 | 83611
8 | 18:34.62 | 2:52.05 | 83612 | 96516
9 | 21:26.67 | 2:46.10 | 96517 | 108976
10 | 24:13.02 | 4:07.10 | 108977 | 127511
11 | 28:20.12 | 2:10.40 | 127512 | 137301
12 | 30:30.52 | 2:28.10 | 137302 | 148411
13 | 32:58.62 | 3:15.43 | 148412 | 163079
14 | 36:14.30 | 2:57.20 | 163080 | 176374
15 | 39:11.50 | 2:56.65 | 176375 | 189639
16 | 42:08.40 | 2:42.32 | 189640 | 201821
17 | 44:50.72 | 3:35.70 | 201822 | 218016

Track 1

Filename C:\Documents and Settings\John\My Documents\7. Pennywise - Straight Ahead (FLAC)\01 - Pennywise - Greed.wav

Pre-gap length 0:00:02.00

Peak level 94.4 %
Track quality 100.0 %
Copy CRC F09B9947
Accurately ripped (confidence 18) [72079B8A]
Copy OK

Track 2

Filename C:\Documents and Settings\John\My Documents\7. Pennywise - Straight Ahead (FLAC)\02 - Pennywise - My Own Country.wav

Peak level 95.1 %
Track quality 100.0 %
Copy CRC 94A14916
Accurately ripped (confidence 18) [1D34CB5D]
Copy OK

Track 3

Filename C:\Documents and Settings\John\My Documents\7. Pennywise - Straight Ahead (FLAC)\03 - Pennywise - Can't Believe it.wav

Peak level 94.4 %
Track quality 100.0 %
Copy CRC 2E4727AE
Accurately ripped (confidence 18) [17689186]
Copy OK

Track 4

Filename C:\Documents and Settings\John\My Documents\7. Pennywise - Straight Ahead (FLAC)\04 - Pennywise - Victim of Reality.wav

Pre-gap length 0:00:00.60

Peak level 94.4 %
Track quality 100.0 %
Copy CRC 70E2FDEC
Accurately ripped (confidence 18) [58B93192]
Copy OK

Track 5

Filename C:\Documents and Settings\John\My Documents\7. Pennywise - Straight Ahead (FLAC)\05 - Pennywise - Might Be a Dream.wav

Pre-gap length 0:00:00.57

Peak level 100.0 %
Track quality 100.0 %
Copy CRC 85F89316
Accurately ripped (confidence 18) [BD081205]
Copy OK

Track 6

Filename C:\Documents and Settings\John\My Documents\7. Pennywise - Straight Ahead (FLAC)\06 - Pennywise - Still Can Be Great.wav

Peak level 94.4 %
Track quality 99.9 %
Copy CRC 00503D97
Accurately ripped (confidence 17) [64696566]
Copy OK

Track 7

Filename C:\Documents and Settings\John\My Documents\7. Pennywise - Straight Ahead (FLAC)\07 - Pennywise - Straight Ahead.wav

Peak level 94.7 %
Track quality 100.0 %
Copy CRC FA5FC409
Accurately ripped (confidence 18) [8E6374B6]
Copy OK

Track 8

Filename C:\Documents and Settings\John\My Documents\7. Pennywise - Straight Ahead (FLAC)\08 - Pennywise - My Own Way.wav

Pre-gap length 0:00:00.49

Peak level 94.4 %
Track quality 100.0 %
Copy CRC 497F69E6
Accurately ripped (confidence 18) [74EBC245]
Copy OK

Track 9

Filename C:\Documents and Settings\John\My Documents\7. Pennywise - Straight Ahead (FLAC)\09 - Pennywise - One Voice.wav

Pre-gap length 0:00:00.86

Peak level 100.0 %
Track quality 100.0 %
Copy CRC EBAD538B
Accurately ripped (confidence 18) [ABF28A81]
Copy OK

Track 10

Filename C:\Documents and Settings\John\My Documents\7. Pennywise - Straight Ahead (FLAC)\10 - Pennywise - Alien.wav

Pre-gap length 0:00:00.49

Peak level 97.7 %
Track quality 100.0 %
Copy CRC 7E6D8AE4
Accurately ripped (confidence 17) [8C31544A]
Copy OK

Track 11

Filename C:\Documents and Settings\John\My Documents\7. Pennywise - Straight Ahead (FLAC)\11 - Pennywise - Watch Me as I Fall.wav

Pre-gap length 0:00:01.16

Peak level 96.4 %
Track quality 100.0 %
Copy CRC 871419A9
Accurately ripped (confidence 17) [9409C3F3]
Copy OK

Track 12

Filename C:\Documents and Settings\John\My Documents\7. Pennywise - Straight Ahead (FLAC)\12 - Pennywise - Just For You.wav

Pre-gap length 0:00:00.09

Peak level 94.4 %
Track quality 100.0 %
Copy CRC 6BDD48E6
Accurately ripped (confidence 17) [3B8E4D8D]
Copy OK

Track 13

Filename C:\Documents and Settings\John\My Documents\7. Pennywise - Straight Ahead (FLAC)\13 - Pennywise - Can't Take Anymore.wav

Pre-gap length 0:00:00.42

Peak level 94.4 %
Track quality 99.9 %
Copy CRC 1F96305E
Accurately ripped (confidence 17) [AF0E6495]
Copy OK

Track 14

Filename C:\Documents and Settings\John\My Documents\7. Pennywise - Straight Ahead (FLAC)\14 - Pennywise - American Dream.wav

Pre-gap length 0:00:00.60

Peak level 94.4 %
Track quality 100.0 %
Copy CRC D2837C33
Accurately ripped (confidence 17) [9FEAD5B7]
Copy OK

Track 15

Filename C:\Documents and Settings\John\My Documents\7. Pennywise - Straight Ahead (FLAC)\15 - Pennywise - Need More.wav

Peak level 94.4 %
Track quality 100.0 %
Copy CRC 4B09F3CC
Accurately ripped (confidence 17) [54A378C2]
Copy OK

Track 16

Filename C:\Documents and Settings\John\My Documents\7. Pennywise - Straight Ahead (FLAC)\16 - Pennywise - Never Know.wav

Pre-gap length 0:00:00.13

Peak level 94.4 %
Track quality 100.0 %
Copy CRC 71AA15C6
Accurately ripped (confidence 18) [9D4C50B0]
Copy OK

Track 17

Filename C:\Documents and Settings\John\My Documents\7. Pennywise - Straight Ahead (FLAC)\17 - Pennywise - Badge of Pride.wav

Peak level 95.0 %
Track quality 100.0 %
Copy CRC 84DE0E72
Accurately ripped (confidence 17) [77A363A8]
Copy OK

All tracks accurately ripped

No errors occurred

End of status report
REM GENRE "Punk Hardcore" 
REM DATE 1999
REM DISCID EC0B5A11
REM COMMENT "ExactAudioCopy v0.99pb4"
PERFORMER "Pennywise"
TITLE "Straight Ahead"
FILE "01 - Pennywise - Greed.wav" WAVE
TRACK 01 AUDIO
TITLE "Greed"
PERFORMER "Pennywise"
INDEX 01 00:00:00
FILE "02 - Pennywise - My Own Country.wav" WAVE
TRACK 02 AUDIO
TITLE "My Own Country"
PERFORMER "Pennywise"
FLAGS DCP
INDEX 01 00:00:00
FILE "03 - Pennywise - Can't Believe it.wav" WAVE
TRACK 03 AUDIO
TITLE "Can't Believe it"
PERFORMER "Pennywise"
FLAGS DCP
INDEX 01 00:00:00
TRACK 04 AUDIO
TITLE "Victim of Reality"
PERFORMER "Pennywise"
FLAGS DCP
INDEX 00 01:56:42
FILE "04 - Pennywise - Victim of Reality.wav" WAVE
INDEX 01 00:00:00
TRACK 05 AUDIO
TITLE "Might Be a Dream"
PERFORMER "Pennywise"
FLAGS DCP
INDEX 00 02:27:60
FILE "05 - Pennywise - Might Be a Dream.wav" WAVE
INDEX 01 00:00:00
FILE "06 - Pennywise - Still Can Be Great.wav" WAVE
TRACK 06 AUDIO
TITLE "Still Can Be Great"
PERFORMER "Pennywise"
FLAGS DCP
INDEX 01 00:00:00
FILE "07 - Pennywise - Straight Ahead.wav" WAVE
TRACK 07 AUDIO
TITLE "Straight Ahead"
PERFORMER "Pennywise"
FLAGS DCP
INDEX 01 00:00:00
TRACK 08 AUDIO
TITLE "My Own Way"
PERFORMER "Pennywise"
FLAGS DCP
INDEX 00 02:41:13
FILE "08 - Pennywise - My Own Way.wav" WAVE
INDEX 01 00:00:00
TRACK 09 AUDIO
TITLE "One Voice"
PERFORMER "Pennywise"
FLAGS DCP
INDEX 00 02:51:15
FILE "09 - Pennywise - One Voice.wav" WAVE
INDEX 01 00:00:00
TRACK 10 AUDIO
TITLE "Alien"
PERFORMER "Pennywise"
FLAGS DCP
INDEX 00 02:45:48
FILE "10 - Pennywise - Alien.wav" WAVE
INDEX 01 00:00:00
TRACK 11 AUDIO
TITLE "Watch Me as I Fall"
PERFORMER "Pennywise"
FLAGS DCP
INDEX 00 04:05:73
FILE "11 - Pennywise - Watch Me as I Fall.wav" WAVE
INDEX 01 00:00:00
TRACK 12 AUDIO
TITLE "Just For You"
PERFORMER "Pennywise"
FLAGS DCP
INDEX 00 02:10:33
FILE "12 - Pennywise - Just For You.wav" WAVE
INDEX 01 00:00:00
TRACK 13 AUDIO
TITLE "Can't Take Anymore"
PERFORMER "Pennywise"
FLAGS DCP
INDEX 00 02:27:53
FILE "13 - Pennywise - Can't Take Anymore.wav" WAVE
INDEX 01 00:00:00
TRACK 14 AUDIO
TITLE "American Dream"
PERFORMER "Pennywise"
FLAGS DCP
INDEX 00 03:14:73
FILE "14 - Pennywise - American Dream.wav" WAVE
INDEX 01 00:00:00
FILE "15 - Pennywise - Need More.wav" WAVE
TRACK 15 AUDIO
TITLE "Need More"
PERFORMER "Pennywise"
FLAGS DCP
INDEX 01 00:00:00
TRACK 16 AUDIO
TITLE "Never Know"
PERFORMER "Pennywise"
FLAGS DCP
INDEX 00 02:56:55
FILE "16 - Pennywise - Never Know.wav" WAVE
INDEX 01 00:00:00
FILE "17 - Pennywise - Badge of Pride.wav" WAVE
TRACK 17 AUDIO
TITLE "Badge of Pride"
PERFORMER "Pennywise"
FLAGS DCP
INDEX 01 00:00:00
01. Time Marches On (2:57)
02. Land of the Free? (2:32)
03. The World (2:27)
04. Fuck Authority (3:16)
05. Something Wrong With Me (2:39)
06. Enemy (2:34)
07. My God (2:48)
08. Twist Of Fate (2:34)
09. Who's On Your Side (2:50)
10. It's Up To You (2:56)
11. Set Me Free (2:32)
12. Divine Intervention (3:31)
13. WTO (2:59)
14. Anyone Listening (3:00)
Exact Audio Copy V0.99 prebeta 4 from 23. January 2008 

EAC extraction logfile from 19. July 2008, 16:28

Pennywise / Land of the Free

Used drive : PHILIPS DVD+-RW DVD8801 Adapter: 0 ID: 0

Read mode : Secure
Utilize accurate stream : Yes
Defeat audio cache : Yes
Make use of C2 pointers : No

Read offset correction : 618
Overread into Lead-In and Lead-Out : No
Fill up missing offset samples with silence : Yes
Delete leading and trailing silent blocks : No
Null samples used in CRC calculations : Yes
Used interface : Installed external ASPI interface
Gap handling : Appended to previous track

Used output format : User Defined Encoder
Selected bitrate : 128 kBit/s
Quality : High
Add ID3 tag : No
Command line compressor : C:\Program Files\Exact Audio Copy\Flac\flac.exe
Additional command line options : -8 -A tukey(0.25) -A gauss(0.1875) -b 4096 -V -T "artist=%a" -T "title=%t" -T "album=%g" -T "date=%y" -T "tracknumber=%n" -T "genre=%m" %s --sector-align

TOC of the extracted CD

Track | Start | Length | Start sector | End sector
---------------------------------------------------------
1 | 0:00.00 | 2:57.07 | 0 | 13281
2 | 2:57.07 | 2:31.45 | 13282 | 24651
3 | 5:28.52 | 2:27.03 | 24652 | 35679
4 | 7:55.55 | 3:16.09 | 35680 | 50388
5 | 11:11.64 | 2:39.23 | 50389 | 62336
6 | 13:51.12 | 2:34.33 | 62337 | 73919
7 | 16:25.45 | 2:48.00 | 73920 | 86519
8 | 19:13.45 | 2:33.45 | 86520 | 98039
9 | 21:47.15 | 2:50.02 | 98040 | 110791
10 | 24:37.17 | 2:56.23 | 110792 | 124014
11 | 27:33.40 | 2:31.45 | 124015 | 135384
12 | 30:05.10 | 3:30.40 | 135385 | 151174
13 | 33:35.50 | 2:58.47 | 151175 | 164571
14 | 36:34.22 | 3:00.10 | 164572 | 178081

Track 1

Filename C:\Documents and Settings\John\My Documents\9. Pennywise - Land Of The Free (FLAC)\01 - Pennywise - Time Marches On.wav

Pre-gap length 0:00:02.00

Peak level 100.0 %
Track quality 100.0 %
Copy CRC F82DB0CD
Accurately ripped (confidence 23) [86B0DFA1]
Copy OK

Track 2

Filename C:\Documents and Settings\John\My Documents\9. Pennywise - Land Of The Free (FLAC)\02 - Pennywise - Land of the Free .wav

Pre-gap length 0:00:00.40

Peak level 100.0 %
Track quality 100.0 %
Copy CRC 833B5E47
Accurately ripped (confidence 23) [A5E3BF95]
Copy OK

Track 3

Filename C:\Documents and Settings\John\My Documents\9. Pennywise - Land Of The Free (FLAC)\03 - Pennywise - The World.wav

Pre-gap length 0:00:00.42

Peak level 93.3 %
Track quality 100.0 %
Copy CRC 92C1AE87
Accurately ripped (confidence 23) [3F33492C]
Copy OK

Track 4

Filename C:\Documents and Settings\John\My Documents\9. Pennywise - Land Of The Free (FLAC)\04 - Pennywise - Fuck Authority.wav

Pre-gap length 0:00:01.17

Peak level 93.3 %
Track quality 100.0 %
Copy CRC 81D4524C
Accurately ripped (confidence 23) [AF7B4B83]
Copy OK

Track 5

Filename C:\Documents and Settings\John\My Documents\9. Pennywise - Land Of The Free (FLAC)\05 - Pennywise - Something Wrong With Me.wav

Pre-gap length 0:00:01.22

Peak level 96.6 %
Track quality 100.0 %
Copy CRC F7AA60C9
Accurately ripped (confidence 23) [51912A99]
Copy OK

Track 6

Filename C:\Documents and Settings\John\My Documents\9. Pennywise - Land Of The Free (FLAC)\06 - Pennywise - Enemy.wav

Pre-gap length 0:00:00.82

Peak level 100.0 %
Track quality 100.0 %
Copy CRC 92E174EE
Accurately ripped (confidence 23) [679ECBD5]
Copy OK

Track 7

Filename C:\Documents and Settings\John\My Documents\9. Pennywise - Land Of The Free (FLAC)\07 - Pennywise - My God.wav

Pre-gap length 0:00:00.57

Peak level 93.9 %
Track quality 99.9 %
Copy CRC A673367F
Accurately ripped (confidence 23) [D6DEEDC7]
Copy OK

Track 8

Filename C:\Documents and Settings\John\My Documents\9. Pennywise - Land Of The Free (FLAC)\08 - Pennywise - Twist Of Fate.wav

Pre-gap length 0:00:01.44

Peak level 93.3 %
Track quality 100.0 %
Copy CRC 9A8D1C16
Accurately ripped (confidence 23) [CF8CCD24]
Copy OK

Track 9

Filename C:\Documents and Settings\John\My Documents\9. Pennywise - Land Of The Free (FLAC)\09 - Pennywise - Who's On Your Side.wav

Peak level 93.3 %
Track quality 99.9 %
Copy CRC 57DBF8C5
Accurately ripped (confidence 23) [E9E5D8D9]
Copy OK

Track 10

Filename C:\Documents and Settings\John\My Documents\9. Pennywise - Land Of The Free (FLAC)\10 - Pennywise - It's Up To You.wav

Pre-gap length 0:00:01.00

Peak level 93.3 %
Track quality 99.9 %
Copy CRC BBB2D3E9
Accurately ripped (confidence 23) [47A18A5D]
Copy OK

Track 11

Filename C:\Documents and Settings\John\My Documents\9. Pennywise - Land Of The Free (FLAC)\11 - Pennywise - Set Me Free.wav

Pre-gap length 0:00:00.97

Peak level 93.3 %
Track quality 100.0 %
Copy CRC A6E57A6C
Accurately ripped (confidence 23) [ABD60082]
Copy OK

Track 12

Filename C:\Documents and Settings\John\My Documents\9. Pennywise - Land Of The Free (FLAC)\12 - Pennywise - Divine Intervention.wav

Pre-gap length 0:00:00.70

Peak level 93.3 %
Track quality 99.9 %
Copy CRC D09F1398
Accurately ripped (confidence 23) [62FE2472]
Copy OK

Track 13

Filename C:\Documents and Settings\John\My Documents\9. Pennywise - Land Of The Free (FLAC)\13 - Pennywise - WTO.wav

Pre-gap length 0:00:00.66

Peak level 93.3 %
Track quality 99.9 %
Copy CRC ECAF024E
Accurately ripped (confidence 23) [3BD896CF]
Copy OK

Track 14

Filename C:\Documents and Settings\John\My Documents\9. Pennywise - Land Of The Free (FLAC)\14 - Pennywise - Anyone Listening.wav

Pre-gap length 0:00:00.66

Peak level 100.0 %
Track quality 100.0 %
Copy CRC E7A03FAF
Accurately ripped (confidence 23) [AEB58804]
Copy OK

All tracks accurately ripped

No errors occurred

End of status report
REM GENRE Punk 
REM DATE 2001
REM DISCID CC09460E
REM COMMENT "ExactAudioCopy v0.99pb4"
PERFORMER "Pennywise"
TITLE "Land of the Free"
FILE "01 - Pennywise - Time Marches On.wav" WAVE
TRACK 01 AUDIO
TITLE "Time Marches On"
PERFORMER "Pennywise"
INDEX 01 00:00:00
TRACK 02 AUDIO
TITLE "Land of the Free?"
PERFORMER "Pennywise"
FLAGS DCP
INDEX 00 02:56:52
FILE "02 - Pennywise - Land of the Free .wav" WAVE
INDEX 01 00:00:00
TRACK 03 AUDIO
TITLE "The World"
PERFORMER "Pennywise"
FLAGS DCP
INDEX 00 02:31:13
FILE "03 - Pennywise - The World.wav" WAVE
INDEX 01 00:00:00
TRACK 04 AUDIO
TITLE "Fuck Authority"
PERFORMER "Pennywise"
FLAGS DCP
INDEX 00 02:25:65
FILE "04 - Pennywise - Fuck Authority.wav" WAVE
INDEX 01 00:00:00
TRACK 05 AUDIO
TITLE "Something Wrong With Me"
PERFORMER "Pennywise"
FLAGS DCP
INDEX 00 03:14:67
FILE "05 - Pennywise - Something Wrong With Me.wav" WAVE
INDEX 01 00:00:00
TRACK 06 AUDIO
TITLE "Enemy"
PERFORMER "Pennywise"
FLAGS DCP
INDEX 00 02:38:36
FILE "06 - Pennywise - Enemy.wav" WAVE
INDEX 01 00:00:00
TRACK 07 AUDIO
TITLE "My God"
PERFORMER "Pennywise"
FLAGS DCP
INDEX 00 02:33:65
FILE "07 - Pennywise - My God.wav" WAVE
INDEX 01 00:00:00
TRACK 08 AUDIO
TITLE "Twist Of Fate"
PERFORMER "Pennywise"
FLAGS DCP
INDEX 00 02:46:42
FILE "08 - Pennywise - Twist Of Fate.wav" WAVE
INDEX 01 00:00:00
FILE "09 - Pennywise - Who's On Your Side.wav" WAVE
TRACK 09 AUDIO
TITLE "Who's On Your Side"
PERFORMER "Pennywise"
FLAGS DCP
INDEX 01 00:00:00
TRACK 10 AUDIO
TITLE "It's Up To You"
PERFORMER "Pennywise"
FLAGS DCP
INDEX 00 02:49:02
FILE "10 - Pennywise - It's Up To You.wav" WAVE
INDEX 01 00:00:00
TRACK 11 AUDIO
TITLE "Set Me Free"
PERFORMER "Pennywise"
FLAGS DCP
INDEX 00 02:55:25
FILE "11 - Pennywise - Set Me Free.wav" WAVE
INDEX 01 00:00:00
TRACK 12 AUDIO
TITLE "Divine Intervention"
PERFORMER "Pennywise"
FLAGS DCP
INDEX 00 02:30:67
FILE "12 - Pennywise - Divine Intervention.wav" WAVE
INDEX 01 00:00:00
TRACK 13 AUDIO
TITLE "WTO"
PERFORMER "Pennywise"
FLAGS DCP
INDEX 00 03:29:65
FILE "13 - Pennywise - WTO.wav" WAVE
INDEX 01 00:00:00
TRACK 14 AUDIO
TITLE "Anyone Listening"
PERFORMER "Pennywise"
FLAGS DCP
INDEX 00 02:57:72
FILE "14 - Pennywise - Anyone Listening.wav" WAVE
INDEX 01 00:00:00
01. Now I Know (2:59)
02. God Save The USA (3:07)
03. Something To Change (2:42)
04. Waiting (3:00)
05. Salvation (2:42)
06. Look Who You Are (3:06)
07. Falling Down (2:56)
08. Holiday In The Sun (3:07)
09. This Is Only A Test (2:57)
10. Punch Drunk (3:10)
11. Rise Up (2:47)
12. Yesterdays (3:35)
13. Change My Mind (2:10)
14. Judgment Day (2:50)
EAC extraction logfile from 28. October 2005, 14:48 for CD 
Pennywise / From The Ashes

Used drive : PIONEER DVD-RW DVR-109 Adapter: 3 ID: 0
Read mode : Secure with NO C2, accurate stream, disable cache
Read offset correction : 48
Overread into Lead-In and Lead-Out : Yes

Used output format : C:\Program Files\wavpack\wavpack.exe (User Defined Encoder)
128 kBit/s
Additional command line options : -hm -w "Track=%n" -w "Title=%t" -w "Artist=%a" -w "Album=%g" -w "Date=%y" -w "Genre=%m" %s

Other options :
Fill up missing offset samples with silence : Yes
Delete leading and trailing silent blocks : No
Installed external ASPI interface

Track 1
Filename D:\Temp\Pennywise\From The Ashes\01. Now I Know.wav

Pre-gap length 0:00:02.00

Peak level 100.0 %
Track quality 100.0 %
Test CRC 949B3377
Copy CRC 949B3377
Copy OK

Track 2
Filename D:\Temp\Pennywise\From The Ashes\02. God Save The USA.wav

Pre-gap length 0:00:00.70

Peak level 100.0 %
Track quality 99.9 %
Test CRC B50AB81F
Copy CRC B50AB81F
Copy OK

Track 3
Filename D:\Temp\Pennywise\From The Ashes\03. Something To Change.wav

Peak level 100.0 %
Track quality 100.0 %
Test CRC D6EF5CB2
Copy CRC D6EF5CB2
Copy OK

Track 4
Filename D:\Temp\Pennywise\From The Ashes\04. Waiting.wav

Peak level 100.0 %
Track quality 99.9 %
Test CRC 8D834E9B
Copy CRC 8D834E9B
Copy OK

Track 5
Filename D:\Temp\Pennywise\From The Ashes\05. Salvation.wav

Peak level 100.0 %
Track quality 100.0 %
Test CRC 77C572CE
Copy CRC 77C572CE
Copy OK

Track 6
Filename D:\Temp\Pennywise\From The Ashes\06. Look Who You Are.wav

Pre-gap length 0:00:01.00

Peak level 100.0 %
Track quality 100.0 %
Test CRC 31D2E6D4
Copy CRC 31D2E6D4
Copy OK

Track 7
Filename D:\Temp\Pennywise\From The Ashes\07. Falling Down.wav

Peak level 100.0 %
Track quality 100.0 %
Test CRC DA09E724
Copy CRC DA09E724
Copy OK

Track 8
Filename D:\Temp\Pennywise\From The Ashes\08. Holiday In The Sun.wav

Pre-gap length 0:00:00.50

Peak level 100.0 %
Track quality 99.9 %
Test CRC 23394AEF
Copy CRC 23394AEF
Copy OK

Track 9
Filename D:\Temp\Pennywise\From The Ashes\09. This Is Only A Test.wav

Peak level 100.0 %
Track quality 100.0 %
Test CRC AFE80DF1
Copy CRC AFE80DF1
Copy OK

Track 10
Filename D:\Temp\Pennywise\From The Ashes\10. Punch Drunk.wav

Peak level 100.0 %
Track quality 100.0 %
Test CRC 91F2C624
Copy CRC 91F2C624
Copy OK

Track 11
Filename D:\Temp\Pennywise\From The Ashes\11. Rise Up.wav

Peak level 100.0 %
Track quality 100.0 %
Test CRC 8778E26E
Copy CRC 8778E26E
Copy OK

Track 12
Filename D:\Temp\Pennywise\From The Ashes\12. Yesterdays.wav

Pre-gap length 0:00:00.96

Peak level 100.0 %
Track quality 100.0 %
Test CRC A70230BC
Copy CRC A70230BC
Copy OK

Track 13
Filename D:\Temp\Pennywise\From The Ashes\13. Change My Mind.wav

Peak level 100.0 %
Track quality 100.0 %
Test CRC B89957E8
Copy CRC B89957E8
Copy OK

Track 14
Filename D:\Temp\Pennywise\From The Ashes\14. Judgment Day.wav

Pre-gap length 0:00:01.06

Peak level 100.0 %
Track quality 100.0 %
Test CRC DE163B14
Copy CRC DE163B14
Copy OK

No errors occured

End of status report
REM GENRE Punk 
REM DATE 2003
REM DISCID BB09A40E
REM COMMENT "ExactAudioCopy v0.95b3"
PERFORMER "Pennywise"
TITLE "From The Ashes"
FILE "Pennywise\From The Ashes\01. Now I Know.wav" WAVE
TRACK 01 AUDIO
TITLE "Now I Know"
PERFORMER "Pennywise"
INDEX 01 00:00:00
TRACK 02 AUDIO
TITLE "God Save The USA"
PERFORMER "Pennywise"
INDEX 00 02:58:37
FILE "Pennywise\From The Ashes\02. God Save The USA.wav" WAVE
INDEX 01 00:00:00
FILE "Pennywise\From The Ashes\03. Something To Change.wav" WAVE
TRACK 03 AUDIO
TITLE "Something To Change"
PERFORMER "Pennywise"
INDEX 01 00:00:00
FILE "Pennywise\From The Ashes\04. Waiting.wav" WAVE
TRACK 04 AUDIO
TITLE "Waiting"
PERFORMER "Pennywise"
INDEX 01 00:00:00
FILE "Pennywise\From The Ashes\05. Salvation.wav" WAVE
TRACK 05 AUDIO
TITLE "Salvation"
PERFORMER "Pennywise"
INDEX 01 00:00:00
TRACK 06 AUDIO
TITLE "Look Who You Are"
PERFORMER "Pennywise"
INDEX 00 02:41:30
FILE "Pennywise\From The Ashes\06. Look Who You Are.wav" WAVE
INDEX 01 00:00:00
FILE "Pennywise\From The Ashes\07. Falling Down.wav" WAVE
TRACK 07 AUDIO
TITLE "Falling Down"
PERFORMER "Pennywise"
INDEX 01 00:00:00
TRACK 08 AUDIO
TITLE "Holiday In The Sun"
PERFORMER "Pennywise"
INDEX 00 02:55:37
FILE "Pennywise\From The Ashes\08. Holiday In The Sun.wav" WAVE
INDEX 01 00:00:00
FILE "Pennywise\From The Ashes\09. This Is Only A Test.wav" WAVE
TRACK 09 AUDIO
TITLE "This Is Only A Test"
PERFORMER "Pennywise"
INDEX 01 00:00:00
FILE "Pennywise\From The Ashes\10. Punch Drunk.wav" WAVE
TRACK 10 AUDIO
TITLE "Punch Drunk"
PERFORMER "Pennywise"
INDEX 01 00:00:00
FILE "Pennywise\From The Ashes\11. Rise Up.wav" WAVE
TRACK 11 AUDIO
TITLE "Rise Up"
PERFORMER "Pennywise"
INDEX 01 00:00:00
TRACK 12 AUDIO
TITLE "Yesterdays"
PERFORMER "Pennywise"
INDEX 00 02:46:33
FILE "Pennywise\From The Ashes\12. Yesterdays.wav" WAVE
INDEX 01 00:00:00
FILE "Pennywise\From The Ashes\13. Change My Mind.wav" WAVE
TRACK 13 AUDIO
TITLE "Change My Mind"
PERFORMER "Pennywise"
INDEX 01 00:00:00
TRACK 14 AUDIO
TITLE "Judgment Day"
PERFORMER "Pennywise"
INDEX 00 02:08:65
FILE "Pennywise\From The Ashes\14. Judgment Day.wav" WAVE
INDEX 01 00:00:00
01. Wouldn't It Be Nice (2:07)
02. Rules (1:26)
03. The Secret (3:34)
04. Living For Today (3:08)
05. Come Out Fighting (2:17)
06. Homeless (2:10)
07. Open Door (1:42)
08. Pennywise (1:38)
09. Who's To Blame (1:36)
10. Fun And Games (2:33)
11. Kodiak (1:46)
12. Side One (2:11)
13. No Reason Why (2:38)
14. Bro Hymn (3:01)
15. Psycho 89 (1:53)
01. Unknown Road (2:45)
02. Homesick (2:17)
03. Time To Burn (2:17)
04. It's Up To Me (3:16)
05. You Can Demand (2:17)
06. Nothing (2:34)
07. Vices (2:04)
08. City Is Burning (2:12)
09. Dying To Know (3:05)
10. Tester (3:15)
11. Try To Conform (2:41)
12. Give And Get (2:01)
13. Clear Your Head (2:51)
14. Slowdown (2:52)
EAC extraction logfile from 7. January 2007, 5:28 for CD 
Pennywise / Unknown Road (Remastered)

Used drive : TOSHIBA DVD-ROM SD-M1612 Adapter: 1 ID: 1
Read mode : Secure with NO C2, accurate stream, disable cache
Read offset correction : -472
Overread into Lead-In and Lead-Out : No

Used output format : C:\Program Files\FLAC\flac.exe (User Defined Encoder)
128 kBit/s
Additional command line options : -V -8 -T "artist=%a" -T "title=%t" -T "album=%g" -T "date=%y" -T "tracknumber=%n" -T "genre=%m" %s

Other options :
Fill up missing offset samples with silence : Yes
Delete leading and trailing silent blocks : No
Installed external ASPI interface

Track 1
Filename H:\Torrent Uploads\Unknown Road FLAC\01 - Unknown Road.wav

Pre-gap length 0:00:02.00

Peak level 99.8 %
Track quality 100.0 %
Copy CRC 8CDD547F
Copy OK

Track 2
Filename H:\Torrent Uploads\Unknown Road FLAC\02 - Homesick.wav

Pre-gap length 0:00:01.16

Peak level 99.8 %
Track quality 100.0 %
Copy CRC 1F4ABBE2
Copy OK

Track 3
Filename H:\Torrent Uploads\Unknown Road FLAC\03 - Time To Burn.wav

Pre-gap length 0:00:00.61

Peak level 99.8 %
Track quality 99.9 %
Copy CRC 65212D26
Copy OK

Track 4
Filename H:\Torrent Uploads\Unknown Road FLAC\04 - It's Up To Me.wav

Peak level 99.8 %
Track quality 100.0 %
Copy CRC 1C9DA99C
Copy OK

Track 5
Filename H:\Torrent Uploads\Unknown Road FLAC\05 - You Can Demand.wav

Pre-gap length 0:00:00.98

Peak level 99.8 %
Track quality 100.0 %
Copy CRC 515166DE
Copy OK

Track 6
Filename H:\Torrent Uploads\Unknown Road FLAC\06 - Nothing.wav

Pre-gap length 0:00:01.12

Peak level 99.8 %
Track quality 100.0 %
Copy CRC B4A5B4EC
Copy OK

Track 7
Filename H:\Torrent Uploads\Unknown Road FLAC\07 - Vices.wav

Pre-gap length 0:00:00.88

Peak level 99.8 %
Track quality 100.0 %
Copy CRC 83A6D365
Copy OK

Track 8
Filename H:\Torrent Uploads\Unknown Road FLAC\08 - City Is Burning.wav

Pre-gap length 0:00:00.81

Peak level 99.8 %
Track quality 100.0 %
Copy CRC C83D7876
Copy OK

Track 9
Filename H:\Torrent Uploads\Unknown Road FLAC\09 - Dying To Know.wav

Pre-gap length 0:00:01.25

Peak level 99.8 %
Track quality 100.0 %
Copy CRC D72C0092
Copy OK

Track 10
Filename H:\Torrent Uploads\Unknown Road FLAC\10 - Tester.wav

Pre-gap length 0:00:01.58

Peak level 99.8 %
Track quality 100.0 %
Copy CRC D8E31F78
Copy OK

Track 11
Filename H:\Torrent Uploads\Unknown Road FLAC\11 - Try To Conform.wav

Pre-gap length 0:00:01.16

Peak level 99.8 %
Track quality 100.0 %
Copy CRC 5DF7E810
Copy OK

Track 12
Filename H:\Torrent Uploads\Unknown Road FLAC\12 - Give And Get.wav

Pre-gap length 0:00:01.09

Peak level 99.8 %
Track quality 100.0 %
Copy CRC 33F530E5
Copy OK

Track 13
Filename H:\Torrent Uploads\Unknown Road FLAC\13 - Clear Your Head.wav

Pre-gap length 0:00:00.80

Peak level 99.8 %
Track quality 100.0 %
Copy CRC C6B43777
Copy OK

Track 14
Filename H:\Torrent Uploads\Unknown Road FLAC\14 - Slowdown.wav

Pre-gap length 0:00:00.01

Peak level 99.8 %
Track quality 100.0 %
Copy CRC 465BF49D
Copy OK

No errors occured

End of status report
REM GENRE Punk 
REM DATE 1993
REM DISCID B1088A0E
REM COMMENT "ExactAudioCopy v0.95b4"
PERFORMER "Pennywise"
TITLE "Unknown Road (Remastered)"
FILE "01 - Unknown Road.wav" WAVE
TRACK 01 AUDIO
TITLE "Unknown Road"
PERFORMER "Pennywise"
INDEX 01 00:00:00
TRACK 02 AUDIO
TITLE "Homesick"
PERFORMER "Pennywise"
INDEX 00 02:43:50
FILE "02 - Homesick.wav" WAVE
INDEX 01 00:00:00
TRACK 03 AUDIO
TITLE "Time To Burn"
PERFORMER "Pennywise"
INDEX 00 02:16:08
FILE "03 - Time To Burn.wav" WAVE
INDEX 01 00:00:00
FILE "04 - It's Up To Me.wav" WAVE
TRACK 04 AUDIO
TITLE "It's Up To Me"
PERFORMER "Pennywise"
INDEX 01 00:00:00
TRACK 05 AUDIO
TITLE "You Can Demand"
PERFORMER "Pennywise"
INDEX 00 03:15:03
FILE "05 - You Can Demand.wav" WAVE
INDEX 01 00:00:00
TRACK 06 AUDIO
TITLE "Nothing"
PERFORMER "Pennywise"
INDEX 00 02:16:22
FILE "06 - Nothing.wav" WAVE
INDEX 01 00:00:00
TRACK 07 AUDIO
TITLE "Vices"
PERFORMER "Pennywise"
INDEX 00 02:32:68
FILE "07 - Vices.wav" WAVE
INDEX 01 00:00:00
TRACK 08 AUDIO
TITLE "City Is Burning"
PERFORMER "Pennywise"
INDEX 00 02:03:10
FILE "08 - City Is Burning.wav" WAVE
INDEX 01 00:00:00
TRACK 09 AUDIO
TITLE "Dying To Know"
PERFORMER "Pennywise"
INDEX 00 02:10:63
FILE "09 - Dying To Know.wav" WAVE
INDEX 01 00:00:00
TRACK 10 AUDIO
TITLE "Tester"
PERFORMER "Pennywise"
INDEX 00 03:03:68
FILE "10 - Tester.wav" WAVE
INDEX 01 00:00:00
TRACK 11 AUDIO
TITLE "Try To Conform"
PERFORMER "Pennywise"
INDEX 00 03:14:15
FILE "11 - Try To Conform.wav" WAVE
INDEX 01 00:00:00
TRACK 12 AUDIO
TITLE "Give And Get"
PERFORMER "Pennywise"
INDEX 00 02:39:44
FILE "12 - Give And Get.wav" WAVE
INDEX 01 00:00:00
TRACK 13 AUDIO
TITLE "Clear Your Head"
PERFORMER "Pennywise"
INDEX 00 02:00:18
FILE "13 - Clear Your Head.wav" WAVE
INDEX 01 00:00:00
TRACK 14 AUDIO
TITLE "Slowdown"
PERFORMER "Pennywise"
INDEX 00 02:50:52
FILE "14 - Slowdown.wav" WAVE
INDEX 01 00:00:00
01. Peaceful Day (2:52)
02. Waste Of Time (2:18)
03. Perfect People (3:06)
04. Every Single Day (2:41)
05. Searching (2:55)
06. Not Far Away (2:53)
07. Freebase (2:42)
08. It's What You Do With It (2:27)
09. Try (2:34)
10. Same Old Story (2:43)
11. I Won't Have It (2:30)
12. Killing Time (2:39)
EAC extraction logfile from 14. January 2007, 15:42 for CD 
Pennywise / About Time (Remastered)

Used drive : TOSHIBA DVD-ROM SD-M1612 Adapter: 1 ID: 1
Read mode : Secure with NO C2, accurate stream, disable cache
Read offset correction : -472
Overread into Lead-In and Lead-Out : No

Used output format : C:\Program Files\FLAC\flac.exe (User Defined Encoder)
128 kBit/s
Additional command line options : -V -8 -T "artist=%a" -T "title=%t" -T "album=%g" -T "date=%y" -T "tracknumber=%n" -T "genre=%m" %s

Other options :
Fill up missing offset samples with silence : Yes
Delete leading and trailing silent blocks : No
Installed external ASPI interface

Track 1
Filename H:\Torrent Uploads\About Time\01 - Peaceful Day.wav

Pre-gap length 0:00:02.00

Peak level 99.8 %
Track quality 100.0 %
Copy CRC 0F5AE034
Copy OK

Track 2
Filename H:\Torrent Uploads\About Time\02 - Waste Of Time.wav

Pre-gap length 0:00:00.25

Peak level 99.8 %
Track quality 99.9 %
Copy CRC 7E7E1079
Copy OK

Track 3
Filename H:\Torrent Uploads\About Time\03 - Perfect People.wav

Pre-gap length 0:00:00.48

Peak level 99.8 %
Track quality 99.9 %
Copy CRC C98ADA33
Copy OK

Track 4
Filename H:\Torrent Uploads\About Time\04 - Every Single Day.wav

Pre-gap length 0:00:01.29

Peak level 99.8 %
Track quality 100.0 %
Copy CRC 4A3FC70C
Copy OK

Track 5
Filename H:\Torrent Uploads\About Time\05 - Searching.wav

Pre-gap length 0:00:00.81

Peak level 99.8 %
Track quality 100.0 %
Copy CRC 0D1B1E4A
Copy OK

Track 6
Filename H:\Torrent Uploads\About Time\06 - Not Far Away.wav

Pre-gap length 0:00:01.09

Peak level 99.8 %
Track quality 100.0 %
Copy CRC EFAF4DEB
Copy OK

Track 7
Filename H:\Torrent Uploads\About Time\07 - Freebase.wav

Pre-gap length 0:00:01.37

Peak level 99.8 %
Track quality 99.9 %
Copy CRC 2604EC0A
Copy OK

Track 8
Filename H:\Torrent Uploads\About Time\08 - It's What You Do With It.wav

Pre-gap length 0:00:00.42

Peak level 99.8 %
Track quality 100.0 %
Copy CRC E04D276F
Copy OK

Track 9
Filename H:\Torrent Uploads\About Time\09 - Try.wav

Pre-gap length 0:00:00.42

Peak level 99.8 %
Track quality 99.9 %
Copy CRC DE40273C
Copy OK

Track 10
Filename H:\Torrent Uploads\About Time\10 - Same Old Story.wav

Pre-gap length 0:00:01.74

Peak level 99.8 %
Track quality 100.0 %
Copy CRC A2127BD8
Copy OK

Track 11
Filename H:\Torrent Uploads\About Time\11 - I Won't Have It.wav

Pre-gap length 0:00:00.69

Peak level 99.8 %
Track quality 100.0 %
Copy CRC E8776E3B
Copy OK

Track 12
Filename H:\Torrent Uploads\About Time\12 - Killing Time.wav

Pre-gap length 0:00:00.53

Peak level 99.8 %
Track quality 100.0 %
Copy CRC F6AEF398
Copy OK

No errors occured

End of status report
REM GENRE "Punk Rock" 
REM DATE 2005
REM DISCID 9D07920C
REM COMMENT "ExactAudioCopy v0.95b4"
PERFORMER "Pennywise"
TITLE "About Time (Remastered)"
FILE "01 - Peaceful Day.wav" WAVE
TRACK 01 AUDIO
TITLE "Peaceful Day"
PERFORMER "Pennywise"
INDEX 01 00:00:00
TRACK 02 AUDIO
TITLE "Waste Of Time"
PERFORMER "Pennywise"
INDEX 00 02:51:49
FILE "02 - Waste Of Time.wav" WAVE
INDEX 01 00:00:00
TRACK 03 AUDIO
TITLE "Perfect People"
PERFORMER "Pennywise"
INDEX 00 02:18:00
FILE "03 - Perfect People.wav" WAVE
INDEX 01 00:00:00
TRACK 04 AUDIO
TITLE "Every Single Day"
PERFORMER "Pennywise"
INDEX 00 03:04:47
FILE "04 - Every Single Day.wav" WAVE
INDEX 01 00:00:00
TRACK 05 AUDIO
TITLE "Searching"
PERFORMER "Pennywise"
INDEX 00 02:39:52
FILE "05 - Searching.wav" WAVE
INDEX 01 00:00:00
TRACK 06 AUDIO
TITLE "Not Far Away"
PERFORMER "Pennywise"
INDEX 00 02:53:73
FILE "06 - Not Far Away.wav" WAVE
INDEX 01 00:00:00
TRACK 07 AUDIO
TITLE "Freebase"
PERFORMER "Pennywise"
INDEX 00 02:51:62
FILE "07 - Freebase.wav" WAVE
INDEX 01 00:00:00
TRACK 08 AUDIO
TITLE "It's What You Do With It"
PERFORMER "Pennywise"
INDEX 00 02:41:18
FILE "08 - It's What You Do With It.wav" WAVE
INDEX 01 00:00:00
TRACK 09 AUDIO
TITLE "Try"
PERFORMER "Pennywise"
INDEX 00 02:26:11
FILE "09 - Try.wav" WAVE
INDEX 01 00:00:00
TRACK 10 AUDIO
TITLE "Same Old Story"
PERFORMER "Pennywise"
INDEX 00 02:32:07
FILE "10 - Same Old Story.wav" WAVE
INDEX 01 00:00:00
TRACK 11 AUDIO
TITLE "I Won't Have It"
PERFORMER "Pennywise"
INDEX 00 02:42:19
FILE "11 - I Won't Have It.wav" WAVE
INDEX 01 00:00:00
TRACK 12 AUDIO
TITLE "Killing Time"
PERFORMER "Pennywise"
INDEX 00 02:29:53
FILE "12 - Killing Time.wav" WAVE
INDEX 01 00:00:00
01. Fight Till You Die (2:23)
02. Date With Destiny (2:56)
03. Get A Life (2:56)
04. Society (3:25)
05. Final Day (3:11)
06. Broken (2:46)
07. Running Out Of Time (2:22)
08. You'll Never Make It (2:36)
09. Every Time (3:37)
10. Nowhere Fast (2:57)
11. What If I (2:56)
12. Go Away (1:51)
13. Did You Really (2:52)
14. Bro Hymn Tribute (8:11)
15. Hidden Track (13:47)
Exact Audio Copy V0.99 prebeta 3 from 28. July 2007 

EAC extraction logfile from 15. January 2008, 9:42

Pennywise / Full Circle [Remastered]

Used drive : TSSTcorpCD/DVDW TS-H552U Adapter: 0 ID: 1

Read mode : Secure
Utilize accurate stream : Yes
Defeat audio cache : No
Make use of C2 pointers : Yes

Read offset correction : 12
Overread into Lead-In and Lead-Out : No
Fill up missing offset samples with silence : Yes
Delete leading and trailing silent blocks : No
Null samples used in CRC calculations : Yes
Used interface : Native Win32 interface for Win NT & 2000
Gap handling : Appended to previous track

Used output format : User Defined Encoder
Selected bitrate : 768 kBit/s
Quality : High
Add ID3 tag : No
Command line compressor : C:\Program Files\Exact Audio Copy\FLAC\FLAC.EXE
Additional command line options : -6 -V -T "ARTIST=%a" -T "TITLE=%t" -T "ALBUM=%g" -T "DATE=%y" -T "TRACKNUMBER=%n" -T "GENRE=%m" -T "COMMENT=%e" %s -o %d

TOC of the extracted CD

Track | Start | Length | Start sector | End sector
---------------------------------------------------------
1 | 0:00.00 | 2:23.07 | 0 | 10731
2 | 2:23.07 | 2:55.64 | 10732 | 23920
3 | 5:18.71 | 2:56.16 | 23921 | 37136
4 | 8:15.12 | 3:24.59 | 37137 | 52495
5 | 11:39.71 | 3:11.13 | 52496 | 66833
6 | 14:51.09 | 2:46.03 | 66834 | 79286
7 | 17:37.12 | 2:21.41 | 79287 | 89902
8 | 19:58.53 | 2:35.38 | 89903 | 101565
9 | 22:34.16 | 3:36.65 | 101566 | 117830
10 | 26:11.06 | 2:56.62 | 117831 | 131092
11 | 29:07.68 | 2:55.42 | 131093 | 144259
12 | 32:03.35 | 1:50.72 | 144260 | 152581
13 | 33:54.32 | 2:51.63 | 152582 | 165469
14 | 36:46.20 | 8:11.26 | 165470 | 202320
15 | 44:57.46 | 13:47.34 | 202321 | 264379

Track 1

Filename L:\Audio\Flac\Pennywise (2004) Full Circle [Remastered]\01 Fight Till You Die.wav

Pre-gap length 0:00:02.00

Peak level 99.9 %
Track quality 99.8 %
Copy CRC C7BF5557
Accurately ripped (confidence 2) [5A95350D]
Copy OK

Track 2

Filename L:\Audio\Flac\Pennywise (2004) Full Circle [Remastered]\02 Date With Destiny.wav

Pre-gap length 0:00:00.09

Peak level 99.9 %
Track quality 100.0 %
Copy CRC 920BC187
Accurately ripped (confidence 2) [5869C543]
Copy OK

Track 3

Filename L:\Audio\Flac\Pennywise (2004) Full Circle [Remastered]\03 Get A Life.wav

Peak level 99.9 %
Track quality 100.0 %
Copy CRC D416A6AE
Accurately ripped (confidence 2) [154D4B83]
Copy OK

Track 4

Filename L:\Audio\Flac\Pennywise (2004) Full Circle [Remastered]\04 Society.wav

Pre-gap length 0:00:00.19

Peak level 99.9 %
Track quality 100.0 %
Copy CRC 234706B7
Accurately ripped (confidence 2) [74DDA3F8]
Copy OK

Track 5

Filename L:\Audio\Flac\Pennywise (2004) Full Circle [Remastered]\05 Final Day.wav

Pre-gap length 0:00:00.03

Peak level 99.9 %
Track quality 100.0 %
Copy CRC 2A481352
Accurately ripped (confidence 2) [C058574E]
Copy OK

Track 6

Filename L:\Audio\Flac\Pennywise (2004) Full Circle [Remastered]\06 Broken.wav

Peak level 99.9 %
Track quality 100.0 %
Copy CRC 32382EC4
Accurately ripped (confidence 2) [EAC371D5]
Copy OK

Track 7

Filename L:\Audio\Flac\Pennywise (2004) Full Circle [Remastered]\07 Running Out Of Time.wav

Pre-gap length 0:00:00.03

Peak level 99.9 %
Track quality 100.0 %
Copy CRC F91786D6
Accurately ripped (confidence 2) [34895640]
Copy OK

Track 8

Filename L:\Audio\Flac\Pennywise (2004) Full Circle [Remastered]\08 You'll Never Make It.wav

Pre-gap length 0:00:00.30

Peak level 99.9 %
Track quality 100.0 %
Copy CRC 26485217
Accurately ripped (confidence 2) [D8C30FA4]
Copy OK

Track 9

Filename L:\Audio\Flac\Pennywise (2004) Full Circle [Remastered]\09 Every Time.wav

Peak level 99.9 %
Track quality 100.0 %
Copy CRC F26E6E92
Accurately ripped (confidence 2) [1CA4BAE7]
Copy OK

Track 10

Filename L:\Audio\Flac\Pennywise (2004) Full Circle [Remastered]\10 Nowhere Fast.wav

Pre-gap length 0:00:00.11

Peak level 99.9 %
Track quality 100.0 %
Copy CRC AF2A18CE
Accurately ripped (confidence 2) [81D3FC2F]
Copy OK

Track 11

Filename L:\Audio\Flac\Pennywise (2004) Full Circle [Remastered]\11 What If I.wav

Pre-gap length 0:00:00.04

Peak level 99.9 %
Track quality 100.0 %
Copy CRC 063DB6C7
Accurately ripped (confidence 2) [2EEB4176]
Copy OK

Track 12

Filename L:\Audio\Flac\Pennywise (2004) Full Circle [Remastered]\12 Go Away.wav

Pre-gap length 0:00:00.04

Peak level 99.9 %
Track quality 100.0 %
Copy CRC 6F5A5766
Accurately ripped (confidence 2) [90BDB3C0]
Copy OK

Track 13

Filename L:\Audio\Flac\Pennywise (2004) Full Circle [Remastered]\13 Did You Really.wav

Pre-gap length 0:00:00.07

Peak level 99.9 %
Track quality 100.0 %
Copy CRC F5106E54
Accurately ripped (confidence 2) [03914BB0]
Copy OK

Track 14

Filename L:\Audio\Flac\Pennywise (2004) Full Circle [Remastered]\14 Bro Hymn Tribute.wav

Pre-gap length 0:00:01.52

Peak level 99.9 %
Track quality 100.0 %
Copy CRC 6DA75220
Accurately ripped (confidence 2) [2FB86FBD]
Copy OK

Track 15

Filename L:\Audio\Flac\Pennywise (2004) Full Circle [Remastered]\15 Hidden Track.wav

Pre-gap length 0:03:00.03

Peak level 99.9 %
Track quality 99.9 %
Copy CRC 19F8FE64
Accurately ripped (confidence 2) [A6531C1B]
Copy OK

All tracks accurately ripped

No errors occurred

End of status report
REM GENRE "Punk Rock" 
REM DATE 2004
REM DISCID C90DC50F
REM COMMENT "ExactAudioCopy v0.99pb3"
PERFORMER "Pennywise"
TITLE "Full Circle [Remastered]"
FILE "Pennywise (2004) Full Circle [Remastered]\01 Fight Till You Die.wav" WAVE
TRACK 01 AUDIO
TITLE "Fight Till You Die"
PERFORMER "Pennywise"
ISRC USEP40419401
INDEX 01 00:00:00
TRACK 02 AUDIO
TITLE "Date With Destiny"
PERFORMER "Pennywise"
ISRC USEP40419402
INDEX 00 02:22:73
FILE "Pennywise (2004) Full Circle [Remastered]\02 Date With Destiny.wav" WAVE
INDEX 01 00:00:00
FILE "Pennywise (2004) Full Circle [Remastered]\03 Get A Life.wav" WAVE
TRACK 03 AUDIO
TITLE "Get A Life"
PERFORMER "Pennywise"
ISRC USEP40419403
INDEX 01 00:00:00
TRACK 04 AUDIO
TITLE "Society"
PERFORMER "Pennywise"
ISRC USEP40419403
INDEX 00 02:55:72
FILE "Pennywise (2004) Full Circle [Remastered]\04 Society.wav" WAVE
INDEX 01 00:00:00
TRACK 05 AUDIO
TITLE "Final Day"
PERFORMER "Pennywise"
ISRC USEP40419405
INDEX 00 03:24:56
FILE "Pennywise (2004) Full Circle [Remastered]\05 Final Day.wav" WAVE
INDEX 01 00:00:00
FILE "Pennywise (2004) Full Circle [Remastered]\06 Broken.wav" WAVE
TRACK 06 AUDIO
TITLE "Broken"
PERFORMER "Pennywise"
ISRC USEP40419406
INDEX 01 00:00:00
TRACK 07 AUDIO
TITLE "Running Out Of Time"
PERFORMER "Pennywise"
ISRC USEP40419407
INDEX 00 02:46:00
FILE "Pennywise (2004) Full Circle [Remastered]\07 Running Out Of Time.wav" WAVE
INDEX 01 00:00:00
TRACK 08 AUDIO
TITLE "You'll Never Make It"
PERFORMER "Pennywise"
ISRC USEP40419408
INDEX 00 02:21:11
FILE "Pennywise (2004) Full Circle [Remastered]\08 You'll Never Make It.wav" WAVE
INDEX 01 00:00:00
FILE "Pennywise (2004) Full Circle [Remastered]\09 Every Time.wav" WAVE
TRACK 09 AUDIO
TITLE "Every Time"
PERFORMER "Pennywise"
ISRC USEP40419409
INDEX 01 00:00:00
TRACK 10 AUDIO
TITLE "Nowhere Fast "
PERFORMER "Pennywise"
ISRC USEP40419410
INDEX 00 03:36:54
FILE "Pennywise (2004) Full Circle [Remastered]\10 Nowhere Fast.wav" WAVE
INDEX 01 00:00:00
TRACK 11 AUDIO
TITLE "What If I"
PERFORMER "Pennywise"
ISRC USEP40419411
INDEX 00 02:56:58
FILE "Pennywise (2004) Full Circle [Remastered]\11 What If I.wav" WAVE
INDEX 01 00:00:00
TRACK 12 AUDIO
TITLE "Go Away"
PERFORMER "Pennywise"
ISRC USEP40419412
INDEX 00 02:55:38
FILE "Pennywise (2004) Full Circle [Remastered]\12 Go Away.wav" WAVE
INDEX 01 00:00:00
TRACK 13 AUDIO
TITLE "Did You Really"
PERFORMER "Pennywise"
ISRC USEP40419413
INDEX 00 01:50:65
FILE "Pennywise (2004) Full Circle [Remastered]\13 Did You Really.wav" WAVE
INDEX 01 00:00:00
TRACK 14 AUDIO
TITLE "Bro Hymn Tribute"
PERFORMER "Pennywise"
ISRC USEP40419414
INDEX 00 02:50:11
FILE "Pennywise (2004) Full Circle [Remastered]\14 Bro Hymn Tribute.wav" WAVE
INDEX 01 00:00:00
TRACK 15 AUDIO
TITLE "Hidden Track"
PERFORMER "Pennywise"
ISRC USEP40419415
INDEX 00 05:11:23
FILE "Pennywise (2004) Full Circle [Remastered]\15 Hidden Track.wav" WAVE
INDEX 01 00:00:00
01. Knocked Down (2:44)
02. Yell Out (2:34)
03. Competition Song (2:42)
04. Take A Look Around (2:14)
05. Closer (3:16)
06. 6th Avenue Nightmare (2:40)
07. The Kids (3:22)
08. Fox TV (2:36)
09. Stand Up (3:17)
10. Dying (2:19)
11. Disconnect (2:57)
12. Premeditated Murder (2:41)
13. Best I Can (2:43)
14. 18 Soldiers (2:39)
15. Lies (4:03)
16. Million Miles - Hidden Track (3:01)
Exact Audio Copy V0.99 prebeta 3 from 28. July 2007 

EAC extraction logfile from 28. September 2007, 16:03

Pennywise / The Fuse

Used drive : ATAPI CD-RW 40X12 Adapter: 1 ID: 0

Read mode : Secure
Utilize accurate stream : Yes
Defeat audio cache : Yes
Make use of C2 pointers : No

Read offset correction : 12
Overread into Lead-In and Lead-Out : No
Fill up missing offset samples with silence : Yes
Delete leading and trailing silent blocks : No
Null samples used in CRC calculations : Yes
Used interface : Installed external ASPI interface
Gap handling : Appended to previous track

Used output format : User Defined Encoder
Selected bitrate : 128 kBit/s
Quality : High
Add ID3 tag : No
Command line compressor : C:\Program Files\Exact Audio Copy\Flac\flac.exe
Additional command line options : -8 -A tukey(0.25) -A gauss(0.1875) -b 4096 -V -T "artist=%a" -T "title=%t" -T "album=%g" -T "date=%y" -T "tracknumber=%n" -T "genre=%m" %s --sector-align

TOC of the extracted CD

Track | Start | Length | Start sector | End sector
---------------------------------------------------------
1 | 0:00.00 | 2:44.18 | 0 | 12317
2 | 2:44.18 | 2:34.33 | 12318 | 23900
3 | 5:18.51 | 2:41.62 | 23901 | 36037
4 | 8:00.38 | 2:14.29 | 36038 | 46116
5 | 10:14.67 | 3:15.56 | 46117 | 60797
6 | 13:30.48 | 2:39.53 | 60798 | 72775
7 | 16:10.26 | 3:22.08 | 72776 | 87933
8 | 19:32.34 | 2:36.34 | 87934 | 99667
9 | 22:08.68 | 3:17.25 | 99668 | 114467
10 | 25:26.18 | 2:18.53 | 114468 | 124870
11 | 27:44.71 | 2:57.20 | 124871 | 138165
12 | 30:42.16 | 2:40.50 | 138166 | 150215
13 | 33:22.66 | 2:43.33 | 150216 | 162473
14 | 36:06.24 | 2:38.73 | 162474 | 174396
15 | 38:45.22 | 4:03.11 | 174397 | 192632
16 | 42:48.33 | 3:00.54 | 192633 | 206186

Track 1

Filename C:\EAC\Pennywise - 01 - Knocked Down.wav

Pre-gap length 0:00:02.00

Peak level 100.0 %
Track quality 100.0 %
Test CRC CD5909CA
Copy CRC CD5909CA
Copy OK

Track 2

Filename C:\EAC\Pennywise - 02 - Yell Out.wav

Pre-gap length 0:00:00.98

Peak level 100.0 %
Track quality 100.0 %
Test CRC DFDD80E5
Copy CRC DFDD80E5
Copy OK

Track 3

Filename C:\EAC\Pennywise - 03 - Competition Song.wav

Pre-gap length 0:00:01.05

Peak level 98.4 %
Track quality 100.0 %
Test CRC 540C6488
Copy CRC 540C6488
Copy OK

Track 4

Filename C:\EAC\Pennywise - 04 - Take A Look Around.wav

Pre-gap length 0:00:00.20

Peak level 100.0 %
Track quality 100.0 %
Test CRC B6E46A37
Copy CRC B6E46A37
Copy OK

Track 5

Filename C:\EAC\Pennywise - 05 - Closer.wav

Peak level 100.0 %
Track quality 100.0 %
Test CRC FB1A1ED7
Copy CRC FB1A1ED7
Copy OK

Track 6

Filename C:\EAC\Pennywise - 06 - 6th Avenue Nightmare.wav

Pre-gap length 0:00:01.30

Peak level 100.0 %
Track quality 99.9 %
Test CRC 5562CAE8
Copy CRC 5562CAE8
Copy OK

Track 7

Filename C:\EAC\Pennywise - 07 - The Kids.wav

Pre-gap length 0:00:00.74

Peak level 100.0 %
Track quality 100.0 %
Test CRC FE10CAB4
Copy CRC FE10CAB4
Copy OK

Track 8

Filename C:\EAC\Pennywise - 08 - Fox TV.wav

Peak level 100.0 %
Track quality 100.0 %
Test CRC 1CE6A3D5
Copy CRC 1CE6A3D5
Copy OK

Track 9

Filename C:\EAC\Pennywise - 09 - Stand Up.wav

Peak level 100.0 %
Track quality 100.0 %
Test CRC CFC7C3FF
Copy CRC CFC7C3FF
Copy OK

Track 10

Filename C:\EAC\Pennywise - 10 - Dying.wav

Pre-gap length 0:00:00.94

Peak level 100.0 %
Track quality 100.0 %
Test CRC EF0F1F0A
Copy CRC EF0F1F0A
Copy OK

Track 11

Filename C:\EAC\Pennywise - 11 - Disconnect.wav

Peak level 100.0 %
Track quality 100.0 %
Test CRC AA96BF64
Copy CRC AA96BF64
Copy OK

Track 12

Filename C:\EAC\Pennywise - 12 - Premeditated Murder.wav

Pre-gap length 0:00:00.36

Peak level 100.0 %
Track quality 100.0 %
Test CRC 3F4C4941
Copy CRC 3F4C4941
Copy OK

Track 13

Filename C:\EAC\Pennywise - 13 - Best I Can.wav

Pre-gap length 0:00:00.65

Peak level 100.0 %
Track quality 100.0 %
Test CRC 3E9A709B
Copy CRC 3E9A709B
Copy OK

Track 14

Filename C:\EAC\Pennywise - 14 - 18 Soldiers.wav

Peak level 100.0 %
Track quality 100.0 %
Test CRC 7F513576
Copy CRC 7F513576
Copy OK

Track 15

Filename C:\EAC\Pennywise - 15 - Lies.wav

Pre-gap length 0:00:02.25

Peak level 100.0 %
Track quality 100.0 %
Test CRC 118785CB
Copy CRC 118785CB
Copy OK

Track 16

Filename C:\EAC\Pennywise - 16 - Million Miles - Hidden Track.wav

Pre-gap length 0:00:01.04

Peak level 100.0 %
Track quality 100.0 %
Test CRC 248A9237
Copy CRC 248A9237
Copy OK

No errors occurred

End of status report
REM GENRE Punk 
REM DATE 2005
REM DISCID C70ABD10
REM COMMENT "ExactAudioCopy v0.99pb3"
PERFORMER "Pennywise"
TITLE "The Fuse"
FILE "Pennywise - 01 - Knocked Down.wav" WAVE
TRACK 01 AUDIO
TITLE "Knocked Down"
PERFORMER "Pennywise"
INDEX 01 00:00:00
TRACK 02 AUDIO
TITLE "Yell Out"
PERFORMER "Pennywise"
INDEX 00 02:43:19
FILE "Pennywise - 02 - Yell Out.wav" WAVE
INDEX 01 00:00:00
TRACK 03 AUDIO
TITLE "Competition Song"
PERFORMER "Pennywise"
INDEX 00 02:33:29
FILE "Pennywise - 03 - Competition Song.wav" WAVE
INDEX 01 00:00:00
TRACK 04 AUDIO
TITLE "Take A Look Around"
PERFORMER "Pennywise"
INDEX 00 02:41:47
FILE "Pennywise - 04 - Take A Look Around.wav" WAVE
INDEX 01 00:00:00
FILE "Pennywise - 05 - Closer.wav" WAVE
TRACK 05 AUDIO
TITLE "Closer"
PERFORMER "Pennywise"
INDEX 01 00:00:00
TRACK 06 AUDIO
TITLE "6th Avenue Nightmare"
PERFORMER "Pennywise"
INDEX 00 03:14:33
FILE "Pennywise - 06 - 6th Avenue Nightmare.wav" WAVE
INDEX 01 00:00:00
TRACK 07 AUDIO
TITLE "The Kids"
PERFORMER "Pennywise"
INDEX 00 02:38:72
FILE "Pennywise - 07 - The Kids.wav" WAVE
INDEX 01 00:00:00
FILE "Pennywise - 08 - Fox TV.wav" WAVE
TRACK 08 AUDIO
TITLE "Fox TV"
PERFORMER "Pennywise"
INDEX 01 00:00:00
FILE "Pennywise - 09 - Stand Up.wav" WAVE
TRACK 09 AUDIO
TITLE "Stand Up"
PERFORMER "Pennywise"
INDEX 01 00:00:00
TRACK 10 AUDIO
TITLE "Dying"
PERFORMER "Pennywise"
INDEX 00 03:16:29
FILE "Pennywise - 10 - Dying.wav" WAVE
INDEX 01 00:00:00
FILE "Pennywise - 11 - Disconnect.wav" WAVE
TRACK 11 AUDIO
TITLE "Disconnect"
PERFORMER "Pennywise"
INDEX 01 00:00:00
TRACK 12 AUDIO
TITLE "Premeditated Murder"
PERFORMER "Pennywise"
INDEX 00 02:56:68
FILE "Pennywise - 12 - Premeditated Murder.wav" WAVE
INDEX 01 00:00:00
TRACK 13 AUDIO
TITLE "Best I Can"
PERFORMER "Pennywise"
INDEX 00 02:40:01
FILE "Pennywise - 13 - Best I Can.wav" WAVE
INDEX 01 00:00:00
FILE "Pennywise - 14 - 18 Soldiers.wav" WAVE
TRACK 14 AUDIO
TITLE "18 Soldiers"
PERFORMER "Pennywise"
INDEX 01 00:00:00
TRACK 15 AUDIO
TITLE "Lies"
PERFORMER "Pennywise"
INDEX 00 02:36:54
FILE "Pennywise - 15 - Lies.wav" WAVE
INDEX 01 00:00:00
TRACK 16 AUDIO
TITLE "Million Miles - Hidden Track"
PERFORMER "Pennywise"
INDEX 00 04:02:08
FILE "Pennywise - 16 - Million Miles - Hidden Track.wav" WAVE
INDEX 01 00:00:00
01. (Intro) As Long As We Can (3:09)
02. One Reason (2:55)
03. Faith And Hope (3:05)
04. Something To Live For (2:39)
05. All We Need (2:49)
06. The Western World (3:08)
07. We'll Never Know (2:43)
08. Confusion (3:01)
09. Nothing To Lose (2:58)
10. It's Not Enough To Believe (2:39)
11. You Get The Life You Choose (2:52)
12. Affliction (3:20)
13. Brag, Exaggerate & Lie (2:04)
14. Die For You (3:40)
Exact Audio Copy V0.99 prebeta 4 from 23. January 2008 

EAC extraction logfile from 19. July 2008, 16:39

Pennywise / Reason To Believe

Used drive : PHILIPS DVD+-RW DVD8801 Adapter: 0 ID: 0

Read mode : Secure
Utilize accurate stream : Yes
Defeat audio cache : Yes
Make use of C2 pointers : No

Read offset correction : 618
Overread into Lead-In and Lead-Out : No
Fill up missing offset samples with silence : Yes
Delete leading and trailing silent blocks : No
Null samples used in CRC calculations : Yes
Used interface : Installed external ASPI interface
Gap handling : Appended to previous track

Used output format : User Defined Encoder
Selected bitrate : 128 kBit/s
Quality : High
Add ID3 tag : No
Command line compressor : C:\Program Files\Exact Audio Copy\Flac\flac.exe
Additional command line options : -8 -A tukey(0.25) -A gauss(0.1875) -b 4096 -V -T "artist=%a" -T "title=%t" -T "album=%g" -T "date=%y" -T "tracknumber=%n" -T "genre=%m" %s --sector-align

TOC of the extracted CD

Track | Start | Length | Start sector | End sector
---------------------------------------------------------
1 | 0:00.00 | 3:09.31 | 0 | 14205
2 | 3:09.31 | 2:55.01 | 14206 | 27331
3 | 6:04.32 | 3:04.46 | 27332 | 41177
4 | 9:09.03 | 2:38.69 | 41178 | 53096
5 | 11:47.72 | 2:48.57 | 53097 | 65753
6 | 14:36.54 | 3:08.19 | 65754 | 79872
7 | 17:44.73 | 2:42.50 | 79873 | 92072
8 | 20:27.48 | 3:01.34 | 92073 | 105681
9 | 23:29.07 | 2:57.48 | 105682 | 119004
10 | 26:26.55 | 2:38.38 | 119005 | 130892
11 | 29:05.18 | 2:52.10 | 130893 | 143802
12 | 31:57.28 | 3:19.65 | 143803 | 158792
13 | 35:17.18 | 2:04.10 | 158793 | 168102
14 | 37:21.28 | 3:40.19 | 168103 | 184621

Track 1

Filename C:\Documents and Settings\John\My Documents\12. Pennywise - Reason To Believe (Original Issue) FLAC\01 - Pennywise - (Intro) As Long As We Can.wav

Pre-gap length 0:00:02.00

Peak level 99.9 %
Track quality 100.0 %
Copy CRC B8975F41
Accurately ripped (confidence 2) [54871A54]
Copy OK

Track 2

Filename C:\Documents and Settings\John\My Documents\12. Pennywise - Reason To Believe (Original Issue) FLAC\02 - Pennywise - One Reason.wav

Peak level 99.9 %
Track quality 100.0 %
Copy CRC D5512602
Accurately ripped (confidence 2) [7306ED1B]
Copy OK

Track 3

Filename C:\Documents and Settings\John\My Documents\12. Pennywise - Reason To Believe (Original Issue) FLAC\03 - Pennywise - Faith And Hope.wav

Pre-gap length 0:00:00.01

Peak level 99.9 %
Track quality 99.9 %
Copy CRC 25999E97
Accurately ripped (confidence 2) [ED173C0E]
Copy OK

Track 4

Filename C:\Documents and Settings\John\My Documents\12. Pennywise - Reason To Believe (Original Issue) FLAC\04 - Pennywise - Something To Live For.wav

Peak level 99.9 %
Track quality 100.0 %
Copy CRC EE3A079D
Accurately ripped (confidence 2) [C3155AE6]
Copy OK

Track 5

Filename C:\Documents and Settings\John\My Documents\12. Pennywise - Reason To Believe (Original Issue) FLAC\05 - Pennywise - All We Need.wav

Peak level 99.9 %
Track quality 100.0 %
Copy CRC 8AEA9085
Accurately ripped (confidence 2) [484BB22D]
Copy OK

Track 6

Filename C:\Documents and Settings\John\My Documents\12. Pennywise - Reason To Believe (Original Issue) FLAC\06 - Pennywise - The Western World.wav

Peak level 100.0 %
Track quality 100.0 %
Copy CRC 2B480878
Accurately ripped (confidence 2) [3AC22CD3]
Copy OK

Track 7

Filename C:\Documents and Settings\John\My Documents\12. Pennywise - Reason To Believe (Original Issue) FLAC\07 - Pennywise - We'll Never Know.wav

Peak level 100.0 %
Track quality 100.0 %
Copy CRC 5F9E2F4A
Accurately ripped (confidence 2) [2EFD8DD3]
Copy OK

Track 8

Filename C:\Documents and Settings\John\My Documents\12. Pennywise - Reason To Believe (Original Issue) FLAC\08 - Pennywise - Confusion.wav

Peak level 100.0 %
Track quality 100.0 %
Copy CRC B49D2DF0
Accurately ripped (confidence 2) [C5675509]
Copy OK

Track 9

Filename C:\Documents and Settings\John\My Documents\12. Pennywise - Reason To Believe (Original Issue) FLAC\09 - Pennywise - Nothing To Lose.wav

Peak level 99.9 %
Track quality 99.9 %
Copy CRC 66D8D230
Accurately ripped (confidence 2) [148E265C]
Copy OK

Track 10

Filename C:\Documents and Settings\John\My Documents\12. Pennywise - Reason To Believe (Original Issue) FLAC\10 - Pennywise - It's Not Enough To Believe.wav

Peak level 99.9 %
Track quality 100.0 %
Copy CRC 227B9688
Accurately ripped (confidence 2) [85197425]
Copy OK

Track 11

Filename C:\Documents and Settings\John\My Documents\12. Pennywise - Reason To Believe (Original Issue) FLAC\11 - Pennywise - You Get The Life You Choose.wav

Peak level 99.9 %
Track quality 100.0 %
Copy CRC C8EB9CA9
Accurately ripped (confidence 2) [D4FADF12]
Copy OK

Track 12

Filename C:\Documents and Settings\John\My Documents\12. Pennywise - Reason To Believe (Original Issue) FLAC\12 - Pennywise - Affliction.wav

Peak level 100.0 %
Track quality 100.0 %
Copy CRC 41715D73
Accurately ripped (confidence 2) [63E9C9C7]
Copy OK

Track 13

Filename C:\Documents and Settings\John\My Documents\12. Pennywise - Reason To Believe (Original Issue) FLAC\13 - Pennywise - Brag, Exaggerate & Lie.wav

Peak level 99.9 %
Track quality 100.0 %
Copy CRC 3A59D097
Accurately ripped (confidence 3) [C056D0B8]
Copy OK

Track 14

Filename C:\Documents and Settings\John\My Documents\12. Pennywise - Reason To Believe (Original Issue) FLAC\14 - Pennywise - Die For You.wav

Peak level 100.0 %
Track quality 100.0 %
Copy CRC 392FA163
Accurately ripped (confidence 3) [41487278]
Copy OK

All tracks accurately ripped

No errors occurred

End of status report
REM GENRE Punk 
REM DATE 2008
REM DISCID C5099D0E
REM COMMENT "ExactAudioCopy v0.99pb4"
PERFORMER "Pennywise"
TITLE "Reason To Believe"
FILE "01 - Pennywise - (Intro) As Long As We Can.wav" WAVE
TRACK 01 AUDIO
TITLE "(Intro) As Long As We Can"
PERFORMER "Pennywise"
INDEX 01 00:00:00
FILE "02 - Pennywise - One Reason.wav" WAVE
TRACK 02 AUDIO
TITLE "One Reason"
PERFORMER "Pennywise"
FLAGS DCP
INDEX 01 00:00:00
TRACK 03 AUDIO
TITLE "Faith And Hope"
PERFORMER "Pennywise"
FLAGS DCP
INDEX 00 02:55:00
FILE "03 - Pennywise - Faith And Hope.wav" WAVE
INDEX 01 00:00:00
FILE "04 - Pennywise - Something To Live For.wav" WAVE
TRACK 04 AUDIO
TITLE "Something To Live For"
PERFORMER "Pennywise"
FLAGS DCP
INDEX 01 00:00:00
FILE "05 - Pennywise - All We Need.wav" WAVE
TRACK 05 AUDIO
TITLE "All We Need"
PERFORMER "Pennywise"
FLAGS DCP
INDEX 01 00:00:00
FILE "06 - Pennywise - The Western World.wav" WAVE
TRACK 06 AUDIO
TITLE "The Western World"
PERFORMER "Pennywise"
FLAGS DCP
INDEX 01 00:00:00
FILE "07 - Pennywise - We'll Never Know.wav" WAVE
TRACK 07 AUDIO
TITLE "We'll Never Know"
PERFORMER "Pennywise"
FLAGS DCP
INDEX 01 00:00:00
FILE "08 - Pennywise - Confusion.wav" WAVE
TRACK 08 AUDIO
TITLE "Confusion"
PERFORMER "Pennywise"
FLAGS DCP
INDEX 01 00:00:00
FILE "09 - Pennywise - Nothing To Lose.wav" WAVE
TRACK 09 AUDIO
TITLE "Nothing To Lose"
PERFORMER "Pennywise"
FLAGS DCP
INDEX 01 00:00:00
FILE "10 - Pennywise - It's Not Enough To Believe.wav" WAVE
TRACK 10 AUDIO
TITLE "It's Not Enough To Believe"
PERFORMER "Pennywise"
FLAGS DCP
INDEX 01 00:00:00
FILE "11 - Pennywise - You Get The Life You Choose.wav" WAVE
TRACK 11 AUDIO
TITLE "You Get The Life You Choose"
PERFORMER "Pennywise"
FLAGS DCP
INDEX 01 00:00:00
FILE "12 - Pennywise - Affliction.wav" WAVE
TRACK 12 AUDIO
TITLE "Affliction"
PERFORMER "Pennywise"
FLAGS DCP
INDEX 01 00:00:00
FILE "13 - Pennywise - Brag, Exaggerate & Lie.wav" WAVE
TRACK 13 AUDIO
TITLE "Brag, Exaggerate & Lie"
PERFORMER "Pennywise"
FLAGS DCP
INDEX 01 00:00:00
FILE "14 - Pennywise - Die For You.wav" WAVE
TRACK 14 AUDIO
TITLE "Die For You"
PERFORMER "Pennywise"
FLAGS DCP
INDEX 01 00:00:00
01. (Intro) As Long As We Can (3:09)
02. One Reason (2:55)
03. Faith And Hope (3:05)
04. Something To Live For (2:39)
05. All We Need (2:49)
06. The Western World (3:08)
07. We'll Never Know (2:43)
08. Confusion (3:01)
09. Nothing To Lose (2:58)
10. It's Not Enough To Believe (2:39)
11. You Get The Life You Choose (2:52)
12. Affliction (3:20)
13. Brag, Exaggerate & Lie (2:04)
14. Die For You (3:44)
15. Next In Line (3:10)
Exact Audio Copy V0.99 prebeta 4 from 23. January 2008 

EAC extraction logfile from 18. July 2008, 16:19

Pennywise / Reason To Believe (Japan Bonus Track)

Used drive : PHILIPS DVD+-RW DVD8801 Adapter: 0 ID: 0

Read mode : Secure
Utilize accurate stream : Yes
Defeat audio cache : Yes
Make use of C2 pointers : No

Read offset correction : 618
Overread into Lead-In and Lead-Out : No
Fill up missing offset samples with silence : Yes
Delete leading and trailing silent blocks : No
Null samples used in CRC calculations : Yes
Used interface : Installed external ASPI interface
Gap handling : Appended to previous track

Used output format : User Defined Encoder
Selected bitrate : 128 kBit/s
Quality : High
Add ID3 tag : No
Command line compressor : C:\Program Files\Exact Audio Copy\Flac\flac.exe
Additional command line options : -8 -A tukey(0.25) -A gauss(0.1875) -b 4096 -V -T "artist=%a" -T "title=%t" -T "album=%g" -T "date=%y" -T "tracknumber=%n" -T "genre=%m" %s --sector-align

TOC of the extracted CD

Track | Start | Length | Start sector | End sector
---------------------------------------------------------
1 | 0:00.00 | 3:09.31 | 0 | 14205
2 | 3:09.31 | 2:55.01 | 14206 | 27331
3 | 6:04.32 | 3:04.46 | 27332 | 41177
4 | 9:09.03 | 2:38.69 | 41178 | 53096
5 | 11:47.72 | 2:48.57 | 53097 | 65753
6 | 14:36.54 | 3:08.19 | 65754 | 79872
7 | 17:44.73 | 2:42.50 | 79873 | 92072
8 | 20:27.48 | 3:01.34 | 92073 | 105681
9 | 23:29.07 | 2:57.48 | 105682 | 119004
10 | 26:26.55 | 2:38.38 | 119005 | 130892
11 | 29:05.18 | 2:52.10 | 130893 | 143802
12 | 31:57.28 | 3:19.65 | 143803 | 158792
13 | 35:17.18 | 2:04.10 | 158793 | 168102
14 | 37:21.28 | 3:44.18 | 168103 | 184920
15 | 41:05.46 | 3:09.56 | 184921 | 199151

Track 1

Filename C:\Documents and Settings\John\My Documents\Pennywise - Reason To Believe (Japan Bonus Track)\01 - Pennywise - (Intro) As Long As We Can.wav

Pre-gap length 0:00:02.00

Peak level 99.9 %
Track quality 100.0 %
Test CRC 6F515FE0
Copy CRC 6F515FE0
Copy OK

Track 2

Filename C:\Documents and Settings\John\My Documents\Pennywise - Reason To Believe (Japan Bonus Track)\02 - Pennywise - One Reason.wav

Peak level 99.9 %
Track quality 100.0 %
Test CRC DE0A1B4E
Copy CRC DE0A1B4E
Copy OK

Track 3

Filename C:\Documents and Settings\John\My Documents\Pennywise - Reason To Believe (Japan Bonus Track)\03 - Pennywise - Faith And Hope.wav

Peak level 99.9 %
Track quality 99.9 %
Test CRC 8C1D22B4
Copy CRC 8C1D22B4
Copy OK

Track 4

Filename C:\Documents and Settings\John\My Documents\Pennywise - Reason To Believe (Japan Bonus Track)\04 - Pennywise - Something To Live For.wav

Peak level 99.9 %
Track quality 100.0 %
Test CRC B7B9644B
Copy CRC B7B9644B
Copy OK

Track 5

Filename C:\Documents and Settings\John\My Documents\Pennywise - Reason To Believe (Japan Bonus Track)\05 - Pennywise - All We Need.wav

Peak level 99.9 %
Track quality 100.0 %
Test CRC 20D0EA5F
Copy CRC 20D0EA5F
Copy OK

Track 6

Filename C:\Documents and Settings\John\My Documents\Pennywise - Reason To Believe (Japan Bonus Track)\06 - Pennywise - The Western World.wav

Peak level 100.0 %
Track quality 100.0 %
Test CRC 7624E90A
Copy CRC 7624E90A
Copy OK

Track 7

Filename C:\Documents and Settings\John\My Documents\Pennywise - Reason To Believe (Japan Bonus Track)\07 - Pennywise - We'll Never Know.wav

Peak level 100.0 %
Track quality 100.0 %
Test CRC 54717FFC
Copy CRC 54717FFC
Copy OK

Track 8

Filename C:\Documents and Settings\John\My Documents\Pennywise - Reason To Believe (Japan Bonus Track)\08 - Pennywise - Confusion.wav

Peak level 100.0 %
Track quality 100.0 %
Test CRC DC773E68
Copy CRC DC773E68
Copy OK

Track 9

Filename C:\Documents and Settings\John\My Documents\Pennywise - Reason To Believe (Japan Bonus Track)\09 - Pennywise - Nothing To Lose.wav

Peak level 99.9 %
Track quality 99.9 %
Test CRC 5121FBC1
Copy CRC 5121FBC1
Copy OK

Track 10

Filename C:\Documents and Settings\John\My Documents\Pennywise - Reason To Believe (Japan Bonus Track)\10 - Pennywise - It's Not Enough To Believe.wav

Peak level 99.9 %
Track quality 100.0 %
Test CRC 0CD32922
Copy CRC 0CD32922
Copy OK

Track 11

Filename C:\Documents and Settings\John\My Documents\Pennywise - Reason To Believe (Japan Bonus Track)\11 - Pennywise - You Get The Life You Choose.wav

Peak level 99.9 %
Track quality 100.0 %
Test CRC 2CF2C0DE
Copy CRC 2CF2C0DE
Copy OK

Track 12

Filename C:\Documents and Settings\John\My Documents\Pennywise - Reason To Believe (Japan Bonus Track)\12 - Pennywise - Affliction.wav

Peak level 100.0 %
Track quality 100.0 %
Test CRC F57C8903
Copy CRC F57C8903
Copy OK

Track 13

Filename C:\Documents and Settings\John\My Documents\Pennywise - Reason To Believe (Japan Bonus Track)\13 - Pennywise - Brag, Exaggerate & Lie.wav

Peak level 99.9 %
Track quality 100.0 %
Test CRC E323BEF7
Copy CRC E323BEF7
Copy OK

Track 14

Filename C:\Documents and Settings\John\My Documents\Pennywise - Reason To Believe (Japan Bonus Track)\14 - Pennywise - Die For You.wav

Peak level 100.0 %
Track quality 100.0 %
Test CRC 826B25DE
Copy CRC 826B25DE
Copy OK

Track 15

Filename C:\Documents and Settings\John\My Documents\Pennywise - Reason To Believe (Japan Bonus Track)\15 - Pennywise - Next In Line [x].wav

Pre-gap length 0:00:03.98

Peak level 99.9 %
Track quality 100.0 %
Test CRC 1B7674FB
Copy CRC 1B7674FB
Copy OK

No errors occurred

End of status report
REM GENRE Punk 
REM DATE 2008
REM DISCID D80A5F0F
REM COMMENT "ExactAudioCopy v0.99pb4"
PERFORMER "Pennywise"
TITLE "Reason To Believe (Japan Bonus Track)"
FILE "01 - Pennywise - (Intro) As Long As We Can.wav" WAVE
TRACK 01 AUDIO
TITLE "(Intro) As Long As We Can"
PERFORMER "Pennywise"
INDEX 01 00:00:00
FILE "02 - Pennywise - One Reason.wav" WAVE
TRACK 02 AUDIO
TITLE "One Reason"
PERFORMER "Pennywise"
FLAGS DCP
INDEX 01 00:00:00
FILE "03 - Pennywise - Faith And Hope.wav" WAVE
TRACK 03 AUDIO
TITLE "Faith And Hope"
PERFORMER "Pennywise"
FLAGS DCP
INDEX 01 00:00:00
FILE "04 - Pennywise - Something To Live For.wav" WAVE
TRACK 04 AUDIO
TITLE "Something To Live For"
PERFORMER "Pennywise"
FLAGS DCP
INDEX 01 00:00:00
FILE "05 - Pennywise - All We Need.wav" WAVE
TRACK 05 AUDIO
TITLE "All We Need"
PERFORMER "Pennywise"
FLAGS DCP
INDEX 01 00:00:00
FILE "06 - Pennywise - The Western World.wav" WAVE
TRACK 06 AUDIO
TITLE "The Western World"
PERFORMER "Pennywise"
FLAGS DCP
INDEX 01 00:00:00
FILE "07 - Pennywise - We'll Never Know.wav" WAVE
TRACK 07 AUDIO
TITLE "We'll Never Know"
PERFORMER "Pennywise"
FLAGS DCP
INDEX 01 00:00:00
FILE "08 - Pennywise - Confusion.wav" WAVE
TRACK 08 AUDIO
TITLE "Confusion"
PERFORMER "Pennywise"
FLAGS DCP
INDEX 01 00:00:00
FILE "09 - Pennywise - Nothing To Lose.wav" WAVE
TRACK 09 AUDIO
TITLE "Nothing to Lose"
PERFORMER "Pennywise"
FLAGS DCP
INDEX 01 00:00:00
FILE "10 - Pennywise - It's Not Enough To Believe.wav" WAVE
TRACK 10 AUDIO
TITLE "It's Not Enough To Believe"
PERFORMER "Pennywise"
FLAGS DCP
INDEX 01 00:00:00
FILE "11 - Pennywise - You Get The Life You Choose.wav" WAVE
TRACK 11 AUDIO
TITLE "You Get The Life You Choose"
PERFORMER "Pennywise"
FLAGS DCP
INDEX 01 00:00:00
FILE "12 - Pennywise - Affliction.wav" WAVE
TRACK 12 AUDIO
TITLE "Affliction"
PERFORMER "Pennywise"
FLAGS DCP
INDEX 01 00:00:00
FILE "13 - Pennywise - Brag, Exaggerate & Lie.wav" WAVE
TRACK 13 AUDIO
TITLE "Brag, Exaggerate & Lie"
PERFORMER "Pennywise"
FLAGS DCP
INDEX 01 00:00:00
FILE "14 - Pennywise - Die For You.wav" WAVE
TRACK 14 AUDIO
TITLE "Die For You"
PERFORMER "Pennywise"
FLAGS DCP
INDEX 01 00:00:00
TRACK 15 AUDIO
TITLE "Next In Line [*]"
PERFORMER "Pennywise"
FLAGS DCP
INDEX 00 03:40:19
FILE "15 - Pennywise - Next In Line [x].wav" WAVE
INDEX 01 00:00:00
01. All Or Nothing (2:29)
02. Waste Another Day (2:23)
03. Revolution (3:26)
04. Stand Strong (3:11)
05. Let Us Hear Your Voice (3:44)
06. Seeing Red (2:54)
07. Songs Of Sorrow (3:35)
08. X Generation (3:15)
09. We Have It All (2:59)
10. Tomorrow (3:18)
11. All Along (3:10)
12. United (2:50)
X Lossless Decoder version 20120407 (140.0) 

XLD extraction logfile from 2012-05-10 19:54:15 +0000

Pennywise / All Or Nothing

Used drive : MATSHITA DVD-R UJ-857D (revision KBV9)

Ripper mode : XLD Secure Ripper
Disable audio cache : OK for the drive with a cache less than 1375KiB
Make use of C2 pointers : NO
Read offset correction : 102
Max retry count : 100
Gap status : Analyzed, Appended

TOC of the extracted CD
Track | Start | Length | Start sector | End sector
---------------------------------------------------------
1 | 00:00:00 | 02:29:12 | 0 | 11186
2 | 02:29:12 | 02:22:49 | 11187 | 21885
3 | 04:51:61 | 03:25:48 | 21886 | 37308
4 | 08:17:34 | 03:10:49 | 37309 | 51607
5 | 11:28:08 | 03:44:05 | 51608 | 68412
6 | 15:12:13 | 02:54:05 | 68413 | 81467
7 | 18:06:18 | 03:35:11 | 81468 | 97603
8 | 21:41:29 | 03:15:21 | 97604 | 112249
9 | 24:56:50 | 02:59:22 | 112250 | 125696
10 | 27:55:72 | 03:17:62 | 125697 | 140533
11 | 31:13:59 | 03:09:73 | 140534 | 154781
12 | 34:23:57 | 02:49:53 | 154782 | 167509

AccurateRip Summary
Disc not found in AccurateRip DB.

All Tracks
Album gain : -10.59 dB
Peak : 1.000000
Statistics
Read error : 0
Jitter error (maybe fixed) : 0
Retry sector count : 0
Damaged sector count : 0

Track 01
Filename : /Users/a/b/c/d/Pennywise/Pennywise - 2012 - All Or Nothing [FLAC]/01 - All Or Nothing.flac
Pre-gap length : 00:02:00

Track gain : -10.25 dB
Peak : 0.998993
CRC32 hash (test run) : 1DE3BD17
CRC32 hash : 1DE3BD17
CRC32 hash (skip zero) : 0B46A65E
AccurateRip signature : 6F187FCE
->Track not present in AccurateRip database.
Statistics
Read error : 0
Jitter error (maybe fixed) : 0
Retry sector count : 0
Damaged sector count : 0

Track 02
Filename : /Users/a/b/c/d/Pennywise/Pennywise - 2012 - All Or Nothing [FLAC]/02 - Waste Another Day.flac

Track gain : -9.96 dB
Peak : 0.998993
CRC32 hash (test run) : 2C38602D
CRC32 hash : 2C38602D
CRC32 hash (skip zero) : 169F789B
AccurateRip signature : 4F1688B3
->Track not present in AccurateRip database.
Statistics
Read error : 0
Jitter error (maybe fixed) : 0
Retry sector count : 0
Damaged sector count : 0

Track 03
Filename : /Users/a/b/c/d/Pennywise/Pennywise - 2012 - All Or Nothing [FLAC]/03 - Revolution.flac

Track gain : -10.83 dB
Peak : 0.998993
CRC32 hash (test run) : 93C0B2D4
CRC32 hash : 93C0B2D4
CRC32 hash (skip zero) : 408587AE
AccurateRip signature : 5FC7E227
->Track not present in AccurateRip database.
Statistics
Read error : 0
Jitter error (maybe fixed) : 0
Retry sector count : 0
Damaged sector count : 0

Track 04
Filename : /Users/a/b/c/d/Pennywise/Pennywise - 2012 - All Or Nothing [FLAC]/04 - Stand Strong.flac

Track gain : -10.56 dB
Peak : 1.000000
CRC32 hash (test run) : 950B9A32
CRC32 hash : 950B9A32
CRC32 hash (skip zero) : B3FE5EB8
AccurateRip signature : 2748CADD
->Track not present in AccurateRip database.
Statistics
Read error : 0
Jitter error (maybe fixed) : 0
Retry sector count : 0
Damaged sector count : 0

Track 05
Filename : /Users/a/b/c/d/Pennywise/Pennywise - 2012 - All Or Nothing [FLAC]/05 - Let Us Hear Your Voice.flac
Pre-gap length : 00:00:02

Track gain : -10.83 dB
Peak : 1.000000
CRC32 hash (test run) : 08D4E3FC
CRC32 hash : 08D4E3FC
CRC32 hash (skip zero) : E158F855
AccurateRip signature : AC18DC6D
->Track not present in AccurateRip database.
Statistics
Read error : 0
Jitter error (maybe fixed) : 0
Retry sector count : 0
Damaged sector count : 0

Track 06
Filename : /Users/a/b/c/d/Pennywise/Pennywise - 2012 - All Or Nothing [FLAC]/06 - Seeing Red.flac
Pre-gap length : 00:00:06

Track gain : -9.97 dB
Peak : 1.000000
CRC32 hash (test run) : BF30479D
CRC32 hash : BF30479D
CRC32 hash (skip zero) : DC2007FC
AccurateRip signature : 93192BBF
->Track not present in AccurateRip database.
Statistics
Read error : 0
Jitter error (maybe fixed) : 0
Retry sector count : 0
Damaged sector count : 0

Track 07
Filename : /Users/a/b/c/d/Pennywise/Pennywise - 2012 - All Or Nothing [FLAC]/07 - Songs Of Sorrow.flac
Pre-gap length : 00:00:04

Track gain : -10.32 dB
Peak : 1.000000
CRC32 hash (test run) : 44063E0D
CRC32 hash : 44063E0D
CRC32 hash (skip zero) : 31FBEF9A
AccurateRip signature : 962D75C6
->Track not present in AccurateRip database.
Statistics
Read error : 0
Jitter error (maybe fixed) : 0
Retry sector count : 0
Damaged sector count : 0

Track 08
Filename : /Users/a/b/c/d/Pennywise/Pennywise - 2012 - All Or Nothing [FLAC]/08 - X Generation.flac

Track gain : -11.05 dB
Peak : 1.000000
CRC32 hash (test run) : AF6296EA
CRC32 hash : AF6296EA
CRC32 hash (skip zero) : 432A20CC
AccurateRip signature : 746C51D7
->Track not present in AccurateRip database.
Statistics
Read error : 0
Jitter error (maybe fixed) : 0
Retry sector count : 0
Damaged sector count : 0

Track 09
Filename : /Users/a/b/c/d/Pennywise/Pennywise - 2012 - All Or Nothing [FLAC]/09 - We Have It All.flac
Pre-gap length : 00:00:04

Track gain : -10.68 dB
Peak : 1.000000
CRC32 hash (test run) : E0254F5D
CRC32 hash : E0254F5D
CRC32 hash (skip zero) : 9402CA83
AccurateRip signature : F1C51E4F
->Track not present in AccurateRip database.
Statistics
Read error : 0
Jitter error (maybe fixed) : 0
Retry sector count : 0
Damaged sector count : 0

Track 10
Filename : /Users/a/b/c/d/Pennywise/Pennywise - 2012 - All Or Nothing [FLAC]/10 - Tomorrow.flac

Track gain : -10.51 dB
Peak : 1.000000
CRC32 hash (test run) : 85B2E2AD
CRC32 hash : 85B2E2AD
CRC32 hash (skip zero) : 3E51D873
AccurateRip signature : 393BB879
->Track not present in AccurateRip database.
Statistics
Read error : 0
Jitter error (maybe fixed) : 0
Retry sector count : 0
Damaged sector count : 0

Track 11
Filename : /Users/a/b/c/d/Pennywise/Pennywise - 2012 - All Or Nothing [FLAC]/11 - All Along.flac

Track gain : -11.27 dB
Peak : 1.000000
CRC32 hash (test run) : 17A9F20E
CRC32 hash : 17A9F20E
CRC32 hash (skip zero) : C39F0871
AccurateRip signature : 2D9FD019
->Track not present in AccurateRip database.
Statistics
Read error : 0
Jitter error (maybe fixed) : 0
Retry sector count : 0
Damaged sector count : 0

Track 12
Filename : /Users/a/b/c/d/Pennywise/Pennywise - 2012 - All Or Nothing [FLAC]/12 - United.flac

Track gain : -10.12 dB
Peak : 0.999023
CRC32 hash (test run) : 0D9C24DE
CRC32 hash : 0D9C24DE
CRC32 hash (skip zero) : A99184A4
AccurateRip signature : B5124F61
->Track not present in AccurateRip database.
Statistics
Read error : 0
Jitter error (maybe fixed) : 0
Retry sector count : 0
Damaged sector count : 0

No errors occurred

End of status report
TITLE "All Or Nothing" 
PERFORMER "Pennywise"
REM GENRE "Punk"
REM DATE "2012"
REM DISCNUMBER 1
REM TOTALDISCS 1
REM DISCID AF08B90C
REM REPLAYGAIN_ALBUM_GAIN -10.59 dB
REM REPLAYGAIN_ALBUM_PEAK 1.000000
FILE "01 - All Or Nothing.flac" WAVE
TRACK 01 AUDIO
TITLE "All Or Nothing"
ISRC USEP41208001
REM REPLAYGAIN_TRACK_GAIN -10.25 dB
REM REPLAYGAIN_TRACK_PEAK 0.998993
INDEX 01 00:00:00
FILE "02 - Waste Another Day.flac" WAVE
TRACK 02 AUDIO
TITLE "Waste Another Day"
ISRC USEP41208002
REM REPLAYGAIN_TRACK_GAIN -9.96 dB
REM REPLAYGAIN_TRACK_PEAK 0.998993
INDEX 01 00:00:00
FILE "03 - Revolution.flac" WAVE
TRACK 03 AUDIO
TITLE "Revolution"
ISRC USEP41208003
REM REPLAYGAIN_TRACK_GAIN -10.83 dB
REM REPLAYGAIN_TRACK_PEAK 0.998993
INDEX 01 00:00:00
FILE "04 - Stand Strong.flac" WAVE
TRACK 04 AUDIO
TITLE "Stand Strong"
ISRC USEP41208004
REM REPLAYGAIN_TRACK_GAIN -10.56 dB
REM REPLAYGAIN_TRACK_PEAK 1.000000
INDEX 01 00:00:00
TRACK 05 AUDIO
TITLE "Let Us Hear Your Voice"
ISRC USEP41208005
REM REPLAYGAIN_TRACK_GAIN -10.83 dB
REM REPLAYGAIN_TRACK_PEAK 1.000000
INDEX 00 03:10:47
FILE "05 - Let Us Hear Your Voice.flac" WAVE
INDEX 01 00:00:00
TRACK 06 AUDIO
TITLE "Seeing Red"
ISRC USEP41208006
REM REPLAYGAIN_TRACK_GAIN -9.97 dB
REM REPLAYGAIN_TRACK_PEAK 1.000000
INDEX 00 03:43:74
FILE "06 - Seeing Red.flac" WAVE
INDEX 01 00:00:00
TRACK 07 AUDIO
TITLE "Songs Of Sorrow"
ISRC USEP41208007
REM REPLAYGAIN_TRACK_GAIN -10.32 dB
REM REPLAYGAIN_TRACK_PEAK 1.000000
INDEX 00 02:54:01
FILE "07 - Songs Of Sorrow.flac" WAVE
INDEX 01 00:00:00
FILE "08 - X Generation.flac" WAVE
TRACK 08 AUDIO
TITLE "X Generation"
ISRC USEP41208008
REM REPLAYGAIN_TRACK_GAIN -11.05 dB
REM REPLAYGAIN_TRACK_PEAK 1.000000
INDEX 01 00:00:00
TRACK 09 AUDIO
TITLE "We Have It All"
ISRC USEP41208009
REM REPLAYGAIN_TRACK_GAIN -10.68 dB
REM REPLAYGAIN_TRACK_PEAK 1.000000
INDEX 00 03:15:17
FILE "09 - We Have It All.flac" WAVE
INDEX 01 00:00:00
FILE "10 - Tomorrow.flac" WAVE
TRACK 10 AUDIO
TITLE "Tomorrow"
ISRC USEP41208010
REM REPLAYGAIN_TRACK_GAIN -10.51 dB
REM REPLAYGAIN_TRACK_PEAK 1.000000
INDEX 01 00:00:00
FILE "11 - All Along.flac" WAVE
TRACK 11 AUDIO
TITLE "All Along"
ISRC USEP41208011
REM REPLAYGAIN_TRACK_GAIN -11.27 dB
REM REPLAYGAIN_TRACK_PEAK 1.000000
INDEX 01 00:00:00
FILE "12 - United.flac" WAVE
TRACK 12 AUDIO
TITLE "United"
ISRC USEP41208012
REM REPLAYGAIN_TRACK_GAIN -10.12 dB
REM REPLAYGAIN_TRACK_PEAK 0.999023
INDEX 01 00:00:00
info [Профиль]  [ЛС] 

Virtualllll

Пол: Пол:Муж

Стаж: 5 лет 5 месяцев

Сообщений: 454

Рейтинг

post 29-Янв-2013 16:35 (спустя 1 день 22 часа) [-]0[+]

[Цитировать] 

Цитата:

2008 - Reason to Believe (Japan Release)
[img=righthttp://upload.wikimedia.org/wikipedia/en/7/7e/Pennywise_-_Reason_to_Believe_cover.jpg][/img]01. (Intro) As Long As We Can (3:09)

_________________
info [Профиль]  [ЛС] 

The Royal

Пол: Пол:Муж

Стаж: 6 лет 11 месяцев

Сообщений: 652

Россия
Рейтинг

post 29-Янв-2013 18:28 (спустя 1 час 52 минуты) [-]0[+]

[Цитировать] 

Virtualllll, спасибо. Поправил
info [Профиль]  [ЛС] 
Показать сообщения:    
Ответить на тему

Текущее время: 10-Дек 14:55

Часовой пояс: GMT + 4



Вы не можете начинать темы
Вы не можете отвечать на сообщения
Вы не можете редактировать свои сообщения
Вы не можете удалять свои сообщения
Вы не можете голосовать в опросах
Вы не можете прикреплять файлы к сообщениям
Вы не можете скачивать файлы