Ошибка

(Blues, Rock) Chris Rea - The Journey 1978 - 2009 - October 11, 2011 ALAC, lossless

Ответить на тему
 
Автор Сообщение

Lukas

Пол: Пол:Муж

Стаж: 6 лет 11 месяцев

Сообщений: 1308

Предупреждений: 1

Рейтинг

post 23-Ноя-2012 19:38 2[+]

[Цитировать] 

pic="http://s002.youpic.su/pictures/1353618000/ccc269327557c547615b4ddb62f1f6ee.jpg"


Chris Rea - The Journey 1978 - 2009



Год: 2011 | Страна: UK | Жанр: Blues, Rock | Продолжительность: CD1: 01:17:15 / CD2: 01:19:40


Битрейт: lossless | Кодек: ALAC | Программа-риповщик : dBpoweramp Music Converter + iTunes


Треклист:

    CD1
    01. Let's Dance (04:06)
    02. On The Beach (06:51)
    03. Driving Home For Christmas (04:01)
    04. I Can Hear Your Heartbeat (03:26)
    05. Julia (03:54)
    06. Stainsby Girls (03:52)
    07. Come So Far, Yet Still So Far To Go (04:13)
    08. God's Great Banana Skin (05:18)
    09. Josephine (French Edit) (03:56)
    10. Texas (04:00)
    11. Working On It (04:24)
    12. Heaven (04:12)
    13. Candles (04:44)
    14. Shamrock Diaires (04:13)
    15. Blue Street (07:08)
    16. Ace Of Hearts (04:53)
    17. You Can Go Your Own Way (03:54)

    CD2
    01. The Road To Hell (Part 2) (04:35)
    02. Auberge (04:45)
    03. Fool (If You Think It's Over) (04:05)
    04. Soft Top, Hard Shoulder (04:23)
    05. Looking For The Summer (05:02)
    06. Tell Me There's A Heaven (06:02)
    07. Diamonds (04:52)
    08. Loving You (03:48)
    09. I Don't Know What It Is But I Love It (03:35)
    10. On The Beach (Summer '88) (03:42)
    11. Windy Town (04:26)
    12. Giverny (05:40)
    13. The Blue Cafe (04:46)
    14. Winter Song (04:31)
    15. Easy Rider (04:49)
    16. Two Roads (03:43)
    17. Saudade Part 1&2 (Tribute To Ayrton Senna) (06:48)


Код:

Exact Audio Copy V1.0 beta 3 from 29. August 2011

EAC extraction logfile from 11. October 2011, 7:44

Chris Rea / The Journey 1978 - 2009

Used drive  : HL-DT-STDVD-RAM GSA-H20N   Adapter: 3  ID: 0

Read mode               : Secure
Utilize accurate stream : Yes
Defeat audio cache      : Yes
Make use of C2 pointers : No

Read offset correction                      : 102
Overread into Lead-In and Lead-Out          : No
Fill up missing offset samples with silence : Yes
Delete leading and trailing silent blocks   : No
Null samples used in CRC calculations       : Yes
Used interface                              : Installed external ASPI interface
Gap handling                                : Appended to previous track

Used output format : Internal WAV Routines
Sample format      : 44.100 Hz; 16 Bit; Stereo

TOC of the extracted CD

     Track |   Start  |  Length  | Start sector | End sector
    ---------------------------------------------------------
        1  |  0:00.00 |  4:06.61 |         0    |    18510
        2  |  4:06.61 |  6:51.54 |     18511    |    49389
        3  | 10:58.40 |  4:01.08 |     49390    |    67472
        4  | 14:59.48 |  3:26.53 |     67473    |    82975
        5  | 18:26.26 |  3:54.64 |     82976    |   100589
        6  | 22:21.15 |  3:52.26 |    100590    |   118015
        7  | 26:13.41 |  4:13.55 |    118016    |   137045
        8  | 30:27.21 |  5:18.74 |    137046    |   160969
        9  | 35:46.20 |  3:56.34 |    160970    |   178703
       10  | 39:42.54 |  4:00.28 |    178704    |   196731
       11  | 43:43.07 |  4:24.37 |    196732    |   216568
       12  | 48:07.44 |  4:12.06 |    216569    |   235474
       13  | 52:19.50 |  4:44.70 |    235475    |   256844
       14  | 57:04.45 |  4:13.30 |    256845    |   275849
       15  | 61:18.00 |  7:08.34 |    275850    |   307983
       16  | 68:26.34 |  4:53.64 |    307984    |   330022
       17  | 73:20.23 |  3:54.72 |    330023    |   347644

Track  1

     Filename C:\rips\Chris Rea\The Journey 1978 - 2009\01 - Let's Dance.wav

     Pre-gap length  0:00:02.00

     Peak level 96.6 %
     Extraction speed 1.8 X
     Track quality 100.0 %
     Test CRC 6431F5CC
     Copy CRC 6431F5CC
     Track not present in AccurateRip database
     Copy OK

Track  2

     Filename C:\rips\Chris Rea\The Journey 1978 - 2009\02 - On The Beach.wav

     Pre-gap length  0:00:00.24

     Peak level 96.6 %
     Extraction speed 2.1 X
     Track quality 100.0 %
     Test CRC D7459527
     Copy CRC D7459527
     Track not present in AccurateRip database
     Copy OK

Track  3

     Filename C:\rips\Chris Rea\The Journey 1978 - 2009\03 - Driving Home For Christmas.wav

     Pre-gap length  0:00:02.00

     Peak level 96.6 %
     Extraction speed 2.2 X
     Track quality 100.0 %
     Test CRC 4875FD67
     Copy CRC 4875FD67
     Track not present in AccurateRip database
     Copy OK

Track  4

     Filename C:\rips\Chris Rea\The Journey 1978 - 2009\04 - I Can Hear Your Heartbeat.wav

     Pre-gap length  0:00:02.00

     Peak level 96.6 %
     Extraction speed 2.2 X
     Track quality 100.0 %
     Test CRC 545426C8
     Copy CRC 545426C8
     Track not present in AccurateRip database
     Copy OK

Track  5

     Filename C:\rips\Chris Rea\The Journey 1978 - 2009\05 - Julia.wav

     Pre-gap length  0:00:02.00

     Peak level 94.4 %
     Extraction speed 2.3 X
     Track quality 100.0 %
     Test CRC 7EE0C92E
     Copy CRC 7EE0C92E
     Track not present in AccurateRip database
     Copy OK

Track  6

     Filename C:\rips\Chris Rea\The Journey 1978 - 2009\06 - Stainsby Girls.wav

     Pre-gap length  0:00:01.00

     Peak level 93.3 %
     Extraction speed 2.4 X
     Track quality 100.0 %
     Test CRC 1E77DF9D
     Copy CRC 1E77DF9D
     Track not present in AccurateRip database
     Copy OK

Track  7

     Filename C:\rips\Chris Rea\The Journey 1978 - 2009\07 - Come So Far, Yet Still So Far To Go.wav

     Pre-gap length  0:00:01.00

     Peak level 76.6 %
     Extraction speed 2.6 X
     Track quality 100.0 %
     Test CRC CCB819D7
     Copy CRC CCB819D7
     Track not present in AccurateRip database
     Copy OK

Track  8

     Filename C:\rips\Chris Rea\The Journey 1978 - 2009\08 - God's Great Banana Skin.wav

     Pre-gap length  0:00:01.00

     Peak level 96.6 %
     Extraction speed 2.8 X
     Track quality 100.0 %
     Test CRC C62268ED
     Copy CRC C62268ED
     Track not present in AccurateRip database
     Copy OK

Track  9

     Filename C:\rips\Chris Rea\The Journey 1978 - 2009\09 - Josephine (French Edit).wav

     Pre-gap length  0:00:02.00

     Peak level 97.4 %
     Extraction speed 2.8 X
     Track quality 100.0 %
     Test CRC A4B35C1D
     Copy CRC A4B35C1D
     Track not present in AccurateRip database
     Copy OK

Track 10

     Filename C:\rips\Chris Rea\The Journey 1978 - 2009\10 - Texas.wav

     Pre-gap length  0:00:02.00

     Peak level 91.2 %
     Extraction speed 2.6 X
     Track quality 99.9 %
     Test CRC 7792E449
     Copy CRC 7792E449
     Track not present in AccurateRip database
     Copy OK

Track 11

     Filename C:\rips\Chris Rea\The Journey 1978 - 2009\11 - Working On It.wav

     Pre-gap length  0:00:02.00

     Peak level 96.6 %
     Extraction speed 3.1 X
     Track quality 100.0 %
     Test CRC 39CC272E
     Copy CRC 39CC272E
     Track not present in AccurateRip database
     Copy OK

Track 12

     Filename C:\rips\Chris Rea\The Journey 1978 - 2009\12 - Heaven.wav

     Pre-gap length  0:00:01.00

     Peak level 94.4 %
     Extraction speed 3.2 X
     Track quality 100.0 %
     Test CRC 8D6E55C5
     Copy CRC 8D6E55C5
     Track not present in AccurateRip database
     Copy OK

Track 13

     Filename C:\rips\Chris Rea\The Journey 1978 - 2009\13 - Candles.wav

     Pre-gap length  0:00:01.00

     Peak level 96.6 %
     Extraction speed 3.3 X
     Track quality 100.0 %
     Test CRC 23640F20
     Copy CRC 23640F20
     Track not present in AccurateRip database
     Copy OK

Track 14

     Filename C:\rips\Chris Rea\The Journey 1978 - 2009\14 - Shamrock Diaires.wav

     Pre-gap length  0:00:00.74

     Peak level 96.6 %
     Extraction speed 3.3 X
     Track quality 100.0 %
     Test CRC BE60237E
     Copy CRC BE60237E
     Track not present in AccurateRip database
     Copy OK

Track 15

     Filename C:\rips\Chris Rea\The Journey 1978 - 2009\15 - Blue Street.wav

     Pre-gap length  0:00:01.00

     Peak level 99.7 %
     Extraction speed 3.7 X
     Track quality 100.0 %
     Test CRC 725CBAC7
     Copy CRC 725CBAC7
     Track not present in AccurateRip database
     Copy OK

Track 16

     Filename C:\rips\Chris Rea\The Journey 1978 - 2009\16 - Ace Of Hearts.wav

     Pre-gap length  0:00:01.00

     Peak level 96.6 %
     Extraction speed 3.7 X
     Track quality 100.0 %
     Test CRC D1A227D6
     Copy CRC D1A227D6
     Track not present in AccurateRip database
     Copy OK

Track 17

     Filename C:\rips\Chris Rea\The Journey 1978 - 2009\17 - You Can Go Your Own Way.wav

     Pre-gap length  0:00:02.00

     Peak level 93.3 %
     Extraction speed 3.7 X
     Track quality 100.0 %
     Test CRC 1ACC166C
     Copy CRC 1ACC166C
     Track not present in AccurateRip database
     Copy OK

None of the tracks are present in the AccurateRip database

No errors occurred

End of status report

==== Log checksum C19F28BC26CDA57E39A9488B38F151A6E43C6000916514AD95D4AEB8DA0D6F62 ====

Код:

Exact Audio Copy V1.0 beta 3 from 29. August 2011

EAC extraction logfile from 12. October 2011, 7:25

Chris Rea / The Journey 1978 - 2009

Used drive  : HL-DT-STDVD-RAM GSA-H20N   Adapter: 3  ID: 0

Read mode               : Secure
Utilize accurate stream : Yes
Defeat audio cache      : Yes
Make use of C2 pointers : No

Read offset correction                      : 102
Overread into Lead-In and Lead-Out          : No
Fill up missing offset samples with silence : Yes
Delete leading and trailing silent blocks   : No
Null samples used in CRC calculations       : Yes
Used interface                              : Installed external ASPI interface
Gap handling                                : Appended to previous track

Used output format : Internal WAV Routines
Sample format      : 44.100 Hz; 16 Bit; Stereo

TOC of the extracted CD

     Track |   Start  |  Length  | Start sector | End sector
    ---------------------------------------------------------
        1  |  0:00.00 |  4:35.44 |         0    |    20668
        2  |  4:35.44 |  4:45.18 |     20669    |    42061
        3  |  9:20.62 |  4:05.00 |     42062    |    60436
        4  | 13:25.62 |  4:23.32 |     60437    |    80193
        5  | 17:49.19 |  5:02.62 |     80194    |   102905
        6  | 22:52.06 |  6:02.00 |    102906    |   130055
        7  | 28:54.06 |  4:52.25 |    130056    |   151980
        8  | 33:46.31 |  3:48.45 |    151981    |   169125
        9  | 37:35.01 |  3:35.35 |    169126    |   185285
       10  | 41:10.36 |  3:42.66 |    185286    |   202001
       11  | 44:53.27 |  4:26.63 |    202002    |   222014
       12  | 49:20.15 |  5:40.27 |    222015    |   247541
       13  | 55:00.42 |  4:46.22 |    247542    |   269013
       14  | 59:46.64 |  4:31.02 |    269014    |   289340
       15  | 64:17.66 |  4:49.59 |    289341    |   311074
       16  | 69:07.50 |  3:43.51 |    311075    |   327850
       17  | 72:51.26 |  6:48.62 |    327851    |   358512

Track  1

     Filename C:\rips\Chris Rea\The Journey 1978 - 2009\01 - The Road To Hell (Part 2).wav

     Pre-gap length  0:00:02.00

     Peak level 89.2 %
     Extraction speed 1.8 X
     Track quality 100.0 %
     Test CRC 0D5F8DB1
     Copy CRC 0D5F8DB1
     Track not present in AccurateRip database
     Copy OK

Track  2

     Filename C:\rips\Chris Rea\The Journey 1978 - 2009\02 - Auberge.wav

     Pre-gap length  0:00:01.00

     Peak level 90.1 %
     Extraction speed 2.0 X
     Track quality 100.0 %
     Test CRC 847C77E7
     Copy CRC 847C77E7
     Track not present in AccurateRip database
     Copy OK

Track  3

     Filename C:\rips\Chris Rea\The Journey 1978 - 2009\03 - Fool (If You Think It's Over).wav

     Pre-gap length  0:00:02.00

     Peak level 96.6 %
     Extraction speed 1.9 X
     Track quality 99.9 %
     Test CRC D5171D73
     Copy CRC D5171D73
     Track not present in AccurateRip database
     Copy OK

Track  4

     Filename C:\rips\Chris Rea\The Journey 1978 - 2009\04 - Soft Top, Hard Shoulder.wav

     Pre-gap length  0:00:01.00

     Peak level 96.6 %
     Extraction speed 2.3 X
     Track quality 100.0 %
     Test CRC C87C2F0A
     Copy CRC C87C2F0A
     Track not present in AccurateRip database
     Copy OK

Track  5

     Filename C:\rips\Chris Rea\The Journey 1978 - 2009\05 - Looking For The Summer.wav

     Pre-gap length  0:00:02.00

     Peak level 96.6 %
     Extraction speed 2.4 X
     Track quality 100.0 %
     Test CRC 875C44D2
     Copy CRC 875C44D2
     Track not present in AccurateRip database
     Copy OK

Track  6

     Filename C:\rips\Chris Rea\The Journey 1978 - 2009\06 - Tell Me There's A Heaven.wav

     Pre-gap length  0:00:02.00

     Peak level 80.2 %
     Extraction speed 2.6 X
     Track quality 100.0 %
     Test CRC A0EF01F7
     Copy CRC A0EF01F7
     Track not present in AccurateRip database
     Copy OK

Track  7

     Filename C:\rips\Chris Rea\The Journey 1978 - 2009\07 - Diamonds.wav

     Pre-gap length  0:00:02.00

     Peak level 96.6 %
     Extraction speed 2.8 X
     Track quality 100.0 %
     Test CRC D64FD6DD
     Copy CRC D64FD6DD
     Track not present in AccurateRip database
     Copy OK

Track  8

     Filename C:\rips\Chris Rea\The Journey 1978 - 2009\08 - Loving You.wav

     Pre-gap length  0:00:02.00

     Peak level 96.6 %
     Extraction speed 2.8 X
     Track quality 100.0 %
     Test CRC 41A5AE19
     Copy CRC 41A5AE19
     Track not present in AccurateRip database
     Copy OK

Track  9

     Filename C:\rips\Chris Rea\The Journey 1978 - 2009\09 - I Don't Know What It Is But I Love It.wav

     Pre-gap length  0:00:00.16

     Peak level 96.6 %
     Extraction speed 2.5 X
     Track quality 99.9 %
     Test CRC 232F6DD5
     Copy CRC 232F6DD5
     Track not present in AccurateRip database
     Copy OK

Track 10

     Filename C:\rips\Chris Rea\The Journey 1978 - 2009\10 - On The Beach (Summer '88).wav

     Pre-gap length  0:00:02.00

     Peak level 77.6 %
     Extraction speed 3.0 X
     Track quality 100.0 %
     Test CRC 938E7A69
     Copy CRC 938E7A69
     Track not present in AccurateRip database
     Copy OK

Track 11

     Filename C:\rips\Chris Rea\The Journey 1978 - 2009\11 - Windy Town.wav

     Pre-gap length  0:00:02.00

     Peak level 96.6 %
     Extraction speed 3.2 X
     Track quality 100.0 %
     Test CRC F97E5F51
     Copy CRC F97E5F51
     Track not present in AccurateRip database
     Copy OK

Track 12

     Filename C:\rips\Chris Rea\The Journey 1978 - 2009\12 - Giverny.wav

     Pre-gap length  0:00:04.01

     Peak level 92.2 %
     Extraction speed 3.3 X
     Track quality 100.0 %
     Test CRC 5C864DEC
     Copy CRC 5C864DEC
     Track not present in AccurateRip database
     Copy OK

Track 13

     Filename C:\rips\Chris Rea\The Journey 1978 - 2009\13 - The Blue Cafe.wav

     Pre-gap length  0:00:02.00

     Peak level 96.6 %
     Extraction speed 3.4 X
     Track quality 100.0 %
     Test CRC 5D2BFE4C
     Copy CRC 5D2BFE4C
     Track not present in AccurateRip database
     Copy OK

Track 14

     Filename C:\rips\Chris Rea\The Journey 1978 - 2009\14 - Winter Song.wav

     Pre-gap length  0:00:02.00

     Peak level 96.6 %
     Extraction speed 3.5 X
     Track quality 100.0 %
     Test CRC 1F3E1A21
     Copy CRC 1F3E1A21
     Track not present in AccurateRip database
     Copy OK

Track 15

     Filename C:\rips\Chris Rea\The Journey 1978 - 2009\15 - Easy Rider.wav

     Pre-gap length  0:00:01.00

     Peak level 82.0 %
     Extraction speed 3.6 X
     Track quality 100.0 %
     Test CRC 50CE63CE
     Copy CRC 50CE63CE
     Track not present in AccurateRip database
     Copy OK

Track 16

     Filename C:\rips\Chris Rea\The Journey 1978 - 2009\16 - Two Roads.wav

     Pre-gap length  0:00:01.00

     Peak level 94.4 %
     Extraction speed 3.6 X
     Track quality 100.0 %
     Test CRC BBC9457E
     Copy CRC BBC9457E
     Track not present in AccurateRip database
     Copy OK

Track 17

     Filename C:\rips\Chris Rea\The Journey 1978 - 2009\17 - Saudade Part 1&2 (Tribute To Ayrton Senna).wav

     Pre-gap length  0:00:01.00

     Peak level 85.1 %
     Extraction speed 3.9 X
     Track quality 100.0 %
     Test CRC 5709488A
     Copy CRC 5709488A
     Track not present in AccurateRip database
     Copy OK

None of the tracks are present in the AccurateRip database

No errors occurred

End of status report

==== Log checksum C6254AF90C674920607EC668B9FCBEFBC197C0C684148780478EF12C5A223722 ====




Если нужна скорость - напишите в ЛС, сразу же отдам максимум скорости на эту раздачу!
info [Профиль]  [ЛС] 

xeroplet

Пол: Пол:Муж

Стаж: 4 года 11 месяцев

Сообщений: 7

Эквадор
Рейтинг

post 24-Ноя-2012 15:16 (спустя 19 часов) [-]0[+]

[Цитировать] 

Lukas
вообще никто не раздает, скачал за сегодня около 20%...(
при максимально возможной 100 мб...
info [Профиль]  [ЛС] 

Lukas

Пол: Пол:Муж

Стаж: 6 лет 11 месяцев

Сообщений: 1308

Предупреждений: 1

Рейтинг

post 24-Ноя-2012 17:04 (спустя 1 час 47 минут) [-]0[+]

[Цитировать] 

xeroplet
презапустил клиент. вроде начал раздавать. был баг какой то.

_________________
От души.
info [Профиль]  [ЛС] 

Geralt

Пол: Пол:Муж

Стаж: 7 лет 8 месяцев

Сообщений: 3741

Финляндия
Рейтинг

post 24-Ноя-2012 18:21 (спустя 1 час 17 минут) [-]0[+]

[Цитировать] 

Lukas
Спасибо большое!!! Вот уж действительно подарок!!! kolob_137

_________________
И да прибудет с нами Сила...
info [Профиль]  [ЛС] 

xeroplet

Пол: Пол:Муж

Стаж: 4 года 11 месяцев

Сообщений: 7

Эквадор
Рейтинг

post 24-Ноя-2012 20:58 (спустя 2 часа 36 минут) [-]0[+]

[Цитировать] 

Lukas писал(а):

xeroplet
презапустил клиент. вроде начал раздавать. был баг какой то.
вроде пошло по-маленьку, спасибо
info [Профиль]  [ЛС] 

Lukas

Пол: Пол:Муж

Стаж: 6 лет 11 месяцев

Сообщений: 1308

Предупреждений: 1

Рейтинг

post 24-Ноя-2012 21:09 (спустя 10 минут) [-]0[+]

[Цитировать] 

Уважаемые скачавшие! Не уходите пожалуйста с раздачи, дайте возможность другим скачать с большой скоростью, ибо я не могу всегда отдавать максимум и так не большой скорости, на одну раздачу. Надеюсь на понимание. Спасибо!

_________________
От души.
info [Профиль]  [ЛС] 
Показать сообщения:    
Ответить на тему

Текущее время: 07-Дек 22:18

Часовой пояс: GMT + 4



Вы не можете начинать темы
Вы не можете отвечать на сообщения
Вы не можете редактировать свои сообщения
Вы не можете удалять свои сообщения
Вы не можете голосовать в опросах
Вы не можете прикреплять файлы к сообщениям
Вы не можете скачивать файлы