Ошибка

(JPop, JRock) Aya Kamiki(上木彩矢) - Дискография, 2004-2011, FLAC (tracks+.cue | image+.cue), lossless

Ответить на тему
 
Автор Сообщение

Phen1x

Пол: Пол:Муж

Стаж: 6 лет 2 месяца

Сообщений: 531

Украина
Рейтинг

post 11-Ноя-2012 13:10 0[+]

[Цитировать] 

Aya Kamiki(上木彩矢) - Дискография

pic="http://s002.youpic.su/pictures/1352581200/ebad5c0e8bd839379c6b96ee3dee9606.jpg"

Жанр: J-Pop, J-rock || Страна: Япония || Год издания: 2004-2011
Тип релиза: tracks+.cue | image+.cue || Аудио кодек: FLAC || Битрейт аудио: lossless
Продолжительность: 9:34:21 || Полиграфия: Частично присутствует



Ая Камики (Kamiki Aya, 上木彩矢) родилась 10 сентября 1985 года в Саппоро (Sapporo), префектура Хоккайдо (Hokkaidō) в Японии. В настоящее время она живет в Осака (Osaka).

С четырех лет она училась игре на пианино. В качестве певицы выступать она начала еще в средней школе (junior high school) . В тоже время начинается ее увлечение музыкой в стиле рок и панк, учится игре на гитаре и решает стать j-rock исполнителем.

В 17 лет она начинает выступать как независимый исполнитель под лейблом FLME (For Life Music Entertainment). Дебют певицы состоялся в 2003 году. Под псевдонимом Kurimu (久里夢) она выпустила свой первый сингл Breath. Через 8 месяцев выходит ее первый мини-альбом W.H.Y?. Также в этом альбоме она меняет псевдоним на KLIM (久里夢).

С 2005 года певица начинает выступать под своим настоящим именем — Kamiki Aya (上木彩矢), и выпускает еще два независимых альбома: Constellation и Rock On.

После этого в 2006-м она подписывает контракт с лейблом GIZA studio и вскоре выпускает сингл Communication Break. Сингл попадает на 48-е место в Oricon чарте. В последующие 2 месяца выходят еще 2 ее сингла — Pierrot (ピエロ) и Mou Kimi Dake wo Hanashitari wa Shinai (もう君だけを離したりはしない). Затем, в июле выходит ее первый полноразмерный альбом Secret Code. Альбом попадает в TOP 10 Oricon чарта. Во время выпуска альбома Aya дает два мини-концерта в Токио. Один под названием «Black Kamiki» в Tower Record Shibuya, и второй — «White Aya» в HMV Shibuya.

Фотографии Kamiki Aya появлялись в музыкальных журналах и журналах моды, таких как «KERA», «Music Freak Magazine», «B-PASS».

Официальный сайт певицы http://www.kamikiaya.jp (японский)


Треклист:
01. W.H.Y? ~Ichi Nin ni Shinai de~ (W.H.Y? ~一人にしないで~) (5:17)
02. Always Love You (5:25)
03. Tobenai Tori (飛べない鳥) (4:36)
04. Kokuhaku (告白) (4:34)
05. Heartbeat (4:37)
06. Koishikute (恋しくて) (5:10)
07. W.H.Y? ~一人にしないで~ (TV Mix) (5:17)
08. Always Love You TV Mix (5:58)
  
AUDIOCHECKER v2.0 beta (build 457) - by Dester - opdester@freemail.hu
~~~~~~~~~~~~~~~~~~~~~~~~~~~~~~~~~~
-=== DO NOT EDIT THIS FILE! ===-

Path: ...\W.H.Y

1 -=- Aya Kamiki - W.H.Y..flac -=- CDDA (100%)

3560852

  
REM GENRE Jpop
REM DATE 2004
PERFORMER "Aya Kamiki (上木彩矢)"
TITLE "W.H.Y.?"
FILE "Aya Kamiki - W.H.Y..flac" WAVE
TRACK 01 AUDIO
TITLE "W.H.Y? ~Ichi Nin ni Shinai de~ (W.H.Y? ~一人にしないで~)"
INDEX 01 00:00:00
TRACK 02 AUDIO
TITLE "Always Love You"
INDEX 01 05:17:02
TRACK 03 AUDIO
TITLE "Tobenai Tori (飛べない鳥)"
INDEX 01 10:41:72
TRACK 04 AUDIO
TITLE "Kokuhaku (告白)"
INDEX 01 15:18:07
TRACK 05 AUDIO
TITLE "Heartbeat"
INDEX 01 19:52:07
TRACK 06 AUDIO
TITLE "Koishikute (恋しくて)"
INDEX 01 24:29:32
TRACK 07 AUDIO
TITLE "W.H.Y? ~一人にしないで~ (TV Mix)"
INDEX 01 29:39:15
TRACK 08 AUDIO
TITLE "Always Love You TV Mix"
INDEX 01 34:56:35

Треклист:
01. 19~Since I Was Born (4:18)
02. ShooBidooBiBa (3:44)
03. Because I close to U (4:16)
04. Always (4:23)
05. A constellation (3:35)
06. Honey (3:29)
07. I Love my Superman (4:44)
  
Exact Audio Copy V0.99 prebeta 5 from 4. May 2009

EAC extraction logfile from 29. November 2010, 11:15

Aya Kamiki / Constellation

Used drive : ASUS DRW-20B1ST Adapter: 0 ID: 0

Read mode : Secure
Utilize accurate stream : Yes
Defeat audio cache : Yes
Make use of C2 pointers : No

Read offset correction : 6
Overread into Lead-In and Lead-Out : No
Fill up missing offset samples with silence : Yes
Delete leading and trailing silent blocks : No
Null samples used in CRC calculations : Yes
Used interface : Native Win32 interface for Win NT & 2000
Gap handling : Appended to previous track

Used output format : User Defined Encoder
Selected bitrate : 320 kBit/s
Quality : High
Add ID3 tag : No
Command line compressor : C:\Program Files\Exact Audio Copy\Flac\flac.exe
Additional command line options : -V -8 -T "artist=%a" -T "title=%t" -T "album=%g" -T "date=%y" -T "tracknumber=%n" -T "genre=%m" %s

TOC of the extracted CD

Track | Start | Length | Start sector | End sector
---------------------------------------------------------
1 | 0:00.00 | 4:18.00 | 0 | 19349
2 | 4:18.00 | 3:43.67 | 19350 | 36141
3 | 8:01.67 | 4:16.15 | 36142 | 55356
4 | 12:18.07 | 4:23.33 | 55357 | 75114
5 | 16:41.40 | 3:35.05 | 75115 | 91244
6 | 20:16.45 | 3:28.55 | 91245 | 106899
7 | 23:45.25 | 4:43.55 | 106900 | 128179

Track 1

Filename I:\EACRip\Aya Kamiki - 2005 - Constellation [FLAC]\01 - 19ЎгSince I Was Born.wav

Pre-gap length 0:00:02.00

Peak level 97.2 %
Track quality 99.9 %
Test CRC 9D0B17A7
Copy CRC 9D0B17A7
Track not present in AccurateRip database
Copy OK

Track 2

Filename I:\EACRip\Aya Kamiki - 2005 - Constellation [FLAC]\02 - ShooBidooBiBa.wav

Peak level 95.9 %
Track quality 100.0 %
Test CRC A8C389C6
Copy CRC A8C389C6
Track not present in AccurateRip database
Copy OK

Track 3

Filename I:\EACRip\Aya Kamiki - 2005 - Constellation [FLAC]\03 - Because I close to U.wav

Pre-gap length 0:00:01.66

Peak level 99.7 %
Track quality 100.0 %
Test CRC D3D2F92D
Copy CRC D3D2F92D
Track not present in AccurateRip database
Copy OK

Track 4

Filename I:\EACRip\Aya Kamiki - 2005 - Constellation [FLAC]\04 - Always.wav

Pre-gap length 0:00:01.26

Peak level 99.7 %
Track quality 100.0 %
Test CRC 835D2902
Copy CRC 835D2902
Track not present in AccurateRip database
Copy OK

Track 5

Filename I:\EACRip\Aya Kamiki - 2005 - Constellation [FLAC]\05 - A constellation.wav

Pre-gap length 0:00:00.64

Peak level 97.8 %
Track quality 100.0 %
Test CRC 3B2A0736
Copy CRC 3B2A0736
Track not present in AccurateRip database
Copy OK

Track 6

Filename I:\EACRip\Aya Kamiki - 2005 - Constellation [FLAC]\06 - Honey.wav

Pre-gap length 0:00:00.13

Peak level 90.2 %
Track quality 100.0 %
Test CRC 1236A8CA
Copy CRC 1236A8CA
Track not present in AccurateRip database
Copy OK

Track 7

Filename I:\EACRip\Aya Kamiki - 2005 - Constellation [FLAC]\07 - I Love my Superman.wav

Pre-gap length 0:00:00.33

Peak level 85.7 %
Track quality 100.0 %
Test CRC FC88D85E
Copy CRC FC88D85E
Track not present in AccurateRip database
Copy OK

None of the tracks are present in the AccurateRip database

No errors occurred

End of status report

  
REM GENRE Rock
REM DATE 2005
REM DISCID 4206AD07
REM COMMENT "ExactAudioCopy v0.99pb5"
FILE "01 - 19ЎгSince I Was Born.wav" WAVE
TRACK 01 AUDIO
INDEX 01 00:00:00
FILE "02 - ShooBidooBiBa.wav" WAVE
TRACK 02 AUDIO
INDEX 01 00:00:00
TRACK 03 AUDIO
INDEX 00 03:42:17
FILE "03 - Because I close to U.wav" WAVE
INDEX 01 00:00:00
TRACK 04 AUDIO
INDEX 00 04:14:70
FILE "04 - Always.wav" WAVE
INDEX 01 00:00:00
TRACK 05 AUDIO
INDEX 00 04:22:60
FILE "05 - A constellation.wav" WAVE
INDEX 01 00:00:00
TRACK 06 AUDIO
INDEX 00 03:34:70
FILE "06 - Honey.wav" WAVE
INDEX 01 00:00:00
TRACK 07 AUDIO
INDEX 00 03:28:30
FILE "07 - I Love my Superman.wav" WAVE
INDEX 01 00:00:00

Треклист:
01. CRAZY (4:11)
02. NEED YOU (5:04)
03. TO.. heaven (3:24)
04. SAY!! WOH!!!!! (2:31)
05. tear (3:17)
06. DEEP (4:51)
07. Amaze -meikyuu- (3:56)
08. January 28 ~two of us~ (4:06)
  
AUDIOCHECKER v2.0 beta (build 457) - by Dester - opdester@freemail.hu
~~~~~~~~~~~~~~~~~~~~~~~~~~~~~~~~~~
-=== DO NOT EDIT THIS FILE! ===-

Path: ...\Rock On

1 -=- 01 - CRAZY.flac -=- CDDA (100%)
2 -=- 02 - NEED YOU.flac -=- CDDA (100%)
3 -=- 03 - To.. heaven.flac -=- CDDA (100%)
4 -=- 04 - Say!! WOH!!!!!.flac -=- CDDA (100%)
5 -=- 05 - tear.flac -=- CDDA (100%)
6 -=- 06 - DEEP.flac -=- CDDA (100%)
7 -=- 07 - Amaze -meikyuu-.flac -=- CDDA (100%)
8 -=- 08 - January 28 ~two of us~.flac -=- CDDA (100%)

Summary 100,00% CDDA

35949636

Треклист:
01. Communication Break (3:34)
02. Pierrot (3:14)
03. Mou Kimi Dake wo Hanashitari wa Shinai (4:19)
04. Secret Code (3:54)
05. Bounce Bounce Bounce (4:10)
06. Pride of Place (4:10)
07. Natsu no Aru Hi (4:16)
08. I Sting This Song For You (2:57)
09. Kizu Darake Demo Dakishimete (3:38)
10. Belive in You (3:55)
11. Can't Stop Fallin' in LOVE (3:20)
12. Changinh The World (5:08)
13. Friends (?)
  
Exact Audio Copy V0.99 prebeta 5 from 4. May 2009

Отчёт EAC об извлечении, выполненном 17. мая 2010, 7:06

Aya Kamiki / Secret Code

Дисковод: PLEXTOR CD-R PX-W5224A Adapter: 1 ID: 0

Режим чтения : Достоверность
Использование точного потока : Да
Отключение кэша аудио : Да
Использование указателей C2 : Нет

Коррекция смещения при чтении : 30
Способность читать области Lead-in и Lead-out : Нет
Заполнение пропущенных сэмплов тишиной : Да
Удаление блоков с тишиной в начале и конце : Нет
При вычислениях CRC использовались нулевые сэмплы : Да
Интерфейс : Встроенный Win32-интерфейс для Win NT/2000

Выходной формат : Внутренние WAV-операции
Формат сэмплов : 44.100 Гц; 16 бит; стерео

TOC извлечённого CD

Трек | Старт | Длительность | Начальный сектор | Конечный сектор
---------------------------------------------------------------------
1 | 0:00.00 | 3:34.25 | 0 | 16074
2 | 3:34.25 | 3:13.60 | 16075 | 30609
3 | 6:48.10 | 4:19.12 | 30610 | 50046
4 | 11:07.22 | 3:54.03 | 50047 | 67599
5 | 15:01.25 | 4:09.45 | 67600 | 86319
6 | 19:10.70 | 4:10.17 | 86320 | 105086
7 | 23:21.12 | 4:16.15 | 105087 | 124301
8 | 27:37.27 | 2:56.73 | 124302 | 137574
9 | 30:34.25 | 3:38.30 | 137575 | 153954
10 | 34:12.55 | 3:54.70 | 153955 | 171574
11 | 38:07.50 | 3:19.40 | 171575 | 186539
12 | 41:27.15 | 5:07.40 | 186540 | 209604
13 | 46:34.55 | 5:22.50 | 209605 | 233804

Характеристики диапазона извлечения и сообщения об ошибках

Выбранный диапазон

Имя файла C:\torrents\Aya Kamiki - Secret Code.wav

Пиковый уровень 99.7 %
Качество диапазона 100.0 %
CRC теста 90765ED1
CRC копии 90765ED1
Копирование... OK

Ошибок не произошло

AccurateRip: сводка
Трек 1 нет в базе данных
Трек 2 нет в базе данных
Трек 3 нет в базе данных
Трек 4 нет в базе данных
Трек 5 нет в базе данных
Трек 6 нет в базе данных
Трек 7 нет в базе данных
Трек 8 нет в базе данных
Трек 9 нет в базе данных
Трек 10 нет в базе данных
Трек 11 нет в базе данных
Трек 12 нет в базе данных
Трек 13 нет в базе данных
Ни одного трека нет в базе AccurateRip

Конец отчёта

  
REM GENRE Vocal
REM DATE 2006
REM DISCID B80C2D0D
REM COMMENT "ExactAudioCopy v0.99pb5"
PERFORMER "Aya Kamiki"
TITLE "Secret Code"
FILE "Aya Kamiki - Secret Code.flac" WAVE
TRACK 01 AUDIO
TITLE "Communication Break"
PERFORMER "Aya Kamiki"
INDEX 01 00:00:00
TRACK 02 AUDIO
TITLE "Pierrot"
PERFORMER "Aya Kamiki"
INDEX 01 03:34:25
TRACK 03 AUDIO
TITLE "Mou Kimi Dake wo Hanashitari wa Shinai"
PERFORMER "Aya Kamiki"
INDEX 01 06:48:10
TRACK 04 AUDIO
TITLE "Secret Code"
PERFORMER "Aya Kamiki"
INDEX 01 11:07:22
TRACK 05 AUDIO
TITLE "Bounce Bounce Bounce"
PERFORMER "Aya Kamiki"
INDEX 01 15:01:25
TRACK 06 AUDIO
TITLE "Pride of Place"
PERFORMER "Aya Kamiki"
INDEX 01 19:10:70
TRACK 07 AUDIO
TITLE "Natsu no Aru Hi"
PERFORMER "Aya Kamiki"
INDEX 01 23:21:12
TRACK 08 AUDIO
TITLE "I Sting This Song For You"
PERFORMER "Aya Kamiki"
INDEX 01 27:37:27
TRACK 09 AUDIO
TITLE "Kizu Darake Demo Dakishimete"
PERFORMER "Aya Kamiki"
INDEX 01 30:34:25
TRACK 10 AUDIO
TITLE "Belive in You"
PERFORMER "Aya Kamiki"
INDEX 01 34:12:55
TRACK 11 AUDIO
TITLE "Can't Stop Fallin' in LOVE"
PERFORMER "Aya Kamiki"
INDEX 01 38:07:50
TRACK 12 AUDIO
TITLE "Changinh The World"
PERFORMER "Aya Kamiki"
INDEX 01 41:27:15
TRACK 13 AUDIO
TITLE "Friends"
PERFORMER "Aya Kamiki"
INDEX 01 46:34:55

Треклист:
01. Sekaijuu no Dare mo ga (4:32)
02. Ashita no Tame ni (Album Version) (4:15)
03. YOU & ME (3:43)
04. Tears (5:06)
05. Kokoro ga.. Mou Sukoshi (4:37)
06. Yume no Naka ni Made (4:39)
07. Nemutteita Kimochi Nemutteita Kokoro (Album Version) (4:17)
08. Mou Kaeranai (4:28)
09. Forever More (4:45)
10. Youthful diary (3:55)
11. Misekake no I Love you (Album Version) (4:48)
12. Kanawanai Nara ~winter lovers~ (5:03)
13. Hoshi no Furu Yoru ni wa (4:17)
14. A constellation ~2007 (?)
  
Exact Audio Copy V0.99 prebeta 5 from 4. May 2009

Отчёт EAC об извлечении, выполненном 17. мая 2010, 8:21

Aya Kamiki / Ashita no Tame ni ~Forever More~

Дисковод: PLEXTOR CD-R PX-W5224A Adapter: 1 ID: 0

Режим чтения : Достоверность
Использование точного потока : Да
Отключение кэша аудио : Да
Использование указателей C2 : Нет

Коррекция смещения при чтении : 30
Способность читать области Lead-in и Lead-out : Нет
Заполнение пропущенных сэмплов тишиной : Да
Удаление блоков с тишиной в начале и конце : Нет
При вычислениях CRC использовались нулевые сэмплы : Да
Интерфейс : Встроенный Win32-интерфейс для Win NT/2000

Выходной формат : Внутренние WAV-операции
Формат сэмплов : 44.100 Гц; 16 бит; стерео

TOC извлечённого CD

Трек | Старт | Длительность | Начальный сектор | Конечный сектор
---------------------------------------------------------------------
1 | 0:00.00 | 4:32.19 | 0 | 20418
2 | 4:32.19 | 4:14.51 | 20419 | 39519
3 | 8:46.70 | 3:43.33 | 39520 | 56277
4 | 12:30.28 | 5:06.14 | 56278 | 79241
5 | 17:36.42 | 4:36.48 | 79242 | 99989
6 | 22:13.15 | 4:39.03 | 99990 | 120917
7 | 26:52.18 | 4:17.27 | 120918 | 140219
8 | 31:09.45 | 4:28.24 | 140220 | 160343
9 | 35:37.69 | 4:45.27 | 160344 | 181745
10 | 40:23.21 | 3:54.48 | 181746 | 199343
11 | 44:17.69 | 4:47.46 | 199344 | 220914
12 | 49:05.40 | 5:02.40 | 220915 | 243604
13 | 54:08.05 | 4:17.35 | 243605 | 262914
14 | 58:25.40 | 4:37.08 | 262915 | 283697

Характеристики диапазона извлечения и сообщения об ошибках

Выбранный диапазон

Имя файла C:\torrents\Aya Kamiki - Ashita no Tame ni ~Forever More~.wav

Пиковый уровень 99.7 %
Качество диапазона 100.0 %
CRC теста A9A50A42
CRC копии A9A50A42
Копирование... OK

Ошибок не произошло

AccurateRip: сводка
Трек 1 нет в базе данных
Трек 2 нет в базе данных
Трек 3 нет в базе данных
Трек 4 нет в базе данных
Трек 5 нет в базе данных
Трек 6 нет в базе данных
Трек 7 нет в базе данных
Трек 8 нет в базе данных
Трек 9 нет в базе данных
Трек 10 нет в базе данных
Трек 11 нет в базе данных
Трек 12 нет в базе данных
Трек 13 нет в базе данных
Трек 14 нет в базе данных
Ни одного трека нет в базе AccurateRip

Конец отчёта

  
REM GENRE Rock
REM DATE 2007
REM DISCID C40EC60E
REM COMMENT "ExactAudioCopy v0.99pb5"
PERFORMER "Aya Kamiki "
TITLE "Ashita no Tame ni ~Forever More~"
FILE "Aya Kamiki - Ashita no Tame ni ~Forever More~.flac" WAVE
TRACK 01 AUDIO
TITLE "Sekaijuu no Dare mo ga"
PERFORMER "Aya Kamiki "
INDEX 01 00:00:00
TRACK 02 AUDIO
TITLE "Ashita no Tame ni (Album Version)"
PERFORMER "Aya Kamiki "
INDEX 01 04:32:19
TRACK 03 AUDIO
TITLE "YOU & ME"
PERFORMER "Aya Kamiki "
INDEX 01 08:46:70
TRACK 04 AUDIO
TITLE "Tears"
PERFORMER "Aya Kamiki "
INDEX 01 12:30:28
TRACK 05 AUDIO
TITLE "Kokoro ga.. Mou Sukoshi"
PERFORMER "Aya Kamiki "
INDEX 01 17:36:42
TRACK 06 AUDIO
TITLE "Yume no Naka ni Made"
PERFORMER "Aya Kamiki "
INDEX 01 22:13:15
TRACK 07 AUDIO
TITLE "Nemutteita Kimochi Nemutteita Kokoro (Album Version)"
PERFORMER "Aya Kamiki "
INDEX 01 26:52:18
TRACK 08 AUDIO
TITLE "Mou Kaeranai"
PERFORMER "Aya Kamiki "
INDEX 01 31:09:45
TRACK 09 AUDIO
TITLE "Forever More"
PERFORMER "Aya Kamiki "
INDEX 01 35:37:69
TRACK 10 AUDIO
TITLE "Youthful diary"
PERFORMER "Aya Kamiki "
INDEX 01 40:23:21
TRACK 11 AUDIO
TITLE "Misekake no I Love you (Album Version)"
PERFORMER "Aya Kamiki "
INDEX 01 44:17:69
TRACK 12 AUDIO
TITLE "Kanawanai Nara ~winter lovers~"
PERFORMER "Aya Kamiki "
INDEX 01 49:05:40
TRACK 13 AUDIO
TITLE "Hoshi no Furu Yoru ni wa"
PERFORMER "Aya Kamiki "
INDEX 01 54:08:05
TRACK 14 AUDIO
TITLE "A constellation ~2007"
PERFORMER "Aya Kamiki "
INDEX 01 58:25:40

Треклист:
01. Are you happy now? (2:59)
02. It's a beautiful day (3:57)
03. Just take my heart (3:55)
04. Itsu no Hi mo Kimi Dake I Remember you (5:12)
05. SUNDAY MORNING (3:58)
06. Summer Memories (5:37)
07. I'm your side (3:19)
08. Walking down the street (3:45)
09. Secret Night (3:00)
10. Crash (4:17)
11. Good-bye my love (3:54)
12. Kimi Sarishi Yuuwaku (3:27)
13. Best of my love (5:03)
14. Ai wa Kurayami no Naka de (?)
  
Exact Audio Copy V0.99 prebeta 5 from 4. May 2009

Отчёт EAC об извлечении, выполненном 12. мая 2010, 8:44

Aya Kamiki / Are you happy now?

Дисковод: PLEXTOR CD-R PX-W5224A Adapter: 1 ID: 0

Режим чтения : Достоверность
Использование точного потока : Да
Отключение кэша аудио : Да
Использование указателей C2 : Нет

Коррекция смещения при чтении : 30
Способность читать области Lead-in и Lead-out : Нет
Заполнение пропущенных сэмплов тишиной : Да
Удаление блоков с тишиной в начале и конце : Нет
При вычислениях CRC использовались нулевые сэмплы : Да
Интерфейс : Встроенный Win32-интерфейс для Win NT/2000

Выходной формат : Внутренние WAV-операции
Формат сэмплов : 44.100 Гц; 16 бит; стерео

TOC извлечённого CD

Трек | Старт | Длительность | Начальный сектор | Конечный сектор
---------------------------------------------------------------------
1 | 0:00.00 | 2:58.54 | 0 | 13403
2 | 2:58.54 | 3:57.28 | 13404 | 31206
3 | 6:56.07 | 3:54.58 | 31207 | 48814
4 | 10:50.65 | 5:11.57 | 48815 | 72196
5 | 16:02.47 | 3:57.38 | 72197 | 90009
6 | 20:00.10 | 5:37.28 | 90010 | 115312
7 | 25:37.38 | 3:19.06 | 115313 | 130243
8 | 28:56.44 | 3:45.33 | 130244 | 147151
9 | 32:42.02 | 2:59.58 | 147152 | 160634
10 | 35:41.60 | 4:17.07 | 160635 | 179916
11 | 39:58.67 | 3:53.63 | 179917 | 197454
12 | 43:52.55 | 3:27.23 | 197455 | 213002
13 | 47:20.03 | 5:02.38 | 213003 | 235690
14 | 52:22.41 | 4:07.39 | 235691 | 254254

Характеристики диапазона извлечения и сообщения об ошибках

Выбранный диапазон

Имя файла C:\torrents\Aya Kamiki - Are you happy now.wav

Пиковый уровень 99.7 %
Качество диапазона 100.0 %
CRC теста E908A6A1
CRC копии E908A6A1
Копирование... OK

Ошибок не произошло

AccurateRip: сводка
Трек 1 точность не определена (достоверность 2) [CCDA3489], AccurateRip вернул [29AFA40D]
Трек 2 точность не определена (достоверность 2) [CABA1F72], AccurateRip вернул [6E537F4A]
Трек 3 точность не определена (достоверность 2) [60834D35], AccurateRip вернул [B9C8C21D]
Трек 4 точность не определена (достоверность 2) [0F134772], AccurateRip вернул [7B0E1AF0]
Трек 5 точность не определена (достоверность 2) [3CC3061C], AccurateRip вернул [51F21022]
Трек 6 точность не определена (достоверность 2) [CF73542C], AccurateRip вернул [14136950]
Трек 7 точность не определена (достоверность 2) [5A435D7E], AccurateRip вернул [3F3FC592]
Трек 8 точность не определена (достоверность 2) [056452F8], AccurateRip вернул [D1E71280]
Трек 9 точность не определена (достоверность 2) [9CFA8DF1], AccurateRip вернул [CF87A995]
Трек 10 точность не определена (достоверность 2) [9983DB2A], AccurateRip вернул [E9EF76AC]
Трек 11 точность не определена (достоверность 2) [3847C6E6], AccurateRip вернул [C74A0D6E]
Трек 12 точность не определена (достоверность 2) [63DC1DE1], AccurateRip вернул [2BC8BF3B]
Трек 13 точность не определена (достоверность 2) [429BF9FA], AccurateRip вернул [0D7EE2A2]
Трек 14 точность не определена (достоверность 2) [F435A733], AccurateRip вернул [A27C8001]
Ни один трек не прошёл проверки на точность
В вашей базе может быть иной вариант штамповки диска

Конец отчёта

  
REM GENRE JPop
REM DATE 2008
REM DISCID B10D3E0E
REM COMMENT "ExactAudioCopy v0.99pb5"
PERFORMER "Aya Kamiki"
TITLE "Are you happy now?"
FILE "Aya Kamiki - Are you happy now.flac" WAVE
TRACK 01 AUDIO
TITLE "Are you happy now?"
PERFORMER "Aya Kamiki"
INDEX 01 00:00:00
TRACK 02 AUDIO
TITLE "It's a beautiful day"
PERFORMER "Aya Kamiki"
INDEX 00 02:57:40
INDEX 01 02:58:54
TRACK 03 AUDIO
TITLE "Just take my heart"
PERFORMER "Aya Kamiki"
INDEX 00 06:55:09
INDEX 01 06:56:07
TRACK 04 AUDIO
TITLE "Itsu no Hi mo Kimi Dake I Remember you"
PERFORMER "Aya Kamiki"
INDEX 00 10:50:25
INDEX 01 10:50:65
TRACK 05 AUDIO
TITLE "SUNDAY MORNING"
PERFORMER "Aya Kamiki"
INDEX 00 16:02:05
INDEX 01 16:02:47
TRACK 06 AUDIO
TITLE "Summer Memories"
PERFORMER "Aya Kamiki"
INDEX 00 19:58:10
INDEX 01 20:00:10
TRACK 07 AUDIO
TITLE "I'm your side"
PERFORMER "Aya Kamiki"
INDEX 00 25:37:18
INDEX 01 25:37:38
TRACK 08 AUDIO
TITLE "Walking down the street"
PERFORMER "Aya Kamiki"
INDEX 00 28:55:14
INDEX 01 28:56:44
TRACK 09 AUDIO
TITLE "Secret Night"
PERFORMER "Aya Kamiki"
INDEX 00 32:40:53
INDEX 01 32:42:02
TRACK 10 AUDIO
TITLE "Crash"
PERFORMER "Aya Kamiki"
INDEX 00 35:40:15
INDEX 01 35:41:60
TRACK 11 AUDIO
TITLE "Good-bye my love"
PERFORMER "Aya Kamiki"
INDEX 00 39:56:33
INDEX 01 39:58:67
TRACK 12 AUDIO
TITLE "Kimi Sarishi Yuuwaku"
PERFORMER "Aya Kamiki"
INDEX 00 43:52:11
INDEX 01 43:52:55
TRACK 13 AUDIO
TITLE "Best of my love"
PERFORMER "Aya Kamiki"
INDEX 00 47:18:44
INDEX 01 47:20:03
TRACK 14 AUDIO
TITLE "Ai wa Kurayami no Naka de"
PERFORMER "Aya Kamiki"
INDEX 00 52:21:32
INDEX 01 52:22:41

Треклист:
CD1:
01. introduction -INDIVIDUAL EMOTION- (1:27)
02. The Light (4:16)
03. To-The-Attack (3:15)
04. Empty (4:24)
05. Break my day (3:59)
06. Dear my... (4:20)
07. sokubaku LOVE (3:35)
08. Clap Your Hands (3:10)
09. 248 Mile (3:43)
10. I wish in your dreams (3:13)
11. AYA KAMIKI w TAKUYA / W-B-X Ў«W Boiled ExtremeЎ« (?)

CD2:
01. Sekaijuu no Daremo ga (4:32)
02. I'm your side (3:20)
03. Can't stop fallin' in LOVE (3:19)
04. Crash (4:15)
05. Youthful Diary (3:54)
06. Whenever you're gone Today (3:44)
07. It's a beautiful day (3:59)
08. Ever So Sweet (5:15)
09. Friends (5:25)
10. ShooBiDooBiBa (?)
  
Exact Audio Copy V0.99 prebeta 5 from 4. May 2009

Отчёт EAC об извлечении, выполненном 12. мая 2010, 12:25

aya kamiki / INDIVIDUAL EMOTION Disc 1

Дисковод: PLEXTOR CD-R PX-W5224A Adapter: 1 ID: 0

Режим чтения : Достоверность
Использование точного потока : Да
Отключение кэша аудио : Да
Использование указателей C2 : Нет

Коррекция смещения при чтении : 30
Способность читать области Lead-in и Lead-out : Нет
Заполнение пропущенных сэмплов тишиной : Да
Удаление блоков с тишиной в начале и конце : Нет
При вычислениях CRC использовались нулевые сэмплы : Да
Интерфейс : Встроенный Win32-интерфейс для Win NT/2000

Выходной формат : Внутренние WAV-операции
Формат сэмплов : 44.100 Гц; 16 бит; стерео

TOC извлечённого CD

Трек | Старт | Длительность | Начальный сектор | Конечный сектор
---------------------------------------------------------------------
1 | 0:00.00 | 1:27.15 | 0 | 6539
2 | 1:27.15 | 4:15.69 | 6540 | 25733
3 | 5:43.09 | 3:15.16 | 25734 | 40374
4 | 8:58.25 | 4:24.35 | 40375 | 60209
5 | 13:22.60 | 3:58.56 | 60210 | 78115
6 | 17:21.41 | 4:19.41 | 78116 | 97581
7 | 21:41.07 | 3:35.01 | 97582 | 113707
8 | 25:16.08 | 3:10.33 | 113708 | 127990
9 | 28:26.41 | 3:43.28 | 127991 | 144743
10 | 32:09.69 | 3:13.30 | 144744 | 159248
11 | 35:23.24 | 3:18.71 | 159249 | 174169

Характеристики диапазона извлечения и сообщения об ошибках

Выбранный диапазон

Имя файла C:\torrents\aya kamiki - INDIVIDUAL EMOTION Disc 1.wav

Пиковый уровень 100.0 %
Качество диапазона 100.0 %
CRC теста 87C13378
CRC копии 87C13378
Копирование... OK

Ошибок не произошло

AccurateRip: сводка
Трек 1 точность не определена (достоверность 4) [0C4B09DC], AccurateRip вернул [02864BC6]
Трек 2 точность не определена (достоверность 4) [604BA946], AccurateRip вернул [FF7FE482]
Трек 3 точность не определена (достоверность 4) [0681C9FB], AccurateRip вернул [24F2DEB1]
Трек 4 точность не определена (достоверность 4) [9BB22949], AccurateRip вернул [7CA32D77]
Трек 5 точность не определена (достоверность 4) [81DF083E], AccurateRip вернул [F10637A0]
Трек 6 точность не определена (достоверность 4) [093AF6CA], AccurateRip вернул [EEB4E062]
Трек 7 точность не определена (достоверность 4) [731DB3E0], AccurateRip вернул [B947D566]
Трек 8 точность не определена (достоверность 4) [145B7A25], AccurateRip вернул [5E3D7C3B]
Трек 9 точность не определена (достоверность 4) [5403A15A], AccurateRip вернул [511BA42E]
Трек 10 точность не определена (достоверность 4) [98169F04], AccurateRip вернул [B6DE27F2]
Трек 11 точность не определена (достоверность 4) [9D6B8BB1], AccurateRip вернул [744B5353]
Ни один трек не прошёл проверки на точность
В вашей базе может быть иной вариант штамповки диска

Конец отчёта

  
REM GENRE JPop
REM DATE 2010
REM DISCID 7A09120B
REM COMMENT "ExactAudioCopy v0.99pb5"
PERFORMER "aya kamiki"
TITLE "INDIVIDUAL EMOTION Disc 1"
FILE "aya kamiki - INDIVIDUAL EMOTION Disc 1.flac" WAVE
TRACK 01 AUDIO
TITLE "introduction -INDIVIDUAL EMOTION-"
PERFORMER "aya kamiki"
INDEX 01 00:00:00
TRACK 02 AUDIO
TITLE "The Light"
PERFORMER "aya kamiki"
INDEX 01 01:27:15
TRACK 03 AUDIO
TITLE "To-The-Attack"
PERFORMER "aya kamiki"
INDEX 01 05:43:09
TRACK 04 AUDIO
TITLE "Empty"
PERFORMER "aya kamiki"
INDEX 01 08:58:25
TRACK 05 AUDIO
TITLE "Break my day"
PERFORMER "aya kamiki"
INDEX 01 13:22:60
TRACK 06 AUDIO
TITLE "Dear my..."
PERFORMER "aya kamiki"
INDEX 01 17:21:41
TRACK 07 AUDIO
TITLE "sokubaku LOVE"
PERFORMER "aya kamiki"
INDEX 01 21:41:07
TRACK 08 AUDIO
TITLE "Clap Your Hands"
PERFORMER "aya kamiki"
INDEX 01 25:16:08
TRACK 09 AUDIO
TITLE "248 Mile"
PERFORMER "aya kamiki"
INDEX 01 28:26:41
TRACK 10 AUDIO
TITLE "I wish in your dreams"
PERFORMER "aya kamiki"
INDEX 01 32:09:69
TRACK 11 AUDIO
TITLE "AYA KAMIKI w TAKUYA / W-B-X Ў«W Boiled ExtremeЎ«"
PERFORMER "aya kamiki"
INDEX 01 35:23:24

  
Exact Audio Copy V0.99 prebeta 5 from 4. May 2009

Отчёт EAC об извлечении, выполненном 13. мая 2010, 14:10

Aya Kamiki / INDIVIDUAL EMOTION Disc 2

Дисковод: PLEXTOR CD-R PX-W5224A Adapter: 1 ID: 0

Режим чтения : Достоверность
Использование точного потока : Да
Отключение кэша аудио : Да
Использование указателей C2 : Нет

Коррекция смещения при чтении : 30
Способность читать области Lead-in и Lead-out : Нет
Заполнение пропущенных сэмплов тишиной : Да
Удаление блоков с тишиной в начале и конце : Нет
При вычислениях CRC использовались нулевые сэмплы : Да
Интерфейс : Встроенный Win32-интерфейс для Win NT/2000

Выходной формат : Внутренние WAV-операции
Формат сэмплов : 44.100 Гц; 16 бит; стерео

TOC извлечённого CD

Трек | Старт | Длительность | Начальный сектор | Конечный сектор
---------------------------------------------------------------------
1 | 0:00.00 | 4:31.68 | 0 | 20392
2 | 4:31.68 | 3:19.39 | 20393 | 35356
3 | 7:51.32 | 3:18.38 | 35357 | 50244
4 | 11:09.70 | 4:14.39 | 50245 | 69333
5 | 15:24.34 | 3:54.21 | 69334 | 86904
6 | 19:18.55 | 3:43.63 | 86905 | 103692
7 | 23:02.43 | 3:58.43 | 103693 | 121585
8 | 27:01.11 | 5:14.44 | 121586 | 145179
9 | 32:15.55 | 5:25.26 | 145180 | 169580
10 | 37:41.06 | 3:43.36 | 169581 | 186341

Характеристики диапазона извлечения и сообщения об ошибках

Выбранный диапазон

Имя файла C:\torrents\Aya Kamiki - INDIVIDUAL EMOTION Disc 2.wav

Пиковый уровень 100.0 %
Качество диапазона 100.0 %
CRC теста 5D444832
CRC копии 5D444832
Копирование... OK

Ошибок не произошло

AccurateRip: сводка
Трек 1 точность не определена (достоверность 4) [D0AA2302], AccurateRip вернул [0FC13ED2]
Трек 2 точность не определена (достоверность 4) [07EED1C1], AccurateRip вернул [2AB2C33B]
Трек 3 точность не определена (достоверность 4) [551E51AC], AccurateRip вернул [97C77DB2]
Трек 4 точность не определена (достоверность 4) [0E4307B8], AccurateRip вернул [B6E0D6EE]
Трек 5 точность не определена (достоверность 4) [533E5B0D], AccurateRip вернул [24099F37]
Трек 6 точность не определена (достоверность 4) [E5D56299], AccurateRip вернул [96261CED]
Трек 7 точность не определена (достоверность 4) [7F8C3F4C], AccurateRip вернул [54343DB2]
Трек 8 точность не определена (достоверность 4) [06087DAE], AccurateRip вернул [4FBD5488]
Трек 9 точность не определена (достоверность 4) [D61C84D9], AccurateRip вернул [DD4A2B95]
Трек 10 точность не определена (достоверность 4) [D65429DE], AccurateRip вернул [D4627CC6]
Ни один трек не прошёл проверки на точность
В вашей базе может быть иной вариант штамповки диска

Конец отчёта

  
REM DATE 2010
REM DISCID 8009B40A
REM COMMENT "ExactAudioCopy v0.99pb5"
PERFORMER "Aya Kamiki"
TITLE "INDIVIDUAL EMOTION Disc 2"
FILE "Aya Kamiki - INDIVIDUAL EMOTION Disc 2.flac" WAVE
TRACK 01 AUDIO
TITLE "Sekaijuu no Daremo ga"
PERFORMER "Aya Kamiki"
INDEX 01 00:00:00
TRACK 02 AUDIO
TITLE "I'm your side"
PERFORMER "Aya Kamiki"
INDEX 01 04:31:68
TRACK 03 AUDIO
TITLE "Can't stop fallin' in LOVE"
PERFORMER "Aya Kamiki"
INDEX 01 07:51:32
TRACK 04 AUDIO
TITLE "Crash"
PERFORMER "Aya Kamiki"
INDEX 01 11:09:70
TRACK 05 AUDIO
TITLE "Youthful Diary"
PERFORMER "Aya Kamiki"
INDEX 01 15:24:34
TRACK 06 AUDIO
TITLE "Whenever you're gone Today"
PERFORMER "Aya Kamiki"
INDEX 01 19:18:55
TRACK 07 AUDIO
TITLE "It's a beautiful day"
PERFORMER "Aya Kamiki"
INDEX 01 23:02:43
TRACK 08 AUDIO
TITLE "Ever So Sweet"
PERFORMER "Aya Kamiki"
INDEX 01 27:01:11
TRACK 09 AUDIO
TITLE "Friends"
PERFORMER "Aya Kamiki"
INDEX 01 32:15:55
TRACK 10 AUDIO
TITLE "ShooBiDooBiBa"
PERFORMER "Aya Kamiki"
INDEX 01 37:41:06

Треклист:
01. Communication Break (3:34)
02. Pierrot (3:14)
03. Mou Kimi dake wo hanashitari wa shinai (4:19)
04. Secret Code (3:54)
05. Nemutteita kimochi Nemutteita kokoro (4:16)
06. Misekake no I Love you (4:49)
07. Ashita no Tame ni (4:14)
08. Boshi no furu yoru ni wa (4:16)
09. SUNDAY MORNING (3:58)
10. Kimi sarishi yuuwaku (3:27)
11. Summer Memories (5:39)
12. Are you happy now? (3:01)
13. Sekai wa sore demo kawari wa shinai (5:43)
14. A constellation (3:37)
15. CRAZY (?)
  
Exact Audio Copy V0.99 prebeta 5 from 4. May 2009

Отчёт EAC об извлечении, выполненном 4. мая 2010, 13:55

Aya Kamiki / AYA KAMIKI Greatest Best

Дисковод: PLEXTOR CD-R PX-W5224A Adapter: 1 ID: 0

Режим чтения : Достоверность
Использование точного потока : Да
Отключение кэша аудио : Да
Использование указателей C2 : Нет

Коррекция смещения при чтении : 30
Способность читать области Lead-in и Lead-out : Нет
Заполнение пропущенных сэмплов тишиной : Да
Удаление блоков с тишиной в начале и конце : Нет
При вычислениях CRC использовались нулевые сэмплы : Да
Интерфейс : Встроенный Win32-интерфейс для Win NT/2000

Выходной формат : Внутренние WAV-операции
Формат сэмплов : 44.100 Гц; 16 бит; стерео

TOC извлечённого CD

Трек | Старт | Длительность | Начальный сектор | Конечный сектор
---------------------------------------------------------------------
1 | 0:00.00 | 3:33.40 | 0 | 16014
2 | 3:33.40 | 3:13.41 | 16015 | 30530
3 | 6:47.06 | 4:19.28 | 30531 | 49983
4 | 11:06.34 | 3:53.68 | 49984 | 67526
5 | 15:00.27 | 4:15.44 | 67527 | 86695
6 | 19:15.71 | 4:49.25 | 86696 | 108395
7 | 24:05.21 | 4:14.21 | 108396 | 127466
8 | 28:19.42 | 4:16.23 | 127467 | 146689
9 | 32:35.65 | 3:57.72 | 146690 | 164536
10 | 36:33.62 | 3:27.37 | 164537 | 180098
11 | 40:01.24 | 5:39.28 | 180099 | 205551
12 | 45:40.52 | 3:00.73 | 205552 | 219124
13 | 48:41.50 | 5:43.07 | 219125 | 244856
14 | 54:24.57 | 3:36.53 | 244857 | 261109
15 | 58:01.35 | 4:10.69 | 261110 | 279928

Характеристики диапазона извлечения и сообщения об ошибках

Выбранный диапазон

Имя файла C:\torrents\Aya Kamiki - AYA KAMIKI Greatest Best.wav

Пиковый уровень 99.7 %
Качество диапазона 99.9 %
CRC теста DCB4E638
CRC копии DCB4E638
Копирование... OK

Ошибок не произошло

AccurateRip: сводка
Трек 1 точность не определена (достоверность 3) [EAB49C00], AccurateRip вернул [0F975DF2]
Трек 2 точность не определена (достоверность 3) [68ACCB68], AccurateRip вернул [9FD1738E]
Трек 3 точность не определена (достоверность 3) [A0921334], AccurateRip вернул [69414952]
Трек 4 точность не определена (достоверность 3) [1B663EEE], AccurateRip вернул [499B66A2]
Трек 5 точность не определена (достоверность 3) [BB8E0CE4], AccurateRip вернул [C3E6ABB4]
Трек 6 точность не определена (достоверность 3) [9430258A], AccurateRip вернул [474B1DBC]
Трек 7 точность не определена (достоверность 3) [49674A58], AccurateRip вернул [7CD95450]
Трек 8 точность не определена (достоверность 3) [29608B9C], AccurateRip вернул [25B99800]
Трек 9 точность не определена (достоверность 3) [91A9450F], AccurateRip вернул [A13DF4B5]
Трек 10 точность не определена (достоверность 3) [B7C99B9D], AccurateRip вернул [750CF08B]
Трек 11 точность не определена (достоверность 3) [95B5F7F4], AccurateRip вернул [A8AE2B7E]
Трек 12 точность не определена (достоверность 3) [6012E471], AccurateRip вернул [456D3995]
Трек 13 точность не определена (достоверность 3) [B25648C3], AccurateRip вернул [C917CA6F]
Трек 14 точность не определена (достоверность 3) [BF8F20EA], AccurateRip вернул [88037EF6]
Трек 15 точность не определена (достоверность 3) [B8406D3F], AccurateRip вернул [1A95A58F]
Ни один трек не прошёл проверки на точность
В вашей базе может быть иной вариант штамповки диска

Конец отчёта

  
REM GENRE JPop
REM DATE 2010
REM DISCID CF0E940F
REM COMMENT "ExactAudioCopy v0.99pb5"
PERFORMER "Aya Kamiki"
TITLE "AYA KAMIKI Greatest Best"
FILE "Aya Kamiki - AYA KAMIKI Greatest Best.flac" WAVE
TRACK 01 AUDIO
TITLE "Communication Break"
PERFORMER "Aya Kamiki"
INDEX 01 00:00:00
TRACK 02 AUDIO
TITLE "Pierrot"
PERFORMER "Aya Kamiki"
INDEX 01 03:33:40
TRACK 03 AUDIO
TITLE "Mou Kimi dake wo hanashitari wa shinai"
PERFORMER "Aya Kamiki"
INDEX 01 06:47:06
TRACK 04 AUDIO
TITLE "Secret Code"
PERFORMER "Aya Kamiki"
INDEX 01 11:06:34
TRACK 05 AUDIO
TITLE "Nemutteita kimochi Nemutteita kokoro"
PERFORMER "Aya Kamiki"
INDEX 01 15:00:27
TRACK 06 AUDIO
TITLE "Misekake no I Love you"
PERFORMER "Aya Kamiki"
INDEX 01 19:15:71
TRACK 07 AUDIO
TITLE "Ashita no Tame ni"
PERFORMER "Aya Kamiki"
INDEX 01 24:05:21
TRACK 08 AUDIO
TITLE "Boshi no furu yoru ni wa"
PERFORMER "Aya Kamiki"
INDEX 01 28:19:42
TRACK 09 AUDIO
TITLE "SUNDAY MORNING"
PERFORMER "Aya Kamiki"
INDEX 01 32:35:65
TRACK 10 AUDIO
TITLE "Kimi sarishi yuuwaku"
PERFORMER "Aya Kamiki"
INDEX 01 36:33:62
TRACK 11 AUDIO
TITLE "Summer Memories"
PERFORMER "Aya Kamiki"
INDEX 01 40:01:24
TRACK 12 AUDIO
TITLE "Are you happy now?"
PERFORMER "Aya Kamiki"
INDEX 01 45:40:52
TRACK 13 AUDIO
TITLE "Sekai wa sore demo kawari wa shinai"
PERFORMER "Aya Kamiki"
INDEX 01 48:41:50
TRACK 14 AUDIO
TITLE "A constellation"
PERFORMER "Aya Kamiki"
INDEX 01 54:24:57
TRACK 15 AUDIO
TITLE "CRAZY"
PERFORMER "Aya Kamiki"
INDEX 01 58:01:35

Треклист:
01. Satisfaction (4:39)
02. Revolver (3:12)
03. Fly Away (3:59)
04. Truth needs no colors (4:42)
05. Lost in the world (5:03)
06. Just go my way (3:22)
07. Pop-eyed fish (?)
  
AUDIOCHECKER v2.0 beta (build 457) - by Dester - opdester@freemail.hu
~~~~~~~~~~~~~~~~~~~~~~~~~~~~~~~~~~
-=== DO NOT EDIT THIS FILE! ===-

Path: ...\Aya Kamiki - Gloriosa

1 -=- Aya Kamiki - Gloriosa.flac -=- CDDA (100%)

170546468

  
REM GENRE J-Pop
REM DATE 2010
REM DISCID 1101A202
REM COMMENT "ExactAudioCopy v0.99pb5"
PERFORMER "Aya Kamiki"
TITLE "Gloriosa"
FILE "Aya Kamiki - Gloriosa.flac" WAVE
TRACK 01 AUDIO
TITLE "Satisfaction"
INDEX 01 00:00:00
TRACK 02 AUDIO
TITLE "Revolver"
INDEX 01 04:38:55
TRACK 03 AUDIO
TITLE "Fly Away"
INDEX 01 07:50:62
TRACK 04 AUDIO
TITLE "Truth needs no colors"
INDEX 01 11:49:52
TRACK 05 AUDIO
TITLE "Lost in the world"
INDEX 01 16:31:62
TRACK 06 AUDIO
TITLE "Just go my way"
INDEX 01 21:34:65
TRACK 07 AUDIO
TITLE "Pop-eyed fish"
INDEX 01 24:57:14

Треклист:
01. EVILÄLIVE (4:41)
02. crossover (4:20)
03. one week (3:19)
04. AGAIN (3:59)
05. Aria (3:51)
06. japanese Rockin' Girls (3:28)
07. Yell (4:55)
  
AUDIOCHECKER v2.0 beta (build 457) - by Dester - opdester@freemail.hu
~~~~~~~~~~~~~~~~~~~~~~~~~~~~~~~~~~
-=== DO NOT EDIT THIS FILE! ===-

Path: ...\!test

1 -=- 01. EVILALIVE 01 - EVILALIVE.flac -=- CDDA (100%)
2 -=- 02. EVILALIVE 02 - crossover.flac -=- CDDA (100%)
3 -=- 03. EVILALIVE 03 - one week.flac -=- CDDA (100%)
4 -=- 04. EVILALIVE 04 - AGAIN.flac -=- CDDA (100%)
5 -=- 05. EVILALIVE 05 - Aria.flac -=- CDDA (100%)
6 -=- 06. EVILALIVE 06 - japanese Rockin' Girls.flac -=- CDDA (86%)
7 -=- 07. EVILALIVE 07 - Yell.flac -=- CDDA (100%)

Summary 98,00% CDDA

3507988

Треклист:
CD1:
?. THE FINAL JOURNEY (4:24)
?. A constellation (3:36)
?. tear (3:16)
?. youthful diary (3:53)
?. Just take my heart (3:54)
?. Truth needs no colors (4:43)
?. Whenever you're gone Today (3:42)
?. 248 Mile (3:43)
?. いつの日も君だけ I Remember you (5:12)
?. 夏のある日 (4:18)
?. It's a beautiful day (3:57)
?. I Sing This Song For You (2:56)
?. Satisfaction (4:40)

CD2:
?. Revolver (3:13)
?. Lost in the world (5:03)
?. Aria (3:50)
?. Crash (4:14)
?. believin' your heart... (3:42)
?. I wish in your dreams (3:11)
?. Break my day (4:00)
?. Fly a way (4:00)
?. EVILÄLIVE (4:41)
?. crossover (4:19)
?. I'm your side (3:19)
?. Are you happy now? (3:00)
?. Starting Another Day (Regular Edition) (4:28)
  
AUDIOCHECKER v2.0 beta (build 457) - by Dester - opdester@freemail.hu
~~~~~~~~~~~~~~~~~~~~~~~~~~~~~~~~~~
-=== DO NOT EDIT THIS FILE! ===-

Path: ...\THE FINAL JOURNEY [Disc 1]

01 -=- 01 The Final Journey.flac -=- CDDA (99%)
02 -=- 02 A Constellation.flac -=- CDDA (100%)
03 -=- 03 Tear.flac -=- CDDA (100%)
04 -=- 04 Youthful Diary.flac -=- CDDA (100%)
05 -=- 05 Just Take My Heart.flac -=- CDDA (100%)
06 -=- 06 Truth Needs No Colors.flac -=- CDDA (100%)
07 -=- 07 Whenever You're Gone Today.flac -=- CDDA (100%)
08 -=- 08 248 Mile.flac -=- CDDA (100%)
09 -=- 09 ???????? I Remember You.flac -=- ERROR
10 -=- 10 ?????.flac -=- ERROR
11 -=- 11 It's A Beautiful Day.flac -=- CDDA (100%)
12 -=- 12 I Sing This Song For You.flac -=- CDDA (99%)
13 -=- 13 Satisfaction.flac -=- CDDA (100%)

Summary 99,82% CDDA

37159572

  
AUDIOCHECKER v2.0 beta (build 457) - by Dester - opdester@freemail.hu
~~~~~~~~~~~~~~~~~~~~~~~~~~~~~~~~~~
-=== DO NOT EDIT THIS FILE! ===-

Path: ...\THE FINAL JOURNEY [Disc 2]

01 -=- 01 Revolver.flac -=- CDDA (100%)
02 -=- 02 Lost In The World.flac -=- CDDA (100%)
03 -=- 03 Aria.flac -=- CDDA (100%)
04 -=- 04 Crash.flac -=- CDDA (100%)
05 -=- 05 Believin' Your Heart....flac -=- CDDA (100%)
06 -=- 06 I Wish In Your Dreams.flac -=- CDDA (100%)
07 -=- 07 Break My Day.flac -=- CDDA (100%)
08 -=- 08 Fly A Way.flac -=- CDDA (100%)
09 -=- 09 Evilalive.flac -=- CDDA (99%)
10 -=- 10 Crossover.flac -=- CDDA (100%)
11 -=- 11 I'm Your Side.flac -=- CDDA (100%)
12 -=- 12 Are you happy now?.flac -=- ERROR
12 -=- 13 Starting Another Day.flac -=- CDDA (100%)

Summary 99,92% CDDA

170194148

info [Профиль]  [ЛС] 

post 11-Ноя-2012 13:20 (спустя 9 минут) [-]0[+]

Топик был перенесен из форума Оформление раздач (Музыка и Музыкальное видео) в форум Зарубежная Поп-музыка (lossless)

Phen1x
 

Apologiz

Пол: Пол:Муж

Стаж: 4 года 5 месяцев

Сообщений: 8

Россия
Рейтинг

post 12-Ноя-2012 17:07 (спустя 1 день 3 часа) [-]1[+]

[Цитировать] 

Такая Няша))) И голос шикарный)
info [Профиль]  [ЛС] 
Показать сообщения:    
Ответить на тему

Текущее время: 11-Дек 06:18

Часовой пояс: GMT + 4



Вы не можете начинать темы
Вы не можете отвечать на сообщения
Вы не можете редактировать свои сообщения
Вы не можете удалять свои сообщения
Вы не можете голосовать в опросах
Вы не можете прикреплять файлы к сообщениям
Вы не можете скачивать файлы