Ошибка

(Pop) Руки Вверх - Открой мне дверь! (2012) - 2012, FLAC (image+.cue)+cover, lossless

Ответить на тему
 
Автор Сообщение

bi0skin

Пол: Пол:Муж

Стаж: 7 лет 9 месяцев

Сообщений: 38

Рейтинг

post 10-Ноя-2012 20:54 2[+]

[Цитировать] 

Руки Вверх - Открой мне дверь! (2012)


pic="http://s002.youpic.su/pictures/1352494800/7f0d973fa82c270fb9cbd88e89f664c4.jpg"


Жанр: Pop
Год издания данного носителя: 2012
Страна-производитель носителя: Россия
Лейбл: Союз
Каталоговый номер: 4650062360961
Аудио кодек: FLAC
Тип рипа: image+.cue
Битрейт аудио: lossless
Продолжительность: 00:57:53
Полиграфия: Присутствует
Треклист:
01. Открой мне дверь (04:04)
02. Я тебя люблю (04:12)
03. Счастлив без тебя (04:05)
04. Мама (04:14)
05. Жаль (04:10)
06. Я буду с тобой (feat. OPIUM project) (05:23)
07. Миражи (03:39)
08. Девочка из прошлого (03:33)
09. Останься (04:12)
10. Разные (03:48)
11. Пам-пам-пам (04:31)
12. Увидимся в снах (feat. Михаил Жуков) (03:26)
13. Скажи зачем (feat. USB) (04:52)
14. Девочка из прошлого (feat. St1m) (03:38)
Exact Audio Copy V1.0 beta 3 from 29. August 2011 

Отчёт EAC об извлечении, выполненном 15. октября 2012, 23:38

Руки Вверх! / Открой мне дверь!

Дисковод: ASUS DRW-24B3ST Adapter: 0 ID: 1

Режим чтения : Достоверность
Использование точного потока : Да
Отключение кэша аудио : Да
Использование указателей C2 : Нет

Коррекция смещения при чтении : 6
Способность читать области Lead-in и Lead-out : Нет
Заполнение пропущенных сэмплов тишиной : Да
Удаление блоков с тишиной в начале и конце : Нет
При вычислениях CRC использовались нулевые сэмплы : Да
Интерфейс : Встроенный Win32-интерфейс для Win NT/2000

Выходной формат : Пользовательский кодировщик
Выбранный битрейт : 128 kBit/s
Качество : Высокий
Добавление ID3-тега : Нет
Утилита сжатия : C:Program Files (x86)Exact Audio CopyFlacflac.exe
Дополнительные параметры : -V -8 -T "Date=%year%" -T "Genre=%genre%" %source%

TOC извлечённого CD

Трек | Старт | Длительность | Начальный сектор | Конечный сектор
---------------------------------------------------------------------
1 | 0:00.00 | 4:04.30 | 0 | 18329
2 | 4:04.30 | 4:12.02 | 18330 | 37231
3 | 8:16.32 | 4:05.23 | 37232 | 55629
4 | 12:21.55 | 4:14.00 | 55630 | 74679
5 | 16:35.55 | 4:10.57 | 74680 | 93486
6 | 20:46.37 | 5:23.00 | 93487 | 117711
7 | 26:09.37 | 3:39.73 | 117712 | 134209
8 | 29:49.35 | 3:33.55 | 134210 | 150239
9 | 33:23.15 | 4:12.02 | 150240 | 169141
10 | 37:35.17 | 3:48.22 | 169142 | 186263
11 | 41:23.39 | 4:31.72 | 186264 | 206660
12 | 45:55.36 | 3:26.03 | 206661 | 222113
13 | 49:21.39 | 4:52.51 | 222114 | 244064
14 | 54:14.15 | 3:39.00 | 244065 | 260489

Характеристики диапазона извлечения и сообщения об ошибках

Выбранный диапазон

Имя файла E:РаздачиРуки Вверх! - Открой мне дверь!.wav

Пиковый уровень 100.0 %
Скорость извлечения 8.4 X
Качество диапазона 100.0 %
CRC теста 471CA46B
CRC копии 471CA46B
Копирование... OK

Ошибок не произошло

Конец отчёта

---- CUETools DB Plugin V2.1.3

[CTDB TOCID: sc6Kuw.j0S9AevC6oUWP5oj3Nhw-] found, Submit result: already submitted
[d0b8434b] (1/1) Accurately ripped

==== Контрольная сумма отчёта 279FA734F2710E0151760749C668518177E6A7BB87E192BFFE8DA2C9EB8921C5 ====
REM GENRE Pop 
REM DATE 2012
REM DISCID DC0D910E
REM COMMENT "ExactAudioCopy v1.0b3"
PERFORMER "Руки Вверх!"
TITLE "Открой мне дверь!"
FILE "Руки Вверх! - Открой мне дверь!.flac" WAVE
TRACK 01 AUDIO
TITLE "Открой мне дверь"
PERFORMER "Руки Вверх!"
INDEX 01 00:00:00
TRACK 02 AUDIO
TITLE "Я тебя люблю"
PERFORMER "Руки Вверх!"
INDEX 00 04:02:30
INDEX 01 04:04:30
TRACK 03 AUDIO
TITLE "Счастлив без тебя"
PERFORMER "Руки Вверх!"
INDEX 00 08:14:32
INDEX 01 08:16:32
TRACK 04 AUDIO
TITLE "Мама"
PERFORMER "Руки Вверх!"
INDEX 00 12:19:55
INDEX 01 12:21:55
TRACK 05 AUDIO
TITLE "Жаль"
PERFORMER "Руки Вверх!"
INDEX 00 16:33:56
INDEX 01 16:35:55
TRACK 06 AUDIO
TITLE "Я буду с тобой (feat. OPIUM project)"
PERFORMER "Руки Вверх!"
INDEX 00 20:44:37
INDEX 01 20:46:37
TRACK 07 AUDIO
TITLE "Миражи"
PERFORMER "Руки Вверх!"
INDEX 00 26:07:37
INDEX 01 26:09:37
TRACK 08 AUDIO
TITLE "Девочка из прошлого"
PERFORMER "Руки Вверх!"
INDEX 00 29:47:35
INDEX 01 29:49:35
TRACK 09 AUDIO
TITLE "Останься"
PERFORMER "Руки Вверх!"
INDEX 00 33:21:16
INDEX 01 33:23:15
TRACK 10 AUDIO
TITLE "Разные"
PERFORMER "Руки Вверх!"
INDEX 00 37:33:17
INDEX 01 37:35:17
TRACK 11 AUDIO
TITLE "Пам-пам-пам"
PERFORMER "Руки Вверх!"
INDEX 00 41:21:39
INDEX 01 41:23:39
TRACK 12 AUDIO
TITLE "Увидимся в снах (feat. Михаил Жуков)"
PERFORMER "Руки Вверх!"
INDEX 00 45:53:37
INDEX 01 45:55:36
TRACK 13 AUDIO
TITLE "Скажи зачем (feat. USB)"
PERFORMER "Руки Вверх!"
INDEX 00 49:19:39
INDEX 01 49:21:39
TRACK 14 AUDIO
TITLE "Девочка из прошлого (feat. St1m)"
PERFORMER "Руки Вверх!"
INDEX 00 54:12:15
INDEX 01 54:14:15
info [Профиль]  [ЛС] 

ZenisleV

Пол: Пол:Муж

Стаж: 9 лет 1 месяц

Сообщений: 143

Предупреждений: 2

Россия
Рейтинг

post 11-Ноя-2012 00:28 (спустя 3 часа) [-]-3[+]

[Цитировать] 

Неужели кто-то еще это слушает?
info [Профиль]  [ЛС] 

ierogliph

Пол: Пол:Муж

Стаж: 11 лет

Сообщений: 163

Россия
Рейтинг

post 11-Ноя-2012 00:34 (спустя 6 минут) [-]-1[+]

[Цитировать] 

Те же, кто и Юру Шатунова с его новым альбомом в 2012 году.

_________________
Who are you to fucking lecture me?
info [Профиль]  [ЛС] 

RASTAKOT

Пол: Пол:Муж

Стаж: 10 лет

Сообщений: 120

Россия
Рейтинг

post 11-Ноя-2012 00:55 (спустя 20 минут) [-]-1[+]

[Цитировать] 

это ж просто полная жесть...без грамма шутки.. просто аут.
info [Профиль]  [ЛС] 

sportlive

Пол: Пол:Муж

Стаж: 10 лет

Сообщений: 69

СССР
Рейтинг

post 11-Ноя-2012 01:29 (спустя 33 минуты) [-]1[+]

[Цитировать] 

Блин всем качать! ))) Я прикола ради скачал, просто интересно, что же нового бредового выпустили...?
info [Профиль]  [ЛС] 

igorek

Пол: Пол:Муж

Стаж: 11 лет

Сообщений: 118

Россия
Рейтинг

post 11-Ноя-2012 02:11 (спустя 42 минуты) [-]4[+]

[Цитировать] 

Огромное спасибо!!! Обожаю вокал транс а Сережку Жукова с лучших времен уважаю и слушаю с удовольствием и ностальгией kolob_119
info [Профиль]  [ЛС] 

Exiter

Пол: Пол:Муж

Стаж: 10 лет

Сообщений: 53

Россия
Рейтинг

post 11-Ноя-2012 03:16 (спустя 1 час 4 минуты) [-]5[+]

[Цитировать] 

Ностальгия! Надо качнуть обязательно))
info [Профиль]  [ЛС] 

dwdrip777

Пол: Пол:Муж

Стаж: 7 лет 9 месяцев

Сообщений: 9

Предупреждений: 1

СССР
Рейтинг

post 11-Ноя-2012 12:03 (спустя 8 часов) [-]0[+]

[Цитировать] 

Посмотрим kolob_141
info [Профиль]  [ЛС] 

Malloh

Пол: Пол:Муж

Стаж: 10 лет

Сообщений: 609

Россия
Рейтинг

post 11-Ноя-2012 13:27 (спустя 1 час 23 минуты) [-]0[+]

[Цитировать] 

RASTAKOT писал(а):

это ж просто полная жесть...без грамма шутки.. просто аут.
Ой,давайте вот сейчас не будем кричать:"Жесть,аут"ВСЕ,ВСЕ без исключения танцевали в своё время под это на танцполах,и так же все знали песни наизусть,это звучало из каждого утюга,так что давайте не будем пафосничать

_________________
info [Профиль]  [ЛС] 

DietrichH

Пол: Пол:Муж

Стаж: 11 лет

Сообщений: 946

Казахстан
Рейтинг

post 11-Ноя-2012 13:52 (спустя 25 минут) [-]-1[+]

[Цитировать] 

Malloh писал(а):

RASTAKOT писал(а):

это ж просто полная жесть...без грамма шутки.. просто аут.
Ой,давайте вот сейчас не будем кричать:"Жесть,аут"ВСЕ,ВСЕ без исключения танцевали в своё в ремя под это на танцполах,и так же все знали песни наизусть,это звучало из каждого утюга,так что давайте не будем пафосничать
+1 kolob_118

_________________
info [Профиль]  [ЛС] 

godmode8

Пол: Пол:Муж

Стаж: 10 лет

Сообщений: 84

Россия
Рейтинг

post 11-Ноя-2012 17:01 (спустя 3 часа) [-]0[+]

[Цитировать] 

они живы еще?

_________________
info [Профиль]  [ЛС] 

AndrewSTi

Пол: Пол:Муж

Стаж: 8 лет 7 месяцев

Сообщений: 8

Предупреждений: 1

Россия
Рейтинг

post 11-Ноя-2012 17:06 (спустя 4 минуты) [-]2[+]

[Цитировать] 

ZenisleV писал(а):

Неужели кто-то еще это слушает?
Ну я слушаю, я родился в 90-е kolob_109
info [Профиль]  [ЛС] 
Показать сообщения:    
Ответить на тему

Текущее время: 14-Авг 06:37

Часовой пояс: GMT + 4



Вы не можете начинать темы
Вы не можете отвечать на сообщения
Вы не можете редактировать свои сообщения
Вы не можете удалять свои сообщения
Вы не можете голосовать в опросах
Вы не можете прикреплять файлы к сообщениям
Вы не можете скачивать файлы