Ошибка

(Visual-kei, Symphonic metal) Versailles -Philharmonic Quintet- - Дискография, 2007-2012, FLAC (tracks+.cue | image+.cue), lossless

Ответить на тему
 
Автор Сообщение

Phen1x

Пол: Пол:Муж

Стаж: 6 лет 2 месяца

Сообщений: 531

Украина
Рейтинг

post 24-Авг-2012 20:17 0[+]

[Цитировать] 


Жанр: Visual-kei, Progressive rock, Symphonic metal || Страна: Япония || Год издания: 2007-2012
Тип релиза: tracks+.cue, image+.cue || Аудио кодек: FLAC || Битрейт аудио: lossless
Продолжительность: 6:48:32 || Полиграфия: частично присутствует

Versailles — японская супергруппа , играющая в стиле пауэр-метал/неоклассический метал. Создана в марте 2007 года. В основе творчества группы стоит идея «абсолютно идеального звука и крайностей эстетизма» которая была придумана вокалистом группы, Камидзё.
Вокал: KAMIJO (ex-NEW SODMY; ex-LAREINE; Node of scherzo)
Гитара: HIZAKI (ex-GARNET GRAVE; ex-Schwardix Marvally; ex-Crack brain; ex-SULFURIC ACID; HIZAKI grace project; Node of scherzo)
Гитара: TERU (ex-Aikaryu; HIZAKI grace project; Node of scherzo)
Бас: MASASHI (ex-Diza wa-re; ex-ALPHA; ex-Ash; ex-Red Carpet; ex-CODE; ex-COSMO; Közi)
Ударные: YUKI (ex-Sugar Trip; ex-alively sanctuary; Node of scherzo)
  Бывшие участники:
Бас: Jasmine You (ex-Jakura; HIZAKI grace project; Node of scherzo) (1979-2009) R.I.P.
Versailles - японская группа, играющая в стилях - Power/Speed, Neo-classic, Symphonic Metal. Была создана в марте 2007 года при участии музыкантов: Kamijo (ex - Bijireiku, Lareine, New Sodmy) – вокал, Hizaki (ex - Garnet Grave, Crack Brain, Schwardix Marvally, Sulfuric Acid) – гитара, Teru (ex - Aikaryu, Hizaki Grace Project) – гитара, Jasmine You (ex - Jakura, Hizaki Grace Project) – бас, и Yuki (ex - Sugar Trip) – ударные.
Идея создания группы, основной концепцией которой станет «абсолютная красота формы и содержания (звука)», принадлежит Kamijo и Hizaki. Сами музыканты видят воплощение этой идеи в цветке розы, где красота и свежесть хрупких лепестков сочетается с острыми шипами, способными ранить и причинить боль.
В мае на YouTube появился рекламный трейлер группы Versailles, и это оказался чрезвычайно удачный ход с точки зрения рекламы и маркетинга. Это привлекло к группе внимание различных СМИ, в том числе и зарубежных, и, кроме того, Versailles поступило несколько интересных предложений касательно выступлений за пределами Японии. Кстати сказать, потрясающие костюмы участников изготавливались фирмой ID JAPAN по эскизам самих музыкантов.
В конце мая немецкое TV брало интервью у участников группы, а в июне заметка о Versailles появилась в Sankei Newspaper.
Первое выступление молодой группы состоялось 24 июня 2007 года в Ebisu Liquid Room. Музыканты выступали на одной сцене с такими командами, как Sugar, Screw, Kaya и UnsraW. В это время у публики была возможность приобрести первый сингл группы – «The Revenant Choir». Пожалуй, эту работу Versailles можно сравнить с творчеством «X Japan», особенно четкие ассоциации вызывают партии ударных в исполнении Yuki и гитарное соло Hizaki.
Во вступлении к композиции «The Revenant Choir» говорится примерно следующее: «Когда-то давно существовало два знатных клана, и они жили в мире, который был наполнен ароматом роз. Представители одного клана верили, что только смерть приносит человеку счастье и позволяет узнать сладость Вечности. Другие же алкали бессмертия. Наступил тот день, когда все мечты исполнились, а сон обернулся явью. И те, кто обрел жизнь вечную, были обречены на одиночество, которое и стало их наказанием на веки вечные. В июне 2007 года появились те, кто называет себя потомками Розы. Они встретились вновь, и воспоминания о прошлом пробудились в них. История начинается…»
Уже одно то, что в составе Versailles находятся такие известные музыканты, как Kamijo и Hizaki вызывает интерес у публики и обеспечивает группе быстро растущую популярность.

09.08.2009 - Скоропостижно скончался басист Jasmine You. Группа заявила о том, что останавливает свою деятельность на неопределенный срок.

В октябре 2009 группа возобновила выступления, партии Жасмин исполнял басист Yo из Matenrou Opera, так как по словам ударника группы они либо будут играть с ним либо не будут играть вообще. Альбом, замороженный из-за смерти Жасмин, решили выпустить 20 января 2010 года.

10 сентября 2010, второй сессионный бас-гитарист группы Масаши объявлен официальным участником группы. Перед работой в Versailles, он играл во многих жанрах, от готического рока до нью-метала, и один период времени был учеником самого Жасмин Ю. Одновременно с этим был анонсирован новый сингл «DESTINY-The Lovers-«, намеченный на 27 октября.

Album:
Треклист:
01. 01 Intro (1:10)
02. 02. The Love from a Dead Orchestra (8:29)
03. 03. Shout & Bite (3:59)
04. 04. Beast of Desire (4:26)
05. 05. Forbidden gate (4:39)
06. 06. The Red Carpet Day (4:24)
07. 07. Sympathia (6:08)
  
Exact Audio Copy V0.99 prebeta 5 from 4. May 2009

Отчёт EAC об извлечении, выполненном 28. июня 2010, 22:58

Versailles / 2007 - Lyrical Sympathy

Дисковод: Optiarc DVD RW AD-7201S Adapter: 3 ID: 0

Режим чтения : Достоверность
Использование точного потока : Да
Отключение кэша аудио : Да
Использование указателей C2 : Нет

Коррекция смещения при чтении : 48
Способность читать области Lead-in и Lead-out : Нет
Заполнение пропущенных сэмплов тишиной : Да
Удаление блоков с тишиной в начале и конце : Нет
При вычислениях CRC использовались нулевые сэмплы : Да
Интерфейс : Встроенный Win32-интерфейс для Win NT/2000

Выходной формат : Внутренние WAV-операции
Формат сэмплов : 44.100 Гц; 16 бит; стерео

TOC извлечённого CD

Трек | Старт | Длительность | Начальный сектор | Конечный сектор
---------------------------------------------------------------------
1 | 0:00.00 | 1:10.07 | 0 | 5256
2 | 1:10.07 | 8:28.64 | 5257 | 43420
3 | 9:38.71 | 3:59.36 | 43421 | 61381
4 | 13:38.32 | 4:25.44 | 61382 | 81300
5 | 18:04.01 | 4:38.41 | 81301 | 102191
6 | 22:42.42 | 4:23.55 | 102192 | 121971
7 | 27:06.22 | 6:08.01 | 121972 | 149572

Характеристики диапазона извлечения и сообщения об ошибках

Выбранный диапазон

Имя файла D:\РАЗДАЧА\Versailles - Lyrical Sympathy.wav

Пиковый уровень 100.0 %
Качество диапазона 100.0 %
CRC теста 58A90BD8
CRC копии 58A90BD8
Копирование... OK

Ошибок не произошло

AccurateRip: сводка
Трек 1 точное извлечение (доверие 1) [76808E57]
Трек 2 точное извлечение (доверие 1) [7B04DCBB]
Трек 3 точное извлечение (доверие 1) [7EF966D4]
Трек 4 точное извлечение (доверие 1) [8A02096A]
Трек 5 точное извлечение (доверие 1) [133EFD0D]
Трек 6 точное извлечение (доверие 1) [AC53502D]
Трек 7 точное извлечение (доверие 1) [B3C73FB9]
Все треки извлечены точно

Конец отчёта

  
REM GENRE J-Rock
REM DATE 2007
REM DISCID 5007CA07
REM COMMENT "ExactAudioCopy v0.99pb5"
PERFORMER "Versailles"
TITLE "2007 - Lyrical Sympathy"
FILE "Versailles - Lyrical Sympathy.ape" WAVE
TRACK 01 AUDIO
TITLE "01 Intro"
PERFORMER "Versailles"
INDEX 01 00:00:00
TRACK 02 AUDIO
TITLE "02. The Love from a Dead Orchestra"
PERFORMER "Versailles"
INDEX 01 01:10:07
TRACK 03 AUDIO
TITLE "03. Shout & Bite"
PERFORMER "Versailles"
INDEX 01 09:38:71
TRACK 04 AUDIO
TITLE "04. Beast of Desire"
PERFORMER "Versailles"
INDEX 01 13:38:32
TRACK 05 AUDIO
TITLE "05. Forbidden gate"
PERFORMER "Versailles"
INDEX 01 18:04:01
TRACK 06 AUDIO
TITLE "06. The Red Carpet Day"
PERFORMER "Versailles"
INDEX 01 22:42:42
TRACK 07 AUDIO
TITLE "07. Sympathia"
PERFORMER "Versailles"
INDEX 01 27:06:22

Треклист:
01. Prelude (1:34)
02. Aristocrat's Symphony (6:16)
03. Antique In The Future (5:46)
04. Second Fear -Another Descendant- (3:08)
05. Zombie (3:52)
06. After Cloudia (4:53)
07. Windress (4:29)
08. The Revenant Choir (7:01)
09. To The Chaos Inside (3:14)
10. Suzerain (4:20)
11. History Of The Other Side (9:38)
12. Episode (3:10)
13. The Revenant Choir (Original Version) (8:46)
  
Exact Audio Copy V0.99 prebeta 3 from 28. July 2007

EAC extraction logfile from 26. July 2008, 10:45

Versailles / Noble

Used drive : _NEC DVD_RW ND-1300A Adapter: 1 ID: 1

Read mode : Secure
Utilize accurate stream : Yes
Defeat audio cache : No
Make use of C2 pointers : No

Combined read/write offset correction : 0
Overread into Lead-In and Lead-Out : No
Fill up missing offset samples with silence : Yes
Delete leading and trailing silent blocks : No
Null samples used in CRC calculations : No
Used interface : Installed external ASPI interface

Used output format : Internal WAV Routines
Sample format : 44.100 Hz; 16 Bit; Stereo

TOC of the extracted CD

Track | Start | Length | Start sector | End sector
---------------------------------------------------------
1 | 0:00.00 | 1:33.40 | 0 | 7014
2 | 1:33.40 | 6:15.67 | 7015 | 35206
3 | 7:49.32 | 5:46.07 | 35207 | 61163
4 | 13:35.39 | 3:08.30 | 61164 | 75293
5 | 16:43.69 | 3:52.12 | 75294 | 92705
6 | 20:36.06 | 4:53.00 | 92706 | 114680
7 | 25:29.06 | 4:28.39 | 114681 | 134819
8 | 29:57.45 | 7:00.74 | 134820 | 166393
9 | 36:58.44 | 3:14.35 | 166394 | 180978
10 | 40:13.04 | 4:20.15 | 180979 | 200493
11 | 44:33.19 | 9:38.08 | 200494 | 243851
12 | 54:11.27 | 3:10.16 | 243852 | 258117
13 | 57:21.43 | 8:45.48 | 258118 | 297540

Range status and errors

Selected range

Filename C:\Ancurio\temp\Noble.wav

Peak level 100.0 %
Range quality 100.0 %
Copy CRC F2BAB9C7
Copy OK

No errors occurred

End of status report

  
REM GENRE J-Metal
REM DATE 2008
REM DISCID A50F7F0D
REM COMMENT "ExactAudioCopy v0.99pb3"
PERFORMER "Versailles"
TITLE "Noble"
FILE "Noble.flac" WAVE
TRACK 01 AUDIO
TITLE "Prelude"
PERFORMER "Versailles"
INDEX 01 00:00:00
TRACK 02 AUDIO
TITLE "Aristocrat's Symphony"
PERFORMER "Versailles"
INDEX 01 01:33:40
TRACK 03 AUDIO
TITLE "Antique In The Future"
PERFORMER "Versailles"
INDEX 01 07:49:32
TRACK 04 AUDIO
TITLE "Second Fear -Another Descendant-"
PERFORMER "Versailles"
INDEX 00 13:35:36
INDEX 01 13:35:39
TRACK 05 AUDIO
TITLE "Zombie"
PERFORMER "Versailles"
INDEX 00 16:43:67
INDEX 01 16:43:69
TRACK 06 AUDIO
TITLE "After Cloudia"
PERFORMER "Versailles"
INDEX 00 20:35:71
INDEX 01 20:36:06
TRACK 07 AUDIO
TITLE "Windress"
PERFORMER "Versailles"
INDEX 00 25:29:04
INDEX 01 25:29:06
TRACK 08 AUDIO
TITLE "The Revenant Choir"
PERFORMER "Versailles"
INDEX 01 29:57:45
TRACK 09 AUDIO
TITLE "To The Chaos Inside"
PERFORMER "Versailles"
INDEX 01 36:58:44
TRACK 10 AUDIO
TITLE "Suzerain"
PERFORMER "Versailles"
INDEX 00 40:12:69
INDEX 01 40:13:04
TRACK 11 AUDIO
TITLE "History Of The Other Side"
PERFORMER "Versailles"
INDEX 00 44:33:09
INDEX 01 44:33:19
TRACK 12 AUDIO
TITLE "Episode"
PERFORMER "Versailles"
INDEX 00 54:11:17
INDEX 01 54:11:27
TRACK 13 AUDIO
TITLE "The Revenant Choir (Original Version)"
PERFORMER "Versailles"
INDEX 01 57:21:43
Треклист:
01. God Palace -Method of Inheritance (10:31)
02. Ascendead Master (5:49)
03. Rosen Schwert (4:12)
04. 愛と哀しみのノクターン (4:55)
05. Amorphous (5:10)
06. Reminiscence (2:30)
07. Catharsis (6:07)
08. The Umbrella of Glass (4:23)
09. 月下香 (4:42)
10. PRINCESS -Revival of church (8:17)
11. Serenade (6:01)
12. Sound in Gate (2:37)
  
Exact Audio Copy V0.99 prebeta 5 from 4. May 2009

Отчёт EAC об извлечении, выполненном 28. июня 2010, 23:42

Versailles / 2010 - JUBILEE

Дисковод: Optiarc DVD RW AD-7201S Adapter: 3 ID: 0

Режим чтения : Достоверность
Использование точного потока : Да
Отключение кэша аудио : Да
Использование указателей C2 : Нет

Коррекция смещения при чтении : 48
Способность читать области Lead-in и Lead-out : Нет
Заполнение пропущенных сэмплов тишиной : Да
Удаление блоков с тишиной в начале и конце : Нет
При вычислениях CRC использовались нулевые сэмплы : Да
Интерфейс : Встроенный Win32-интерфейс для Win NT/2000

Выходной формат : Внутренние WAV-операции
Формат сэмплов : 44.100 Гц; 16 бит; стерео

TOC извлечённого CD

Трек | Старт | Длительность | Начальный сектор | Конечный сектор
---------------------------------------------------------------------
1 | 0:00.00 | 10:30.72 | 0 | 47321
2 | 10:30.72 | 5:49.26 | 47322 | 73522
3 | 16:20.23 | 4:11.72 | 73523 | 92419
4 | 20:32.20 | 4:55.24 | 92420 | 114568
5 | 25:27.44 | 5:10.35 | 114569 | 137853
6 | 30:38.04 | 2:30.17 | 137854 | 149120
7 | 33:08.21 | 6:06.43 | 149121 | 176613
8 | 39:14.64 | 4:23.31 | 176614 | 196369
9 | 43:38.20 | 4:41.66 | 196370 | 217510
10 | 48:20.11 | 8:17.11 | 217511 | 254796
11 | 56:37.22 | 6:00.65 | 254797 | 281861
12 | 62:38.12 | 2:36.69 | 281862 | 293630

Характеристики диапазона извлечения и сообщения об ошибках

Выбранный диапазон

Имя файла D:\РАЗДАЧА\Versailles - JUBILEE.wav

Пиковый уровень 96.3 %
Качество диапазона 100.0 %
CRC теста 1BA01A12
CRC копии 1BA01A12
Копирование... OK

Ошибок не произошло

AccurateRip: сводка
Трек 1 точное извлечение (доверие 4) [21ACE366]
Трек 2 точное извлечение (доверие 4) [C41DF30F]
Трек 3 точное извлечение (доверие 4) [560FC730]
Трек 4 точное извлечение (доверие 4) [8D3BB964]
Трек 5 точное извлечение (доверие 4) [CE7B6594]
Трек 6 точное извлечение (доверие 4) [58FDAF43]
Трек 7 точное извлечение (доверие 4) [C6EDC8E4]
Трек 8 точное извлечение (доверие 4) [4928FEEB]
Трек 9 точное извлечение (доверие 4) [56A97CFD]
Трек 10 точное извлечение (доверие 4) [D231BC91]
Трек 11 точное извлечение (доверие 4) [EC98B936]
Трек 12 точное извлечение (доверие 4) [6BC2E457]
Все треки извлечены точно

Конец отчёта

  
REM GENRE "Symphonic Metal"
REM DATE 2010
REM DISCID AA0F4B0C
REM COMMENT "ExactAudioCopy v0.99pb5"
PERFORMER "Versailles"
TITLE "2010 - JUBILEE"
FILE "Versailles - JUBILEE.wav" WAVE
TRACK 01 AUDIO
TITLE "God Palace -Method of Inheritance"
PERFORMER "Versailles"
INDEX 01 00:00:00
TRACK 02 AUDIO
TITLE "Ascendead Master"
PERFORMER "Versailles"
INDEX 01 10:30:72
TRACK 03 AUDIO
TITLE "Rosen Schwert"
PERFORMER "Versailles"
INDEX 01 16:20:23
TRACK 04 AUDIO
TITLE "愛と哀しみのノクターン"
PERFORMER "Versailles"
INDEX 00 20:31:21
INDEX 01 20:32:20
TRACK 05 AUDIO
TITLE "Amorphous"
PERFORMER "Versailles"
INDEX 00 25:27:08
INDEX 01 25:27:44
TRACK 06 AUDIO
TITLE "Reminiscence"
PERFORMER "Versailles"
INDEX 00 30:36:43
INDEX 01 30:38:04
TRACK 07 AUDIO
TITLE "Catharsis"
PERFORMER "Versailles"
INDEX 01 33:08:21
TRACK 08 AUDIO
TITLE "The Umbrella of Glass"
PERFORMER "Versailles"
INDEX 00 39:13:46
INDEX 01 39:14:64
TRACK 09 AUDIO
TITLE "月下香"
PERFORMER "Versailles"
INDEX 00 43:38:06
INDEX 01 43:38:20
TRACK 10 AUDIO
TITLE "PRINCESS -Revival of church"
PERFORMER "Versailles"
INDEX 00 48:19:72
INDEX 01 48:20:11
TRACK 11 AUDIO
TITLE "Serenade"
PERFORMER "Versailles"
INDEX 00 56:36:48
INDEX 01 56:37:22
TRACK 12 AUDIO
TITLE "Sound in Gate"
PERFORMER "Versailles"
INDEX 00 62:36:13
INDEX 01 62:38:12

Треклист:
01. MASQUERADE (6:02)
02. Philia (5:57)
03. Thanatos (4:35)
04. Flowery (4:01)
05. Remember Forever (6:37)
06. DESTINY -The Lovers- (6:40)
07. DRY ICE SCREAM (Remove Silence) (4:38)
08. Threshold (1:59)
09. Judicial Noir (4:23)
10. Love will be born again (4:13)
11. Vampire (4:31)
12. Faith & Decision (16:28)
13. The Theme of Holy Grail (1:25)
  
Exact Audio Copy V0.99 prebeta 5 from 4. May 2009

EAC extraction logfile from 21. June 2011, 15:52

VERSAILLES / Holy Grail

Used drive : SONY DVD RW DRX-S70U Adapter: 6 ID: 0

Read mode : Secure
Utilize accurate stream : Yes
Defeat audio cache : Yes
Make use of C2 pointers : No

Read offset correction : 48
Overread into Lead-In and Lead-Out : No
Fill up missing offset samples with silence : Yes
Delete leading and trailing silent blocks : No
Null samples used in CRC calculations : Yes
Used interface : Native Win32 interface for Win NT & 2000

Used output format : User Defined Encoder
Selected bitrate : 1024 kBit/s
Quality : High
Add ID3 tag : No
Command line compressor : D:\Program Files (x86)\Exact Audio Copy\Flac\flac.exe
Additional command line options : -8 -V %s

TOC of the extracted CD

Track | Start | Length | Start sector | End sector
---------------------------------------------------------
1 | 0:00.00 | 6:02.19 | 0 | 27168
2 | 6:02.19 | 5:57.18 | 27169 | 53961
3 | 11:59.37 | 4:34.59 | 53962 | 74570
4 | 16:34.21 | 4:01.15 | 74571 | 92660
5 | 20:35.36 | 6:37.09 | 92661 | 122444
6 | 27:12.45 | 6:40.08 | 122445 | 152452
7 | 33:52.53 | 4:37.69 | 152453 | 173296
8 | 38:30.47 | 1:59.18 | 173297 | 182239
9 | 40:29.65 | 4:23.11 | 182240 | 201975
10 | 44:53.01 | 4:12.60 | 201976 | 220935
11 | 49:05.61 | 4:30.69 | 220936 | 241254
12 | 53:36.55 | 16:27.58 | 241255 | 315337
13 | 70:04.38 | 1:25.37 | 315338 | 321749

Range status and errors

Selected range

Filename F:\LOSSLESS\Versailles\2011 - Holy Grail\VERSAILLES - Holy Grail.wav

Peak level 100.0 %
Range quality 100.0 %
Test CRC 4E600D3C
Copy CRC 4E600D3C
Copy OK

No errors occurred

AccurateRip summary
Track 1 not present in database
Track 2 not present in database
Track 3 not present in database
Track 4 not present in database
Track 5 not present in database
Track 6 not present in database
Track 7 not present in database
Track 8 not present in database
Track 9 not present in database
Track 10 not present in database
Track 11 not present in database
Track 12 not present in database
Track 13 not present in database
None of the tracks are present in the AccurateRip database

End of status report

  
REM GENRE Metal
REM DATE 2011
REM DISCID AD10C20D
REM COMMENT "ExactAudioCopy v0.99pb5"
PERFORMER "VERSAILLES"
TITLE "Holy Grail"
FILE "VERSAILLES - Holy Grail.flac" WAVE
TRACK 01 AUDIO
TITLE "MASQUERADE"
PERFORMER "VERSAILLES"
INDEX 01 00:00:00
TRACK 02 AUDIO
TITLE "Philia"
PERFORMER "VERSAILLES"
INDEX 00 06:01:06
INDEX 01 06:02:19
TRACK 03 AUDIO
TITLE "Thanatos"
PERFORMER "VERSAILLES"
INDEX 00 11:59:24
INDEX 01 11:59:37
TRACK 04 AUDIO
TITLE "Flowery"
PERFORMER "VERSAILLES"
INDEX 00 16:32:46
INDEX 01 16:34:21
TRACK 05 AUDIO
TITLE "Remember Forever"
PERFORMER "VERSAILLES"
INDEX 00 20:34:23
INDEX 01 20:35:36
TRACK 06 AUDIO
TITLE "DESTINY -The Lovers-"
PERFORMER "VERSAILLES"
INDEX 00 27:12:32
INDEX 01 27:12:45
TRACK 07 AUDIO
TITLE "DRY ICE SCREAM (Remove Silence)"
PERFORMER "VERSAILLES"
INDEX 00 33:50:40
INDEX 01 33:52:53
TRACK 08 AUDIO
TITLE "Threshold"
PERFORMER "VERSAILLES"
INDEX 01 38:30:47
TRACK 09 AUDIO
TITLE "Judicial Noir"
PERFORMER "VERSAILLES"
INDEX 01 40:29:65
TRACK 10 AUDIO
TITLE "Love will be born again"
PERFORMER "VERSAILLES"
INDEX 00 44:50:25
INDEX 01 44:53:01
TRACK 11 AUDIO
TITLE "Vampire"
PERFORMER "VERSAILLES"
INDEX 01 49:05:61
TRACK 12 AUDIO
TITLE "Faith & Decision"
PERFORMER "VERSAILLES"
INDEX 00 53:34:42
INDEX 01 53:36:55
TRACK 13 AUDIO
TITLE "The Theme of Holy Grail"
PERFORMER "VERSAILLES"
INDEX 00 70:04:22
INDEX 01 70:04:38

Треклист:
01. Prelude (1:35)
02. Rose (5:24)
03. Rhapsody of the Darkness (4:55)
04. Edge of the World (5:18)
05. Illusion (5:07)
06. ? ~Ayakashi~ (4:38)
07. Created Beauty (10:05)
08. Holy Grail -amoroso- (5:03)
09. Brave (4:34)
10. Truth (4:45)
11. Sympathia (6:14)
  
Exact Audio Copy V1.0 beta 3 from 29. August 2011

EAC extraction logfile from 16. October 2012, 17:08

Versailles / Versailles

Used drive : ATAPI iHAS122 Adapter: 0 ID: 0

Read mode : Secure
Utilize accurate stream : Yes
Defeat audio cache : Yes
Make use of C2 pointers : No

Read offset correction : 6
Overread into Lead-In and Lead-Out : No
Fill up missing offset samples with silence : Yes
Delete leading and trailing silent blocks : No
Null samples used in CRC calculations : Yes
Used interface : Native Win32 interface for Win NT & 2000
Gap handling : Appended to previous track

Used output format : User Defined Encoder
Selected bitrate : 1024 kBit/s
Quality : High
Add ID3 tag : No
Command line compressor : C:\Program Files (x86)\Exact Audio Copy 1.0Beta3\FLAC\FLAC.EXE
Additional command line options : -8 -V -T "ARTIST=%artist%" -T "TITLE=%title%" -T "ALBUM=%albumtitle%" -T "DATE=%year%" -T "TRACKNUMBER=%tracknr%" -T "GENRE=%genre%" -T "PERFORMER=%albuminterpret%" -T "COMPOSER=%composer%" %haslyrics%--tag-from-file=LYRICS="%lyricsfile%"%haslyrics% -T "ALBUMARTIST=%albumartist%" -T "DISCNUMBER=%cdnumber%" -T "TOTALDISCS=%totalcds%" -T "TOTALTRACKS=%numtracks%" -T "COMMENT=%comment%" %source% -o %dest%

TOC of the extracted CD

Track | Start | Length | Start sector | End sector
---------------------------------------------------------
1 | 0:00.00 | 1:35.08 | 0 | 7132
2 | 1:35.08 | 5:23.39 | 7133 | 31396
3 | 6:58.47 | 4:54.62 | 31397 | 53508
4 | 11:53.34 | 5:17.39 | 53509 | 77322
5 | 17:10.73 | 5:07.37 | 77323 | 100384
6 | 22:18.35 | 4:37.73 | 100385 | 121232
7 | 26:56.33 | 10:05.13 | 121233 | 166620
8 | 37:01.46 | 5:03.28 | 166621 | 189373
9 | 42:04.74 | 4:33.70 | 189374 | 209918
10 | 46:38.69 | 4:45.12 | 209919 | 231305
11 | 51:24.06 | 6:14.08 | 231306 | 259363

Track 1

Filename C:\¦ What\01. Prelude - Versailles.wav

Pre-gap length 0:00:02.00

Peak level 99.7 %
Extraction speed 2.7 X
Track quality 100.0 %
Test CRC 392720B9
Copy CRC 392720B9
Track not present in AccurateRip database
Copy OK

Track 2

Filename C:\¦ What\02. Rose - Versailles.wav

Peak level 99.2 %
Extraction speed 3.8 X
Track quality 100.0 %
Test CRC E8E052E7
Copy CRC E8E052E7
Track not present in AccurateRip database
Copy OK

Track 3

Filename C:\¦ What\03. Rhapsody of the Darkness - Versailles.wav

Pre-gap length 0:00:00.66

Peak level 99.3 %
Extraction speed 3.6 X
Track quality 99.9 %
Test CRC EFEE2C15
Copy CRC EFEE2C15
Track not present in AccurateRip database
Copy OK

Track 4

Filename C:\¦ What\04. Edge of the World - Versailles.wav

Pre-gap length 0:00:01.17

Peak level 99.3 %
Extraction speed 4.7 X
Track quality 100.0 %
Test CRC B5AAFD15
Copy CRC B5AAFD15
Track not present in AccurateRip database
Copy OK

Track 5

Filename C:\¦ What\05. Illusion - Versailles.wav

Pre-gap length 0:00:00.17

Peak level 99.3 %
Extraction speed 5.1 X
Track quality 100.0 %
Test CRC 4168A12E
Copy CRC 4168A12E
Track not present in AccurateRip database
Copy OK

Track 6

Filename C:\¦ What\06. ? ~Ayakashi~ - Versailles.wav

Pre-gap length 0:00:02.17

Peak level 99.0 %
Extraction speed 5.3 X
Track quality 100.0 %
Test CRC 07B0D2CD
Copy CRC 07B0D2CD
Track not present in AccurateRip database
Copy OK

Track 7

Filename C:\¦ What\07. Created Beauty - Versailles.wav

Pre-gap length 0:00:02.17

Peak level 99.3 %
Extraction speed 6.1 X
Track quality 100.0 %
Test CRC 788C86C8
Copy CRC 788C86C8
Track not present in AccurateRip database
Copy OK

Track 8

Filename C:\¦ What\08. Holy Grail -amoroso- - Versailles.wav

Pre-gap length 0:00:00.17

Peak level 99.2 %
Extraction speed 6.3 X
Track quality 100.0 %
Test CRC EA80C1E3
Copy CRC EA80C1E3
Track not present in AccurateRip database
Copy OK

Track 9

Filename C:\¦ What\09. Brave - Versailles.wav

Pre-gap length 0:02:29.68

Peak level 99.3 %
Extraction speed 6.5 X
Track quality 100.0 %
Test CRC 44FE6AB5
Copy CRC 44FE6AB5
Track not present in AccurateRip database
Copy OK

Track 10

Filename C:\¦ What\10. Truth - Versailles.wav

Pre-gap length 0:00:02.17

Peak level 99.3 %
Extraction speed 5.4 X
Track quality 99.9 %
Test CRC B0B16103
Copy CRC B0B16103
Track not present in AccurateRip database
Copy OK

Track 11

Filename C:\¦ What\11. Sympathia - Versailles.wav

Pre-gap length 0:00:02.66

Peak level 99.3 %
Extraction speed 7.0 X
Track quality 100.0 %
Test CRC 9672428F
Copy CRC 9672428F
Track not present in AccurateRip database
Copy OK

None of the tracks are present in the AccurateRip database

No errors occurred

End of status report

---- CUETools DB Plugin V2.1.3

[CTDB TOCID: A55fS0C0yK8wsOYtDcHOxw7Hl9E-] found, Submit result: already submitted
[7be1c710] (4/4) Accurately ripped

==== Log checksum 054C7EA529E72FC7D6DA6AA22DA88EEFC4261B5D11CA2097A3C0FCAE02E41E9D ====

 REM GENRE "Symphonic Power Metal" 
REM DATE 2012
REM DISCID 760D820B
REM COMMENT "ExactAudioCopy v1.0b3"
CATALOG 4943674124886
PERFORMER "Versailles"
TITLE "Versailles"
FILE "01. Prelude - Versailles.wav" WAVE
TRACK 01 AUDIO
TITLE "Prelude"
PERFORMER "Versailles"
ISRC JPWP01271262
INDEX 01 00:00:00
FILE "02. Rose - Versailles.wav" WAVE
TRACK 02 AUDIO
TITLE "Rose"
PERFORMER "Versailles"
ISRC JPWP01270581
INDEX 01 00:00:00
TRACK 03 AUDIO
TITLE "Rhapsody of the Darkness"
PERFORMER "Versailles"
ISRC JPWP01271263
INDEX 00 05:22:64
FILE "03. Rhapsody of the Darkness - Versailles.wav" WAVE
INDEX 01 00:00:00
TRACK 04 AUDIO
TITLE "Edge of the World"
PERFORMER "Versailles"
ISRC JPWP01271265
INDEX 00 04:53:49
FILE "04. Edge of the World - Versailles.wav" WAVE
INDEX 01 00:00:00
TRACK 05 AUDIO
TITLE "Illusion"
PERFORMER "Versailles"
ISRC JPWP01271264
INDEX 00 05:17:26
FILE "05. Illusion - Versailles.wav" WAVE
INDEX 01 00:00:00
TRACK 06 AUDIO
TITLE ". ~Ayakashi~"
PERFORMER "Versailles"
ISRC JPWP01270582
INDEX 00 05:05:24
FILE "06. . ~Ayakashi~ - Versailles.wav" WAVE
INDEX 01 00:00:00
TRACK 07 AUDIO
TITLE "Created Beauty"
PERFORMER "Versailles"
ISRC JPWP01271266
INDEX 00 04:35:60
FILE "07. Created Beauty - Versailles.wav" WAVE
INDEX 01 00:00:00
TRACK 08 AUDIO
TITLE "Holy Grail -amoroso-"
PERFORMER "Versailles"
ISRC JPWP01271267
INDEX 00 10:05:00
FILE "08. Holy Grail -amoroso- - Versailles.wav" WAVE
INDEX 01 00:00:00
TRACK 09 AUDIO
TITLE "Brave"
PERFORMER "Versailles"
ISRC JPWP01271268
INDEX 00 02:33:52
FILE "09. Brave - Versailles.wav" WAVE
INDEX 01 00:00:00
TRACK 10 AUDIO
TITLE "Truth"
PERFORMER "Versailles"
ISRC JPWP01271269
INDEX 00 04:31:57
FILE "10. Truth - Versailles.wav" WAVE
INDEX 01 00:00:00
TRACK 11 AUDIO
TITLE "Sympathia"
PERFORMER "Versailles"
ISRC JPWP01271270
INDEX 00 04:42:37
FILE "11. Sympathia - Versailles.wav" WAVE
INDEX 01 00:00:00

Single:
Треклист:
01. The Revenant Choir (8:43)
02. The Revenant Choir Vocal Lesson (6:24)
03. The Revenant Choir Bass Lesson (6:24)
04. The Revenant Choir Drum Lesson (6:26)
05. The Revenant Choir Guitar Lesson (6:23)
  
CUERipper v2.1.2 Copyright (C) 2008-10 Gregory S. Chudov
Extraction logfile from : 07/19/2011 10:27:59
Used drive : HL-DT-ST - DVDRAM GT20N
Read offset correction : 667
Read command : BEh, 12h, BEh, 16 blocks at a time
Secure mode : 1
Disk length : 34:21:11
AccurateRip : ok

TOC of the extracted CD

Track | Start | Length | Start sector | End sector
---------------------------------------------------------
1 | 0:00.00 | 8:43.28 | 0 | 39252
2 | 8:43.28 | 6:23.70 | 39253 | 68047
3 | 15:07.23 | 6:23.70 | 68048 | 96842
4 | 21:31.18 | 6:26.34 | 96843 | 125826
5 | 27:57.52 | 6:23.34 | 125827 | 154585

Track | Pregap | Indexes
---------------------------------------------------------
1 | 00:02:00 | 1
2 | 00:05:00 | 1
3 | 00:03:00 | 1
4 | 00:03:00 | 1
5 | 00:03:00 | 1

Destination files
C:\Music\Versailles\2007 - The Revenant Choir\01. The Revenant Choir.flac
C:\Music\Versailles\2007 - The Revenant Choir\02. The Revenant Choir Vocal Lesson.flac
C:\Music\Versailles\2007 - The Revenant Choir\03. The Revenant Choir Bass Lesson.flac
C:\Music\Versailles\2007 - The Revenant Choir\04. The Revenant Choir Drum Lesson.flac
C:\Music\Versailles\2007 - The Revenant Choir\05. The Revenant Choir Guitar Lesson.flac

[CTDB TOCID: 9SStX.6eACUrOmGInovIgN9hP0A-] found.
[ CTDBID ] Status
[18d0f138] (1/1) Accurately ripped

AccurateRip summary

[AccurateRip ID: 000764cd-0021f9f2-46080d05] found.
Track [ CRC ] Status
01 [139bb03e] (1/1) Accurately ripped
02 [1565abfa] (0/0) No match
03 [3434d63f] (0/0) No match
04 [9f8cc3a8] (0/0) No match
05 [d881c46d] (0/0) No match

Track Peak [ CRC32 ] [W/O NULL]
-- 96.6 [362CBDDB] [B09F8C3C]
01 96.6 [0A8CDAF6] [9DA89D1C]
02 88.1 [B1FC1E7E] [7C1FC5B1]
03 88.1 [7C03B4DC] [BF2AD9EB]
04 88.1 [357A2ABA] [9CC16CC9]
05 88.1 [9D7F3152] [0EAFA1A2]

End of status report

  
REM ACCURATERIPID 000764cd-0021f9f2-46080d05
REM DISCID 46080D05
REM COMMENT "CUERipper v2.1.2 Copyright (C) 2008-10 Gregory S. Chudov"
PERFORMER "Versailles"
TITLE "The Revenant Choir"
REM DATE 2007
REM DISCNUMBER 1
REM TOTALDISCS 1
FILE "01. The Revenant Choir.flac" WAVE
TRACK 01 AUDIO
PERFORMER "Versailles"
TITLE "The Revenant Choir"
INDEX 01 00:00:00
TRACK 02 AUDIO
PERFORMER "Versailles"
TITLE "The Revenant Choir Vocal Lesson"
INDEX 00 08:38:28
FILE "02. The Revenant Choir Vocal Lesson.flac" WAVE
INDEX 01 00:00:00
TRACK 03 AUDIO
PERFORMER "Versailles"
TITLE "The Revenant Choir Bass Lesson"
INDEX 00 06:20:70
FILE "03. The Revenant Choir Bass Lesson.flac" WAVE
INDEX 01 00:00:00
TRACK 04 AUDIO
PERFORMER "Versailles"
TITLE "The Revenant Choir Drum Lesson"
INDEX 00 06:20:70
FILE "04. The Revenant Choir Drum Lesson.flac" WAVE
INDEX 01 00:00:00
TRACK 05 AUDIO
PERFORMER "Versailles"
TITLE "The Revenant Choir Guitar Lesson"
INDEX 00 06:23:34
FILE "05. The Revenant Choir Guitar Lesson.flac" WAVE
INDEX 01 00:00:00

Треклист:
01. Aristocrat's Symphony (6:17)
02. SUZERAIN (4:21)
03. zombie (3:52)
  
AUDIOCHECKER v2.0 beta (build 457) - by Dester - opdester@freemail.hu
~~~~~~~~~~~~~~~~~~~~~~~~~~~~~~~~~~

Started at: пятница, 24. 08. 2012. - 17:32.29
3 files found

1 -===- X:\Music\!!_FLAC\Versailles\Single\2008 - A Noble Was Born In Chaos (Single)\Versailles - 01 - Aristocrat's Symphony.flac
Extracted successfully
Conclusion: this track is CDDA with probability 100%
Tempfile successfully deleted.

2 -===- X:\Music\!!_FLAC\Versailles\Single\2008 - A Noble Was Born In Chaos (Single)\Versailles - 02 - SUZERAIN.flac
Extracted successfully
Conclusion: this track is CDDA with probability 100%
Tempfile successfully deleted.

3 -===- X:\Music\!!_FLAC\Versailles\Single\2008 - A Noble Was Born In Chaos (Single)\Versailles - 03 - zombie.flac
Extracted successfully
Conclusion: this track is CDDA with probability 100%
Tempfile successfully deleted.

Finished at: пятница, 24. 08. 2012. - 17:34.18 (operation time: 0:01.48)

Треклист:
01. Prince (5:28)
02. Princess (8:25)
03. Silent Knight (instrumental) (6:01)
  
Exact Audio Copy V0.99 prebeta 5 from 4. May 2009

Отчёт EAC об извлечении, выполненном 29. июня 2010, 0:59

Versailles / Prince & Princess

Дисковод: Optiarc DVD RW AD-7201S Adapter: 3 ID: 0

Режим чтения : Достоверность
Использование точного потока : Да
Отключение кэша аудио : Да
Использование указателей C2 : Нет

Коррекция смещения при чтении : 48
Способность читать области Lead-in и Lead-out : Нет
Заполнение пропущенных сэмплов тишиной : Да
Удаление блоков с тишиной в начале и конце : Нет
При вычислениях CRC использовались нулевые сэмплы : Да
Интерфейс : Встроенный Win32-интерфейс для Win NT/2000

Выходной формат : Внутренние WAV-операции
Формат сэмплов : 44.100 Гц; 16 бит; стерео

TOC извлечённого CD

Трек |
INDEX 01 00:00:00
TRACK 02 AUDIO
TITLE AUDIOCHECKER log Старт | Длительность | Начальный сектор | Конечный сектор
---------------------------------------------------------------------
1 | 0:00.00 | 5:27.62 | 0 | 24586
2 | 5:27.62 | 8:25.02 | 24587 | 62463
3 | 13:52.64 | 6:00.39 | 62464 | 89502

Характеристики диапазона извлечения и сообщения об ошибках

Выбранный диапазон

Имя файла D:\РАЗДАЧА\Versailles - Prince & Princess.wav

Пиковый уровень 98.9 %
Качество диапазона 100.0 %
CRC теста F80129BD
CRC копии F80129BD
Копирование... OK

Ошибок не произошло

AccurateRip: сводка
Трек 1 нет в базе данных
Трек 2 нет в базе данных
Трек 3 нет в базе данных
Ни одного трека нет в базе AccurateRip

Конец отчёта

  
REM GENRE "J Rock"
REM DATE 2008
REM DISCID 1F04A903
REM COMMENT "ExactAudioCopy v0.99pb5"
PERFORMER "Versailles"
TITLE "Prince & Princess"
FILE "Versailles - Prince & Princess.ape" WAVE
TRACK 01 AUDIO
TITLE "Prince"
PERFORMER "Versailles"
INDEX 01 00:00:00
TRACK 02 AUDIO
TITLE "Princess"
PERFORMER "Versailles"
INDEX 00 05:26:26
INDEX 01 05:27:62
TRACK 03 AUDIO
TITLE "Silent Knight (instrumental)"
PERFORMER "Versailles"
INDEX 00 13:50:29
INDEX 01 13:52:64

Треклист:
01. Ascendead Master (5:52)
02. 月下香 (4:43)
03. Descendant of the Rose [Soundtrack] (1:48)
  

-----------------------------------------------------------

Started at: пятница, 24. 08. 2012. - 17:41.24
3 files found

1 -===- X:\Music\!!_FLAC\Versailles\Single\Ascendead Master (Single)\01 - Ascendead Master.flac
Extracted successfully
Conclusion: this track is CDDA with probability 100%
Tempfile successfully deleted.

2 -===- X:\Music\!!_FLAC\Versailles\Single\Ascendead Master (Single)\02 -.flac
Extracted successfully
Conclusion: this track is CDDA with probability 99%
Tempfile successfully deleted.

3 -===- X:\Music\!!_FLAC\Versailles\Single\Ascendead Master (Single)\03 - Descendant of the Rose [Soundtrack].flac
Extracted successfully
Conclusion: this track is CDDA with probability 100%
Tempfile successfully deleted.

Finished at: пятница, 24. 08. 2012. - 17:42.57 (operation time: 0:01.32)

Треклист:
01. ASCENDEAD MASTER (5:53)
02. PILGRIM [SOUNDTRACK] (1:44)
  
AUDIOCHECKER v2.0 beta (build 457) - by Dester - opdester@freemail.hu
~~~~~~~~~~~~~~~~~~~~~~~~~~~~~~~~~~

Started at: пятница, 24. 08. 2012. - 17:46.25
2 files found

1 -===- X:\Music\!!_FLAC\Versailles\Single\ASCENDEAD MASTER [Limited Edition] (Single)\01. ASCENDEAD MASTER.flac
Extracted successfully
Conclusion: this track is CDDA with probability 100%
Tempfile successfully deleted.

2 -===- X:\Music\!!_FLAC\Versailles\Single\ASCENDEAD MASTER [Limited Edition] (Single)\02. PILGRIM [SOUNDTRACK].flac
Extracted successfully
Conclusion: this track is CDDA with probability 100%
Tempfile successfully deleted.

Finished at: пятница, 24. 08. 2012. - 17:47.16 (operation time: 0:00.50)

Треклист:
01. Ascendead Master (5:52)
02. Covenant [Soundtrack] (1:30)
  

-----------------------------------------------------------

Started at: пятница, 24. 08. 2012. - 17:43.57
2 files found

1 -===- X:\Music\!!_FLAC\Versailles\Single\Ascendead Master [Limited Edition III] (Single)\01 Ascendead Master.flac
Extracted successfully
Conclusion: this track is CDDA with probability 100%
Tempfile successfully deleted.

2 -===- X:\Music\!!_FLAC\Versailles\Single\Ascendead Master [Limited Edition III] (Single)\02 Covenant [Soundtrack].flac
Extracted successfully
Conclusion: this track is CDDA with probability 100%
Tempfile successfully deleted.

Finished at: пятница, 24. 08. 2012. - 17:44.48 (operation time: 0:00.51)

Треклист:
01. Destiny -The Lovers- (5:53)
02. Glowing Butterfly (5:55)
03. Libido (?)
  
Exact Audio Copy V0.99 prebeta 5 from 4. May 2009

EAC extraction logfile from 13. November 2010, 16:41

Versailles / Destiny -The Lovers-

Used drive : BENQ DVD LS DW1655 Adapter: 0 ID: 0

Read mode : Secure
Utilize accurate stream : Yes
Defeat audio cache : Yes
Make use of C2 pointers : No

Read offset correction : 618
Overread into Lead-In and Lead-Out : No
Fill up missing offset samples with silence : Yes
Delete leading and trailing silent blocks : No
Null samples used in CRC calculations : No
Used interface : Native Win32 interface for Win NT & 2000

Used output format : User Defined Encoder
Selected bitrate : 1024 kBit/s
Quality : High
Add ID3 tag : Yes
Command line compressor : C:\Program Files\Exact Audio Copy\FLAC\FLAC.EXE
Additional command line options : -6 -V -T "ARTIST=%a" -T "TITLE=%t" -T "ALBUM=%g" -T "DATE=%y" -T "TRACKNUMBER=%n" -T "GENRE=%m" -T "COMMENT=%e" %s -o %d

TOC of the extracted CD

Track | Start | Length | Start sector | End sector
---------------------------------------------------------
1 | 0:00.00 | 5:52.42 | 0 | 26441
2 | 5:52.42 | 5:54.69 | 26442 | 53060
3 | 11:47.36 | 4:02.34 | 53061 | 71244

Range status and errors

Selected range

Filename C:\Documents and Settings\Jyasuten\My Documents\Versailles\Versailles - Destiny -The Lovers-.wav

Peak level 97.9 %
Range quality 100.0 %
Copy CRC 05BA347D
Copy OK

No errors occurred

AccurateRip summary
Track 1 not present in database
Track 2 not present in database
Track 3 not present in database
None of the tracks are present in the AccurateRip database

End of status report

  
REM GENRE Symphonic Rock
REM DATE 2010
REM DISCID 1E03B503
REM COMMENT ExactAudioCopy v0.99pb5
PERFORMER "Versailles"
TITLE "Destiny -The Lovers-"
FILE "Versailles - Destiny -The Lovers-.flac" WAVE
TRACK 01 AUDIO
TITLE "Destiny -The Lovers-"
INDEX 01 00:00:00
TRACK 02 AUDIO
TITLE "Glowing Butterfly"
FLAGS DCP
INDEX 00 05:49:59
INDEX 01 05:52:42
TRACK 03 AUDIO
TITLE "Libido"
FLAGS DCP
INDEX 00 11:43:47
INDEX 01 11:47:36

Треклист:
01. Philia (6:00)
02. Judicial Noir (4:22)
03. Desert Apple (3:56)
  
Exact Audio Copy V0.99 prebeta 5 from 4. May 2009

EAC extraction logfile from 25. March 2011, 16:55

Versailles / Philia

Used drive : Optiarc DVD RW AD-7240S Adapter: 4 ID: 0

Read mode : Secure
Utilize accurate stream : Yes
Defeat audio cache : Yes
Make use of C2 pointers : No

Read offset correction : 48
Overread into Lead-In and Lead-Out : No
Fill up missing offset samples with silence : Yes
Delete leading and trailing silent blocks : No
Null samples used in CRC calculations : Yes
Used interface : Native Win32 interface for Win NT & 2000
Gap handling : Appended to previous track

Used output format : User Defined Encoder
Selected bitrate : 1024 kBit/s
Quality : High
Add ID3 tag : Yes
Command line compressor : C:\Program Files (x86)\Exact Audio Copy\FLAC\FLAC.EXE
Additional command line options : -8 -V -T "ARTIST=%a" -T "TITLE=%t" -T "ALBUM=%g" -T "DATE=%y" -T "TRACKNUMBER=%n" -T "GENRE=%m" -T "COMMENT=EAC FLAC -8" %s

TOC of the extracted CD

Track | Start | Length | Start sector | End sector
---------------------------------------------------------
1 | 0:00.00 | 5:59.40 | 0 | 26964
2 | 5:59.40 | 4:22.24 | 26965 | 46638
3 | 10:21.64 | 3:56.01 | 46639 | 64339

Track 1

Filename C:\Documents and Settings\Administrator\My Documents\My Music\Versailles ~Philharmonic Quintet~\LOSSLESS\2011 - Philia (Maxi-Single)\01. Philia.wav

Pre-gap length 0:00:02.00

Peak level 100.0 %
Track quality 100.0 %
Test CRC DA4ECAEC
Copy CRC DA4ECAEC
Track not present in AccurateRip database
Copy OK

Track 2

Filename C:\Documents and Settings\Administrator\My Documents\My Music\Versailles ~Philharmonic Quintet~\LOSSLESS\2011 - Philia (Maxi-Single)\02. Judicial Noir.wav

Pre-gap length 0:00:01.13

Peak level 97.1 %
Track quality 99.9 %
Test CRC 3D524D44
Copy CRC 3D524D44
Track not present in AccurateRip database
Copy OK

Track 3

Filename C:\Documents and Settings\Administrator\My Documents\My Music\Versailles ~Philharmonic Quintet~\LOSSLESS\2011 - Philia (Maxi-Single)\03. Desert Apple.wav

Pre-gap length 0:00:01.50

Peak level 97.1 %
Track quality 100.0 %
Test CRC 32069756
Copy CRC 32069756
Track not present in AccurateRip database
Copy OK

None of the tracks are present in the AccurateRip database

No errors occurred

End of status report

  
REM GENRE Metal
REM DATE 2011
REM DISCID 17035903
REM COMMENT "ExactAudioCopy v0.99pb5"
PERFORMER "Versailles"
TITLE "Philia"
FILE "01. Philia.wav" WAVE
TRACK 01 AUDIO
TITLE "Philia"
PERFORMER "Versailles"
INDEX 01 00:00:00
TRACK 02 AUDIO
TITLE "Judicial Noir"
PERFORMER "Versailles"
INDEX 00 05:58:27
FILE "02. Judicial Noir.wav" WAVE
INDEX 01 00:00:00
TRACK 03 AUDIO
TITLE "Desert Apple"
PERFORMER "Versailles"
INDEX 00 04:20:49
FILE "03. Desert Apple.wav" WAVE
INDEX 01 00:00:00

Треклист:
01. ROSE (5:26)
02. 妖-ayakashi- (4:37)
03. Love will be born again (Japanese Version) (4:26)
04. THE RED CARPET DAY (4:25)
  
AUDIOCHECKER v2.0 beta (build 457) - by Dester - opdester@freemail.hu
~~~~~~~~~~~~~~~~~~~~~~~~~~~~~~~~~~

Started at: ïÿòíèöà, 24. 08. 2012. - 17:36.54
4 files found

1 -===- X:\Music\!!_FLAC\Versailles\Single\2012 - ROSE (Single)\01. ROSE.flac
Extracted successfully
Conclusion: this track is CDDA with probability 100%
Tempfile successfully deleted.

2 -===- X:\Music\!!_FLAC\Versailles\Single\2012 - ROSE (Single)\02. ayakashi-.flac
Extracted successfully
Conclusion: this track is CDDA with probability 100%
Tempfile successfully deleted.

3 -===- X:\Music\!!_FLAC\Versailles\Single\2012 - ROSE (Single)\03. Love will be born again (Japanese Version).flac
Extracted successfully
Conclusion: this track is CDDA with probability 100%
Tempfile successfully deleted.

4 -===- X:\Music\!!_FLAC\Versailles\Single\2012 - ROSE (Single)\04. THE RED CARPET DAY.flac
Extracted successfully
Conclusion: this track is CDDA with probability 100%
Tempfile successfully deleted.

Finished at: ïÿòíèöà, 24. 08. 2012. - 17:39.05 (operation time: 0:02.10)
Треклист:
03. Rhapsody of the Darkness (4:55)
05. Illusion (5:07)
 AUDIOCHECKER v2.0 beta (build 457) - by Dester - opdester@freemail.hu 
~~~~~~~~~~~~~~~~~~~~~~~~~~~~~~~~~~
-=== DO NOT EDIT THIS FILE! ===-

Path: ...\2012 -Rhapsody of the Darkness (Single)

1 -=- 01 Rhapsody of the Darkness.flac -=- CDDA (100%)
2 -=- 02 Illusion.flac -=- CDDA (100%)

Summary 100,00% CDDA

104565316


Цитата:

Раздача обновлена 22.10.2012:
Добавлен альбом Versailles
Добавлен сингл Rhapsody of the Darkness
info [Профиль]  [ЛС] 

Yohansson

Пол: Пол:Муж

Стаж: 7 лет 2 месяца

Сообщений: 67

СССР
Рейтинг

post 26-Авг-2012 14:36 (спустя 1 день 18 часов) [-]0[+]

[Цитировать] 

хорошо "литературку полистал", чуть картинками не обманулся ))
Хидзаки молодец, лабает душевно.
info [Профиль]  [ЛС] 

Phen1x

Пол: Пол:Муж

Стаж: 6 лет 2 месяца

Сообщений: 531

Украина
Рейтинг

post 26-Авг-2012 14:41 (спустя 4 минуты) [-]0[+]

[Цитировать] 

Yohansson писал(а):

хорошо "литературку полистал", чуть картинками не обманулся ))
Всмысле?

_________________
info [Профиль]  [ЛС] 

post 22-Окт-2012 15:33 (спустя 1 месяц 27 дней) [-]0[+]

Топик был перенесен из форума Анонсы в форум Mеtаl (losslеss)

FranzFerdinand
 

Phen1x

Пол: Пол:Муж

Стаж: 6 лет 2 месяца

Сообщений: 531

Украина
Рейтинг

post 22-Окт-2012 16:20 (спустя 1 месяц 27 дней) [-]0[+]

[Цитировать] 

Раздача обновлена:
Добавлен альбом Versailles
Добавлен сингл Rhapsody of the Darkness

Не забываем жмакать "Спасибо" kolob_117

_________________
info [Профиль]  [ЛС] 

Yohansson

Пол: Пол:Муж

Стаж: 7 лет 2 месяца

Сообщений: 67

СССР
Рейтинг

post 22-Окт-2012 20:24 (спустя 4 часа) [-]0[+]

[Цитировать] 

в смысле, что в составе только особи мужеска пола. по именам-то фиг поймешь
info [Профиль]  [ЛС] 
Показать сообщения:    
Ответить на тему

Текущее время: 04-Дек 06:02

Часовой пояс: GMT + 4



Вы не можете начинать темы
Вы не можете отвечать на сообщения
Вы не можете редактировать свои сообщения
Вы не можете удалять свои сообщения
Вы не можете голосовать в опросах
Вы не можете прикреплять файлы к сообщениям
Вы не можете скачивать файлы