Ошибка

Prodigy - World's On Fire [2011 г., Breakbeat, Grime, Drum n Bass, Big Beatl, BDrip 1080p]

Ответить на тему
 
Автор Сообщение

Shamik

Пол: Пол:Муж

Стаж: 7 лет 7 месяцев

Сообщений: 488

Кокосовые острова
Рейтинг

post 31-Май-2012 15:58 0[+]

[Цитировать] 

Prodigy - World's On Fire

Исполнитель:............: Prodigy
Альбом:........................: World's On Fire
Страна:.........................: UK
Лейбл:...........................: Take Me To The Hospital – HOSPBRD4
Формат:........................: Blu-ray, Album
Дата выпуска:...........: 23 May 2011
Жанр:............................: Breakbeat, Grime, Drum n Bass, Big Beat
По Disogs:.....................: http://www.discogs.com/Prodigy-Live-Worlds-On-Fire/release/2888924
Качество: BDRip
Энкодер: CtrlHD
Контейнер: MKV
Видео кодек: H.264
Аудио кодек: AC3, Flac
Видео: 1920x808, 14.9 Mbps at 29.970 кадр/сек
Аудио#1: AC3 5.1 @ 640 kbps
Аудио#2: Flac 5.1 @ 4666 kbps <отдельно>

Треклист:
01. Intro
02. Breathe
03. Omen
04. Colours
05. Thunder
06. Warrior's Dance
07. Firestarter
08. Run With The Wolves
09. Weather Experience
10. Voodoo People
11. Omen Reprise
12. Invaders Must Die
13. Smack My Bitch Up
14. Take Me To The Hospital
15. Everybody In The Place
16. Their Law
17. Out Of Space
General 
Unique ID : 201223973992319499881141628625795150261 (0x976253E469795A8A8C466029FA8FF1B5)
Complete name : Y:\Music(TMP)\The Prodigy World's on Fire 2011 1080p BluRay DD 5.1 x264-CtrlHD\The Prodigy World's on Fire 2011 1080p BluRay DD 5.1 x264-CtrlHD.mkv
Format : Matroska
Format version : Version 2
File size : 7.49 GiB
Duration : 1h 9mn
Overall bit rate : 15.5 Mbps
Encoded date : UTC 2011-07-11 14:36:19
Writing application : mkvmerge v4.3.0 ('Escape from the Island') built on Sep 5 2010 10:30:51
Writing library : libebml v1.0.0 + libmatroska v1.0.0

Video
ID : 1
Format : AVC
Format/Info : Advanced Video Codec
Format profile : High@L4.1
Format settings, CABAC : Yes
Format settings, ReFrames : 4 frames
Muxing mode : Header stripping
Codec ID : V_MPEG4/ISO/AVC
Duration : 1h 9mn
Bit rate : 14.9 Mbps
Width : 1 920 pixels
Height : 808 pixels
Display aspect ratio : 2.40:1
Frame rate : 29.970 fps
Color space : YUV
Chroma subsampling : 4:2:0
Bit depth : 8 bits
Scan type : Progressive
Bits/(Pixel*Frame) : 0.320
Stream size : 7.03 GiB (94%)
Writing library : x264 core 115 r2008 4c552d8
Encoding settings : cabac=1 / ref=4 / deblock=1:-3:-3 / analyse=0x3:0x113 / me=umh / subme=10 / psy=1 / psy_rd=1.38:0.00 / mixed_ref=1 / me_range=16 / chroma_me=1 / trellis=2 / 8x8dct=1 / cqm=0 / deadzone=21,11 / fast_pskip=0 / chroma_qp_offset=1 / threads=3 / sliced_threads=0 / nr=0 / decimate=1 / interlaced=0 / bluray_compat=0 / constrained_intra=0 / bframes=6 / b_pyramid=0 / b_adapt=2 / b_bias=0 / direct=3 / weightb=1 / open_gop=0 / weightp=2 / keyint=250 / keyint_min=25 / scenecut=40 / intra_refresh=0 / rc_lookahead=40 / rc=2pass / mbtree=1 / bitrate=14899 / ratetol=1.0 / qcomp=0.60 / qpmin=10 / qpmax=51 / qpstep=4 / cplxblur=20.0 / qblur=0.5 / ip_ratio=1.40 / aq=1:0.80
Language : English
Default : Yes
Forced : No

Audio
ID : 2
Format : AC-3
Format/Info : Audio Coding 3
Mode extension : CM (complete main)
Format settings, Endianness : Big
Muxing mode : Header stripping
Codec ID : A_AC3
Duration : 1h 9mn
Bit rate mode : Constant
Bit rate : 640 Kbps
Channel(s) : 6 channels
Channel positions : Front: L C R, Side: L R, LFE
Sampling rate : 48.0 KHz
Bit depth : 16 bits
Compression mode : Lossy
Stream size : 316 MiB (4%)
Title : DD 5.1 640 Kbps
Language : English
Default : Yes
Forced : No

Menu
00:00:00.000 : :Intro
00:01:39.433 : :Breathe
00:06:22.716 : :Omen
00:10:44.677 : :Colours
00:14:52.058 : :Thunder
00:17:14.433 : :Warriors Dance
00:22:13.299 : :Firestarter
00:27:00.018 : :Run With The Wolves
00:31:43.869 : :Weather Experience
00:35:35.533 : :Voodoo People
00:39:29.734 : :Omen Reprise
00:40:31.296 : :Invaders Must Die
00:44:17.655 : :Smack My Bitch Up
00:50:05.169 : :Take Me To The Hospital
00:55:06.370 : :Everybody In The Place
00:57:43.994 : :Their Law
01:03:41.251 : :Out Of Space



General 
Complete name : Y:\Music(TMP)\The Prodigy World's on Fire 2011 1080p BluRay DD 5.1 x264-CtrlHD\The Prodigy World's on Fire 2011.flac
Format : FLAC
Format/Info : Free Lossless Audio Codec
File size : 2.15 GiB
Duration : 1h 9mn
Overall bit rate mode : Variable
Overall bit rate : 4 466 Kbps
VALID_BITS : 24
HDCD : 0

Audio
Format : FLAC
Format/Info : Free Lossless Audio Codec
Duration : 1h 9mn
Bit rate mode : Variable
Bit rate : 4 466 Kbps
Channel(s) : 6 channels
Sampling rate : 48.0 KHz
Bit depth : 24 bits
Stream size : 2.15 GiB (100%)
Writing library : libFLAC 1.2.1 (UTC 2007-09-17)
info [Профиль]  [ЛС] 

post 01-Июн-2012 02:49 (спустя 10 часов) [-]0[+]

Топик был перенесен из форума Оформление раздач в форум Электронная музыка (video)

Shamik
 

Zokrik

Пол: Пол:Муж

Стаж: 7 лет 1 месяц

Сообщений: 18

Украина
Рейтинг

post 01-Июн-2012 10:26 (спустя 18 часов) [-]0[+]

[Цитировать] 

Отлично, спасибо!
info [Профиль]  [ЛС] 

-DiT-

Пол: Пол:Муж

Стаж: 7 лет 8 месяцев

Сообщений: 607

Кокосовые острова
Рейтинг

post 01-Июн-2012 15:10 (спустя 4 часа) [-]0[+]

[Цитировать] 

Спасибо большое )

_________________
info [Профиль]  [ЛС] 

money yack

Пол: Пол:Муж

Стаж: 6 лет 9 месяцев

Сообщений: 218

Тёркс и Кайкос
Рейтинг

post 01-Июн-2012 19:08 (спустя 3 часа) [-]0[+]

[Цитировать] 

пятиканальный флак? как и на каком плеере можно включить эту дорожку?
info [Профиль]  [ЛС] 

Shamik

Пол: Пол:Муж

Стаж: 7 лет 7 месяцев

Сообщений: 488

Кокосовые острова
Рейтинг

post 01-Июн-2012 19:40 (спустя 31 минута) [-]0[+]

[Цитировать] 

money yack
Для VLC. Медиа-Открыть источник.

_________________
info [Профиль]  [ЛС] 

LaGger_by

Пол: Пол:Муж

Стаж: 4 года 7 месяцев

Сообщений: 68

Предупреждений: 2

Белоруссия
Рейтинг

post 01-Июн-2012 22:32 (спустя 2 часа 51 минута) [-]0[+]

[Цитировать] 

забираем!) большое спасибо

_________________
PSP 3004 CFW 6.60 Pro B10/PSVita/PS3 80Gb CFW PS3 4.21.1 REBUG + 5 TB Western Digital External HDD
XBOX360 Arcade 250Gb FREEBOOT (Kinect)
info [Профиль]  [ЛС] 

money yack

Пол: Пол:Муж

Стаж: 6 лет 9 месяцев

Сообщений: 218

Тёркс и Кайкос
Рейтинг

post 03-Июн-2012 20:21 (спустя 1 день 21 час) [-]0[+]

[Цитировать] 

Shamik, спасибо
info [Профиль]  [ЛС] 
Показать сообщения:    
Ответить на тему

Текущее время: 06-Дек 20:06

Часовой пояс: GMT + 4



Вы не можете начинать темы
Вы не можете отвечать на сообщения
Вы не можете редактировать свои сообщения
Вы не можете удалять свои сообщения
Вы не можете голосовать в опросах
Вы не можете прикреплять файлы к сообщениям
Вы не можете скачивать файлы