Ошибка

(Heavy Metal, Power Metal ) Sabaton - Дискография - 2000 - 2012, FLAC (image\tracks +.cue), lossless

Ответить на тему
 
Автор Сообщение

VlaDai

Пол: Пол:Муж

Стаж: 5 лет 5 месяцев

Сообщений: 1051

Россия
Рейтинг

post 15-Май-2012 14:19 1[+]

[Цитировать] 

pic="http://s002.youpic.su/pictures/1338235200/072e07018fb365bfa526866b8d980f82.jpg"

Вики писал(а):

Sabaton — шведская хеви-пауэр-метал-группа, основанная в 1999 году. Основной темой для песен являются войны и отдельные сражения. Название группы в переводе с английского означает латный ботинок, часть рыцарского доспеха.
Жанр:Heavy Metal, Power Metal ||Происхождение исполнителя: Швеция || Год издания данного носителя: 2000 - 2012 ||Страна-производитель носителя: Швеция ||Тип релиза: image\tracks +.cue|| Аудио кодек: FLAC || Битрейт аудио: lossless || Полиграфия: отсутствует || Продолжительность: 06:00:54
Треклист

01. Introduction (0:56)
02. Hellrider (3:48)
03. Endless Nights (4:50)
04. Metalizer (4:26)
05. Burn Your Crosses (5:23)
06. The Hammer Has Fallen (5:50)
07. Hail To The King (4:09)
08. Shadows (3:33)
09. Thunderstorm (3:10)
10. Master Of The World (4:01)
11. Guten Nacht (1:53)
12. Birds Of War (4:53)

Код:

EAC extraction logfile from 20. August 2008, 23:03 for CD
Sabaton / Fist For Fight (as "Metalizer" Bonus-CD)

Used drive  : ATAPI   DVD A  DH20A4P   Adapter: 3  ID: 0
Read mode   : Secure with NO C2, accurate stream, disable cache
Read offset correction : 6
Overread into Lead-In and Lead-Out : No

Used output format : C:\Program Files\Exact Audio Copy 0.9b4 + APE & FLAC Encoders\MAC.EXE   (Monkey's Audio Lossless Encoder)
                     High Lossless Compression

Other options      :
    Fill up missing offset samples with silence : Yes
    Delete leading and trailing silent blocks : No
    Installed external ASPI interface

Range status and errors
Selected range
   Filename C:\Documents and Settings\Ilian\My Documents\Downloads\CDImage.wav

   Peak level 100.0 %
   Range quality 100.0 %
   CRC 67664B24
   Copy OK

No errors occured

End of status report

Код:

REM GENRE Military Heavy Power Metal
REM DATE 2000
PERFORMER "Sabaton"
TITLE "Fist For Fight"
FILE "Sabaton - 2000 - Fist For Fight.flac" WAVE
  TRACK 01 AUDIO
    TITLE "Introduction"
    INDEX 01 00:00:00
  TRACK 02 AUDIO
    TITLE "Hellrider"
    INDEX 01 00:55:66
  TRACK 03 AUDIO
    TITLE "Endless Nights"
    INDEX 01 04:44:26
  TRACK 04 AUDIO
    TITLE "Metalizer"
    INDEX 01 09:33:74
  TRACK 05 AUDIO
    TITLE "Burn Your Crosses"
    INDEX 01 13:59:42
  TRACK 06 AUDIO
    TITLE "The Hammer Has Fallen"
    INDEX 01 19:22:68
  TRACK 07 AUDIO
    TITLE "Hail To The King"
    INDEX 01 25:12:68
  TRACK 08 AUDIO
    TITLE "Shadows"
    INDEX 01 29:21:44
  TRACK 09 AUDIO
    TITLE "Thunderstorm"
    INDEX 01 32:54:47
  TRACK 10 AUDIO
    TITLE "Master Of The World"
    INDEX 01 36:04:71
  TRACK 11 AUDIO
    TITLE "Guten Nacht"
    INDEX 01 40:05:38
  TRACK 12 AUDIO
    TITLE "Birds Of War"
    INDEX 01 41:58:61

Код:

AUDIOCHECKER v2.0 beta (build 457) - by Dester - opdester@freemail.hu
~~~~~~~~~~~~~~~~~~~~~~~~~~~~~~~~~~
-=== НЕ РЕДАКТИРУЙТЕ ЭТОТ ФАЙЛ! ===-

Путь: ...\CD2

1 -=- Sabaton - 2000 - Fist For Fight.flac -=- CDDA (100%)

256043060

Треклист
01. Primo Victoria (4:11)
02. Reign Of Terror (3:52)
03. Panzer Battalion (5:10)
04. Wolfpack (5:56)
05. Counterstrike (3:48)
06. Stalingrad (5:18)
07. Into The Fire (3:26)
08. Purple Heart (5:08)
09. Metal Machine (4:23)

Код:

EAC extraction logfile from 14. August 2008, 16:19 for CD
Sabaton / Primo Victoria

Used drive  : ATAPI   DVD A  DH20A4P   Adapter: 3  ID: 0
Read mode   : Secure with NO C2, accurate stream, disable cache
Read offset correction : 6
Overread into Lead-In and Lead-Out : No

Used output format : C:\Program Files\Exact Audio Copy 0.9b4 + APE & FLAC Encoders\MAC.EXE   (Monkey's Audio Lossless Encoder)
                     High Lossless Compression

Other options      :
    Fill up missing offset samples with silence : Yes
    Delete leading and trailing silent blocks : No
    Installed external ASPI interface

Range status and errors
Selected range
   Filename C:\Documents and Settings\Ilian\My Documents\Downloads\CDImage.wav

   Peak level 98.8 %
   Range quality 100.0 %
   CRC 5BD5FAC9
   Copy OK

No errors occured

End of status report

Код:

REM GENRE Military Heavy Power Metal
REM DATE 2005
PERFORMER "Sabaton"
TITLE "Primo Victoria"
FILE "Sabaton - 2005 - Primo Victoria.flac" WAVE
  TRACK 01 AUDIO
    TITLE "Primo Victoria"
    INDEX 01 00:00:00
  TRACK 02 AUDIO
    TITLE "Reign Of Terror"
    INDEX 01 04:10:52
  TRACK 03 AUDIO
    TITLE "Panzer Battalion"
    INDEX 01 08:02:32
  TRACK 04 AUDIO
    TITLE "Wolfpack"
    INDEX 01 13:12:25
  TRACK 05 AUDIO
    TITLE "Counterstrike"
    INDEX 01 19:07:72
  TRACK 06 AUDIO
    TITLE "Stalingrad"
    INDEX 01 22:56:05
  TRACK 07 AUDIO
    TITLE "Into The Fire"
    INDEX 01 28:14:22
  TRACK 08 AUDIO
    TITLE "Purple Heart"
    INDEX 01 31:39:62
  TRACK 09 AUDIO
    TITLE "Metal Machine"
    INDEX 01 36:47:55

Код:

AUDIOCHECKER v2.0 beta (build 457) - by Dester - opdester@freemail.hu
~~~~~~~~~~~~~~~~~~~~~~~~~~~~~~~~~~
-=== НЕ РЕДАКТИРУЙТЕ ЭТОТ ФАЙЛ! ===-

Путь: ...\2005 - Primo Victoria

1 -=- Sabaton - 2005 - Primo Victoria.flac -=- CDDA (100%)

169873860
Треклист
01. Attero Dominatus (3:45)
02. Nuclear Attack (4:12)
03. Rise Of Evil (8:21)
04. In The Name Of God (4:08)
05. We Burn (2:57)
06. Angels Calling (5:59)
07. Back In Control (3:17)
08. Light In The Black (4:54)
09. Metal Crue (3:42)

Код:

EAC extraction logfile from 20. November 2006, 19:49 for CD
Sabaton / Attero Dominatus

Used drive  : _NEC    DVD_RW ND-2500A   Adapter: 1  ID: 0
Read mode   : Secure with NO C2, accurate stream, disable cache
Read offset correction : 48
Overread into Lead-In and Lead-Out : No

Used output format : Monkey's Audio Lossless Encoder v3.97 DLL
                     Fast Lossless Compression

Other options      :
    Fill up missing offset samples with silence : Yes
    Delete leading and trailing silent blocks : No
    Native Win32 interface for Win NT & 2000

Range status and errors
Selected range
     Filename E:\MetallMadness\Sabaton [2006] Attero Dominatus\Sabaton - Attero Dominatus.ape

     Peak level 98.8 %
     Range quality 99.9 %
     CRC FAAE81F1
     Copy OK

No errors occured

End of status report

Код:

REM GENRE Military Heavy Power Metal
REM DATE 2006
REM DISCID 7C09AC09
REM COMMENT ExactAudioCopy v0.95b4
PERFORMER "Sabaton"
TITLE "Attero Dominatus"
FILE "Sabaton - 2006 - Attero Dominatus.flac" WAVE
  TRACK 01 AUDIO
    TITLE "Attero Dominatus"
    FLAGS DCP
    INDEX 01 00:00:00
  TRACK 02 AUDIO
    TITLE "Nuclear Attack"
    FLAGS DCP
    INDEX 00 03:43:12
    INDEX 01 03:45:12
  TRACK 03 AUDIO
    TITLE "Rise Of Evil"
    FLAGS DCP
    INDEX 00 07:55:10
    INDEX 01 07:57:10
  TRACK 04 AUDIO
    TITLE "In The Name Of God"
    FLAGS DCP
    INDEX 00 16:16:22
    INDEX 01 16:18:22
  TRACK 05 AUDIO
    TITLE "We Burn"
    FLAGS DCP
    INDEX 00 20:24:54
    INDEX 01 20:26:54
  TRACK 06 AUDIO
    TITLE "Angels Calling"
    FLAGS DCP
    INDEX 00 23:22:02
    INDEX 01 23:24:02
  TRACK 07 AUDIO
    TITLE "Back In Control"
    FLAGS DCP
    INDEX 00 29:21:02
    INDEX 01 29:23:02
  TRACK 08 AUDIO
    TITLE "Light In The Black"
    FLAGS DCP
    INDEX 00 32:37:52
    INDEX 01 32:39:52
  TRACK 09 AUDIO
    TITLE "Metal Crue"
    FLAGS DCP
    INDEX 00 37:31:65
    INDEX 01 37:33:65

Код:

AUDIOCHECKER v2.0 beta (build 457) - by Dester - opdester@freemail.hu
~~~~~~~~~~~~~~~~~~~~~~~~~~~~~~~~~~
-=== НЕ РЕДАКТИРУЙТЕ ЭТОТ ФАЙЛ! ===-

Путь: ...\2006 - Attero Dominatus

1 -=- Sabaton - 2006 - Attero Dominatus.flac -=- CDDA (100%)

46379236

Треклист
01. Hellrider (3:42)
02. Thunder Gods (3:48)
03. Metalizer (4:07)
04. Shadows (3:29)
05. Burn Your Crosses (5:09)
06. 7734 (3:42)
07. Endless Nights (4:52)
08. Hail To The King (3:39)
09. Thunderstorm (3:09)
10. Speeder (3:46)
11. Masters Of The World (4:02)
12. Jawbreaker (3:23)

Код:

EAC extraction logfile from 20. August 2008, 22:41 for CD
Sabaton / Metalizer

Used drive  : ATAPI   DVD A  DH20A4P   Adapter: 3  ID: 0
Read mode   : Secure with NO C2, accurate stream, disable cache
Read offset correction : 6
Overread into Lead-In and Lead-Out : No

Used output format : C:\Program Files\Exact Audio Copy 0.9b4 + APE & FLAC Encoders\MAC.EXE   (Monkey's Audio Lossless Encoder)
                     High Lossless Compression

Other options      :
    Fill up missing offset samples with silence : Yes
    Delete leading and trailing silent blocks : No
    Installed external ASPI interface

Range status and errors
Selected range
   Filename C:\Documents and Settings\Ilian\My Documents\Downloads\CDImage.wav

   Peak level 98.9 %
   Range quality 100.0 %
   CRC 5B063F99
   Copy OK

No errors occured

End of status report

Код:

REM GENRE Military Heavy Power Metal
REM DATE 2007
PERFORMER "Sabaton"
TITLE "Metalizer"
FILE "Sabaton - 2007 - Metalizer.flac" WAVE
  TRACK 01 AUDIO
    TITLE "Hellrider"
    INDEX 01 00:00:00
  TRACK 02 AUDIO
    TITLE "Thunder Gods"
    INDEX 01 03:42:07
  TRACK 03 AUDIO
    TITLE "Metalizer"
    INDEX 01 07:29:54
  TRACK 04 AUDIO
    TITLE "Shadows"
    INDEX 01 11:36:40
  TRACK 05 AUDIO
    TITLE "Burn Your Crosses"
    INDEX 01 15:05:35
  TRACK 06 AUDIO
    TITLE "7734"
    INDEX 01 20:14:58
  TRACK 07 AUDIO
    TITLE "Endless Nights"
    INDEX 01 23:56:50
  TRACK 08 AUDIO
    TITLE "Hail To The King"
    INDEX 01 28:48:63
  TRACK 09 AUDIO
    TITLE "Thunderstorm"
    INDEX 01 32:27:64
  TRACK 10 AUDIO
    TITLE "Speeder"
    INDEX 01 35:36:29
  TRACK 11 AUDIO
    TITLE "Masters Of The World"
    INDEX 01 39:22:00
  TRACK 12 AUDIO
    TITLE "Jawbreaker"
    INDEX 01 43:23:60

Код:

AUDIOCHECKER v2.0 beta (build 457) - by Dester - opdester@freemail.hu
~~~~~~~~~~~~~~~~~~~~~~~~~~~~~~~~~~
-=== НЕ РЕДАКТИРУЙТЕ ЭТОТ ФАЙЛ! ===-

Путь: ...\CD1

1 -=- Sabaton - 2007 - Metalizer.flac -=- CDDA (100%)

216535684

Треклист
01. Sun Tzu Says (0:24)
02. Ghost Division (3:51)
03. The Art Of War (5:09)
04. 40:1 (4:11)
05. Unbreakable (5:58)
06. The Nature Of Warfare (1:19)
07. Cliffs Of Gallipoli (5:52)
08. Talvisota (3:32)
09. Panzerkampf (5:16)
10. Union (Slopes Of St. Benedict) (4:05)
11. The Price Of A Mile (5:55)
12. Firestorm (3:26)
13. A Secret (0:38)

Код:

EAC extraction logfile from 4. June 2008, 19:07 for CD
Sabaton / The art of war

Used drive  : Optiarc DVD RW AD-7173A   Adapter: 1  ID: 0
Read mode   : Secure with NO C2, accurate stream, disable cache
Read offset correction : 48
Overread into Lead-In and Lead-Out : No

Used output format : Internal WAV Routines
                     44.100 Hz; 16 Bit; Stereo

Other options      :
    Fill up missing offset samples with silence : Yes
    Delete leading and trailing silent blocks : No
    Installed external ASPI interface

Range status and errors
Selected range
     Filename C:\incoming\Sabaton - The art of war.wav

     Peak level 98.9 %
     Range quality 100.0 %
     CRC D1711200
     Copy OK

No errors occured

End of status report

Код:

REM GENRE Military Heavy Power Metal
REM DATE 2008
REM DISCID AF0B9F0D
REM COMMENT ExactAudioCopy v0.95b4
PERFORMER "Sabaton"
TITLE "The Art Of War"
FILE "Sabaton - 2008 - The Art Of War.flac" WAVE
  TRACK 01 AUDIO
    TITLE "Sun Tzu Says"
    INDEX 01 00:00:00
  TRACK 02 AUDIO
    TITLE "Ghost Division"
    INDEX 01 00:23:69
  TRACK 03 AUDIO
    TITLE "The Art Of War"
    INDEX 01 04:15:09
  TRACK 04 AUDIO
    TITLE "40:1"
    INDEX 01 09:24:01
  TRACK 05 AUDIO
    TITLE "Unbreakable"
    INDEX 01 13:34:63
  TRACK 06 AUDIO
    TITLE "The Nature Of Warfare"
    INDEX 01 19:32:68
  TRACK 07 AUDIO
    TITLE "Cliffs Of Gallipoli"
    INDEX 01 20:51:56
  TRACK 08 AUDIO
    TITLE "Talvisota"
    INDEX 01 26:43:22
  TRACK 09 AUDIO
    TITLE "Panzerkampf"
    INDEX 01 30:15:48
  TRACK 10 AUDIO
    TITLE "Union (Slopes Of St. Benedict)"
    INDEX 01 35:31:29
  TRACK 11 AUDIO
    TITLE "The Price Of A Mile"
    INDEX 01 39:36:39
  TRACK 12 AUDIO
    TITLE "Firestorm"
    INDEX 01 45:31:74
  TRACK 13 AUDIO
    TITLE "A Secret"
    INDEX 01 48:57:51

Код:

AUDIOCHECKER v2.0 beta (build 457) - by Dester - opdester@freemail.hu
~~~~~~~~~~~~~~~~~~~~~~~~~~~~~~~~~~
-=== НЕ РЕДАКТИРУЙТЕ ЭТОТ ФАЙЛ! ===-

Путь: ...\2008 - The Art Of War

1 -=- Sabaton - 2008 - The Art Of War.flac -=- CDDA (100%)

143986804

Треклист
01. Coat Of Arms (3:37)
02. Midway (2:31)
03. Uprising (4:58)
04. Screaming Eagles (4:10)
05. The Final Solution (4:59)
06. Aces In Exile (4:25)
07. Saboteurs (3:18)
08. Wehrmacht (4:16)
09. White Death (4:12)
10. Metal Ripper (3:55)
11. Coat Of Arms (Instrumental) (3:37)
12. Metal Ripper (Instrumental) (3:47)

Код:

X Lossless Decoder version 20100518 (120.3)

XLD extraction logfile from 2010-05-20 20:48:51 +0200

Sabaton / Coat Of Arms

Used drive : SONY DVD RW DRX-S70U (revision DJ07)

Use cdparanoia mode     : YES (CDParanoia III 10.2 engine)
Disable audio cache     : OK for the drive with cache less than 2750KB
Make use of C2 pointers : NO
Read offset correction  : 6
Max retry count         : 100

TOC of the extracted CD
     Track |   Start  |  Length  | Start sector | End sector
    ---------------------------------------------------------
        1  | 00:00:00 | 03:36:72 |         0    |    16271   
        2  | 03:36:72 | 02:31:05 |     16272    |    27601   
        3  | 06:08:02 | 04:57:48 |     27602    |    49924   
        4  | 11:05:50 | 04:09:39 |     49925    |    68638   
        5  | 15:15:14 | 04:58:58 |     68639    |    91046   
        6  | 20:13:72 | 04:24:53 |     91047    |   110899   
        7  | 24:38:50 | 03:17:68 |    110900    |   125742   
        8  | 27:56:43 | 04:16:29 |    125743    |   144971   
        9  | 32:12:72 | 04:12:18 |    144972    |   163889   
       10  | 36:25:15 | 03:54:60 |    163890    |   181499   
       11  | 40:20:00 | 03:36:63 |    181500    |   197762   
       12  | 43:56:63 | 03:46:48 |    197763    |   214760   

All Tracks
    Album gain             : -10.55 dB
    Peak                   : 0.989014

Track 01
    Filename : /Sabaton - Coat Of Arms [Limited Edition] 2010 (FLAC)/01 Sabaton - Coat Of Arms.flac

    Pre-gap length : 00:02:00

    Track gain             : -10.67 dB
    Peak                   : 0.960815
    CRC32 hash (test run)  : 11EE3A7B
    CRC32 hash             : 11EE3A7B
    CRC32 hash (skip zero) : 234B33AC
    AccurateRip signature  : FA39495C
        ->Track not present in AccurateRip database.
    Statistics
        Read error                           : 0
        Skipped (treated as error)           : 0
        Edge jitter error (maybe fixed)      : 0
        Atom jitter error (maybe fixed)      : 0
        Drift error (maybe fixed)            : 0
        Dropped bytes error (maybe fixed)    : 0
        Duplicated bytes error (maybe fixed) : 0
        Inconsistency in error sectors       : 0

Track 02
    Filename : /Sabaton - Coat Of Arms [Limited Edition] 2010 (FLAC)/02 Sabaton - Midway.flac

    Pre-gap length : 00:02:00

    Track gain             : -11.10 dB
    Peak                   : 0.982513
    CRC32 hash (test run)  : 38037A16
    CRC32 hash             : 38037A16
    CRC32 hash (skip zero) : 2CDDF983
    AccurateRip signature  : F7EAD37E
        ->Track not present in AccurateRip database.
    Statistics
        Read error                           : 0
        Skipped (treated as error)           : 0
        Edge jitter error (maybe fixed)      : 0
        Atom jitter error (maybe fixed)      : 0
        Drift error (maybe fixed)            : 0
        Dropped bytes error (maybe fixed)    : 0
        Duplicated bytes error (maybe fixed) : 0
        Inconsistency in error sectors       : 0

Track 03
    Filename : /Sabaton - Coat Of Arms [Limited Edition] 2010 (FLAC)/03 Sabaton - Uprising.flac

    Pre-gap length : 00:02:00

    Track gain             : -10.48 dB
    Peak                   : 0.986267
    CRC32 hash (test run)  : AB11FCA1
    CRC32 hash             : AB11FCA1
    CRC32 hash (skip zero) : 67B48183
    AccurateRip signature  : 3F719F4C
        ->Track not present in AccurateRip database.
    Statistics
        Read error                           : 0
        Skipped (treated as error)           : 0
        Edge jitter error (maybe fixed)      : 0
        Atom jitter error (maybe fixed)      : 0
        Drift error (maybe fixed)            : 0
        Dropped bytes error (maybe fixed)    : 0
        Duplicated bytes error (maybe fixed) : 0
        Inconsistency in error sectors       : 0

Track 04
    Filename : /Sabaton - Coat Of Arms [Limited Edition] 2010 (FLAC)/04 Sabaton - Screaming Eagles.flac

    Pre-gap length : 00:02:00

    Track gain             : -10.82 dB
    Peak                   : 0.986267
    CRC32 hash (test run)  : D91F0A92
    CRC32 hash             : D91F0A92
    CRC32 hash (skip zero) : B3E2D24E
    AccurateRip signature  : F736CF9D
        ->Track not present in AccurateRip database.
    Statistics
        Read error                           : 0
        Skipped (treated as error)           : 0
        Edge jitter error (maybe fixed)      : 1
        Atom jitter error (maybe fixed)      : 0
        Drift error (maybe fixed)            : 0
        Dropped bytes error (maybe fixed)    : 1
        Duplicated bytes error (maybe fixed) : 1
        Inconsistency in error sectors       : 0

Track 05
    Filename : /Sabaton - Coat Of Arms [Limited Edition] 2010 (FLAC)/05 Sabaton - The Final Solution.flac

    Pre-gap length : 00:02:00

    Track gain             : -10.74 dB
    Peak                   : 0.986267
    CRC32 hash (test run)  : 66183D9F
    CRC32 hash             : 66183D9F
    CRC32 hash (skip zero) : C6EBEB6A
    AccurateRip signature  : 068E8490
        ->Track not present in AccurateRip database.
    Statistics
        Read error                           : 0
        Skipped (treated as error)           : 0
        Edge jitter error (maybe fixed)      : 0
        Atom jitter error (maybe fixed)      : 0
        Drift error (maybe fixed)            : 0
        Dropped bytes error (maybe fixed)    : 0
        Duplicated bytes error (maybe fixed) : 0
        Inconsistency in error sectors       : 0

Track 06
    Filename : /Sabaton - Coat Of Arms [Limited Edition] 2010 (FLAC)/06 Sabaton - Aces In Exile.flac

    Pre-gap length : 00:02:00

    Track gain             : -10.78 dB
    Peak                   : 0.988251
    CRC32 hash (test run)  : DAEB3638
    CRC32 hash             : DAEB3638
    CRC32 hash (skip zero) : 46368BC7
    AccurateRip signature  : 4ACE28F3
        ->Track not present in AccurateRip database.
    Statistics
        Read error                           : 0
        Skipped (treated as error)           : 0
        Edge jitter error (maybe fixed)      : 0
        Atom jitter error (maybe fixed)      : 0
        Drift error (maybe fixed)            : 0
        Dropped bytes error (maybe fixed)    : 0
        Duplicated bytes error (maybe fixed) : 0
        Inconsistency in error sectors       : 0

Track 07
    Filename : /Sabaton - Coat Of Arms [Limited Edition] 2010 (FLAC)/07 Sabaton - Saboteurs.flac

    Pre-gap length : 00:02:00

    Track gain             : -9.40 dB
    Peak                   : 0.989014
    CRC32 hash (test run)  : 8AC133D8
    CRC32 hash             : 8AC133D8
    CRC32 hash (skip zero) : 06DB6485
    AccurateRip signature  : 6724DEB7
        ->Track not present in AccurateRip database.
    Statistics
        Read error                           : 0
        Skipped (treated as error)           : 0
        Edge jitter error (maybe fixed)      : 0
        Atom jitter error (maybe fixed)      : 0
        Drift error (maybe fixed)            : 0
        Dropped bytes error (maybe fixed)    : 0
        Duplicated bytes error (maybe fixed) : 0
        Inconsistency in error sectors       : 0

Track 08
    Filename : /Sabaton - Coat Of Arms [Limited Edition] 2010 (FLAC)/08 Sabaton - Wehrmacht.flac

    Pre-gap length : 00:02:00

    Track gain             : -10.62 dB
    Peak                   : 0.988525
    CRC32 hash (test run)  : 540572FD
    CRC32 hash             : 540572FD
    CRC32 hash (skip zero) : C982A135
    AccurateRip signature  : CE38F5C1
        ->Track not present in AccurateRip database.
    Statistics
        Read error                           : 0
        Skipped (treated as error)           : 0
        Edge jitter error (maybe fixed)      : 0
        Atom jitter error (maybe fixed)      : 0
        Drift error (maybe fixed)            : 0
        Dropped bytes error (maybe fixed)    : 0
        Duplicated bytes error (maybe fixed) : 0
        Inconsistency in error sectors       : 0

Track 09
    Filename : /Sabaton - Coat Of Arms [Limited Edition] 2010 (FLAC)/09 Sabaton - White Death.flac

    Pre-gap length : 00:02:00

    Track gain             : -10.15 dB
    Peak                   : 0.988892
    CRC32 hash (test run)  : 1338BD2C
    CRC32 hash             : 1338BD2C
    CRC32 hash (skip zero) : A6A8989E
    AccurateRip signature  : 574B0310
        ->Track not present in AccurateRip database.
    Statistics
        Read error                           : 0
        Skipped (treated as error)           : 0
        Edge jitter error (maybe fixed)      : 0
        Atom jitter error (maybe fixed)      : 0
        Drift error (maybe fixed)            : 0
        Dropped bytes error (maybe fixed)    : 0
        Duplicated bytes error (maybe fixed) : 0
        Inconsistency in error sectors       : 0

Track 10
    Filename : /Sabaton - Coat Of Arms [Limited Edition] 2010 (FLAC)/10 Sabaton - Metal Ripper.flac

    Pre-gap length : 00:02:00

    Track gain             : -9.43 dB
    Peak                   : 0.988525
    CRC32 hash (test run)  : 26086CC9
    CRC32 hash             : 26086CC9
    CRC32 hash (skip zero) : 0E8EE2B0
    AccurateRip signature  : 2565EBF3
        ->Track not present in AccurateRip database.
    Statistics
        Read error                           : 0
        Skipped (treated as error)           : 0
        Edge jitter error (maybe fixed)      : 0
        Atom jitter error (maybe fixed)      : 0
        Drift error (maybe fixed)            : 0
        Dropped bytes error (maybe fixed)    : 0
        Duplicated bytes error (maybe fixed) : 0
        Inconsistency in error sectors       : 0

Track 11
    Filename : /Sabaton - Coat Of Arms [Limited Edition] 2010 (FLAC)/11 Sabaton - Coat Of Arms (Instrumental).flac

    Pre-gap length : 00:02:00

    Track gain             : -10.23 dB
    Peak                   : 0.988525
    CRC32 hash (test run)  : 6BFCE11D
    CRC32 hash             : 6BFCE11D
    CRC32 hash (skip zero) : 83AF43EF
    AccurateRip signature  : C87FC264
        ->Track not present in AccurateRip database.
    Statistics
        Read error                           : 0
        Skipped (treated as error)           : 0
        Edge jitter error (maybe fixed)      : 0
        Atom jitter error (maybe fixed)      : 0
        Drift error (maybe fixed)            : 0
        Dropped bytes error (maybe fixed)    : 0
        Duplicated bytes error (maybe fixed) : 0
        Inconsistency in error sectors       : 0

Track 12
    Filename : /Sabaton - Coat Of Arms [Limited Edition] 2010 (FLAC)/12 Sabaton - Metal Ripper (Instrumental).flac

    Pre-gap length : 00:02:00

    Track gain             : -8.88 dB
    Peak                   : 0.988525
    CRC32 hash (test run)  : 4F633776
    CRC32 hash             : 4F633776
    CRC32 hash (skip zero) : 00A0370A
    AccurateRip signature  : 50FAEE12
        ->Track not present in AccurateRip database.
    Statistics
        Read error                           : 0
        Skipped (treated as error)           : 0
        Edge jitter error (maybe fixed)      : 0
        Atom jitter error (maybe fixed)      : 0
        Drift error (maybe fixed)            : 0
        Dropped bytes error (maybe fixed)    : 0
        Duplicated bytes error (maybe fixed) : 0
        Inconsistency in error sectors       : 0

No errors occurred

End of status report

Код:

TITLE "Coat Of Arms"
PERFORMER "Sabaton"
REM GENRE "Metal"
REM DATE 2010
REM DISCID A70B2F0C
FILE "01 Sabaton - Coat Of Arms.wav" WAVE
  TRACK 01 AUDIO
    TITLE "Coat Of Arms"
    ISRC 000000000000
    INDEX 01 00:00:00
  TRACK 02 AUDIO
    TITLE "Midway"
    ISRC 000000000000
    INDEX 00 03:34:72
FILE "02 Sabaton - Midway.wav" WAVE
    INDEX 01 00:00:00
  TRACK 03 AUDIO
    TITLE "Uprising"
    ISRC 000000000000
    INDEX 00 02:29:05
FILE "03 Sabaton - Uprising.wav" WAVE
    INDEX 01 00:00:00
  TRACK 04 AUDIO
    TITLE "Screaming Eagles"
    ISRC 000000000000
    INDEX 00 04:55:48
FILE "04 Sabaton - Screaming Eagles.wav" WAVE
    INDEX 01 00:00:00
  TRACK 05 AUDIO
    TITLE "The Final Solution"
    ISRC 000000000000
    INDEX 00 04:07:39
FILE "05 Sabaton - The Final Solution.wav" WAVE
    INDEX 01 00:00:00
  TRACK 06 AUDIO
    TITLE "Aces In Exile"
    ISRC 000000000000
    INDEX 00 04:56:58
FILE "06 Sabaton - Aces In Exile.wav" WAVE
    INDEX 01 00:00:00
  TRACK 07 AUDIO
    TITLE "Saboteurs"
    ISRC MTKDW1212345
    INDEX 00 04:22:53
FILE "07 Sabaton - Saboteurs.wav" WAVE
    INDEX 01 00:00:00
  TRACK 08 AUDIO
    TITLE "Wehrmacht"
    ISRC 000000000000
    INDEX 00 03:15:68
FILE "08 Sabaton - Wehrmacht.wav" WAVE
    INDEX 01 00:00:00
  TRACK 09 AUDIO
    TITLE "White Death"
    ISRC 000000000000
    INDEX 00 04:14:29
FILE "09 Sabaton - White Death.wav" WAVE
    INDEX 01 00:00:00
  TRACK 10 AUDIO
    TITLE "Metal Ripper"
    ISRC 000000000000
    INDEX 00 04:10:18
FILE "10 Sabaton - Metal Ripper.wav" WAVE
    INDEX 01 00:00:00
  TRACK 11 AUDIO
    TITLE "Coat Of Arms (Instrumental)"
    ISRC 000000000000
    INDEX 00 03:52:60
FILE "11 Sabaton - Coat Of Arms (Instrumental).wav" WAVE
    INDEX 01 00:00:00
  TRACK 12 AUDIO
    TITLE "Metal Ripper (Instrumental)"
    ISRC 000000000000
    INDEX 00 03:34:63
FILE "12 Sabaton - Metal Ripper (Instrumental).wav" WAVE
    INDEX 01 00:00:00

Треклист
01. Dominium Maris Baltici (0:29)
02. The Lion From The North (4:43)
03. Gott Mit Uns (3:15)
04. A Lifetime Of War (5:45)
05. 1 6 4 8 (3:55)
06. The Carolean's Prayer (6:14)
07. Carolus Rex (4:54)
08. Killing Ground (4:25)
09. Poltava (4:04)
10. Long Live The King (4:10)
11. Ruina Imperii (3:21)
12. Twilight Of The Thunder God (Bonus Track) (3:59)

Код:

Exact Audio Copy V1.0 beta 3 from 29. August 2011

EAC extraction logfile from 22. May 2012, 12:26

Sabaton / Carolus Rex

Used drive  : Optiarc DVD RW AD-5170A   Adapter: 0  ID: 1

Read mode               : Secure
Utilize accurate stream : Yes
Defeat audio cache      : Yes
Make use of C2 pointers : No

Read offset correction                      : 48
Overread into Lead-In and Lead-Out          : No
Fill up missing offset samples with silence : Yes
Delete leading and trailing silent blocks   : No
Null samples used in CRC calculations       : Yes
Used interface                              : Native Win32 interface for Win NT & 2000
Gap handling                                : Appended to previous track

Used output format              : User Defined Encoder
Selected bitrate                : 320 kBit/s
Quality                         : High
Add ID3 tag                     : No
Command line compressor         : C:\Program Files (x86)\Exact Audio Copy\Flac\flac.exe
Additional command line options : -V -8 -T "artist=%artist%" -T "title=%title%" -T "album=%albumtitle%" -T "date=%year%" -T "tracknumber=%tracknr%" -T "genre=%genre%" %source%

TOC of the extracted CD

     Track |   Start  |  Length  | Start sector | End sector
    ---------------------------------------------------------
        1  |  0:00.00 |  0:29.29 |         0    |     2203   
        2  |  0:29.29 |  4:42.39 |      2204    |    23392   
        3  |  5:11.68 |  3:15.36 |     23393    |    38053   
        4  |  8:27.29 |  5:45.31 |     38054    |    63959   
        5  | 14:12.60 |  3:54.73 |     63960    |    81582   
        6  | 18:07.58 |  6:14.31 |     81583    |   109663   
        7  | 24:22.14 |  4:53.62 |    109664    |   131700   
        8  | 29:16.01 |  4:24.45 |    131701    |   151545   
        9  | 33:40.46 |  4:03.62 |    151546    |   169832   
       10  | 37:44.33 |  4:09.39 |    169833    |   188546   
       11  | 41:53.72 |  3:21.03 |    188547    |   203624   
       12  | 45:15.00 |  3:59.06 |    203625    |   221555   

Track  1

     Filename C:\EACrips\01-Sabaton-Dominium Maris Baltici.wav

     Pre-gap length  0:00:02.00

     Peak level 68.3 %
     Extraction speed 2.0 X
     Track quality 100.0 %
     Test CRC 434CD663
     Copy CRC 434CD663
     Track not present in AccurateRip database
     Copy OK

Track  2

     Filename C:\EACrips\02-Sabaton-The Lion From The North.wav

     Peak level 100.0 %
     Extraction speed 3.9 X
     Track quality 99.9 %
     Test CRC 87BAEAFB
     Copy CRC 87BAEAFB
     Track not present in AccurateRip database
     Copy OK

Track  3

     Filename C:\EACrips\03-Sabaton-Gott Mit Uns.wav

     Peak level 100.0 %
     Extraction speed 4.8 X
     Track quality 100.0 %
     Test CRC B5B5ED4B
     Copy CRC B5B5ED4B
     Track not present in AccurateRip database
     Copy OK

Track  4

     Filename C:\EACrips\04-Sabaton-A Lifetime Of War.wav

     Peak level 100.0 %
     Extraction speed 5.7 X
     Track quality 100.0 %
     Test CRC E9B0C411
     Copy CRC E9B0C411
     Track not present in AccurateRip database
     Copy OK

Track  5

     Filename C:\EACrips\05-Sabaton-1 6 4 8.wav

     Peak level 100.0 %
     Extraction speed 5.8 X
     Track quality 100.0 %
     Test CRC 08F1D3F7
     Copy CRC 08F1D3F7
     Track not present in AccurateRip database
     Copy OK

Track  6

     Filename C:\EACrips\06-Sabaton-The Carolean's Prayer.wav

     Peak level 100.0 %
     Extraction speed 6.6 X
     Track quality 100.0 %
     Test CRC 756D13C0
     Copy CRC 756D13C0
     Track not present in AccurateRip database
     Copy OK

Track  7

     Filename C:\EACrips\07-Sabaton-Carolus Rex.wav

     Peak level 100.0 %
     Extraction speed 5.8 X
     Track quality 99.9 %
     Test CRC 61DF4236
     Copy CRC 61DF4236
     Track not present in AccurateRip database
     Copy OK

Track  8

     Filename C:\EACrips\08-Sabaton-Killing Ground.wav

     Peak level 100.0 %
     Extraction speed 6.0 X
     Track quality 99.9 %
     Test CRC A7EAAADB
     Copy CRC A7EAAADB
     Track not present in AccurateRip database
     Copy OK

Track  9

     Filename C:\EACrips\09-Sabaton-Poltava.wav

     Peak level 100.0 %
     Extraction speed 7.4 X
     Track quality 100.0 %
     Test CRC 095CBE5C
     Copy CRC 095CBE5C
     Track not present in AccurateRip database
     Copy OK

Track 10

     Filename C:\EACrips\10-Sabaton-Long Live The King.wav

     Peak level 100.0 %
     Extraction speed 7.7 X
     Track quality 100.0 %
     Test CRC F5BD9F23
     Copy CRC F5BD9F23
     Track not present in AccurateRip database
     Copy OK

Track 11

     Filename C:\EACrips\11-Sabaton-Ruina Imperii.wav

     Peak level 100.0 %
     Extraction speed 7.6 X
     Track quality 100.0 %
     Test CRC 92E67D49
     Copy CRC 92E67D49
     Track not present in AccurateRip database
     Copy OK

Track 12

     Filename C:\EACrips\12-Sabaton-Twilight Of The Thunder God (Bonus Track).wav

     Peak level 100.0 %
     Extraction speed 8.1 X
     Track quality 100.0 %
     Test CRC E0E2F41D
     Copy CRC E0E2F41D
     Track not present in AccurateRip database
     Copy OK

None of the tracks are present in the AccurateRip database

No errors occurred

End of status report

==== Log checksum 1BBCA83B619D03EA2EBA67E2C65FA93F6AA432D4992617E76E4B76D4F05D9C7D ====

Код:

REM GENRE Metal
REM DATE 2012
REM DISCID 960B8A0C
REM COMMENT "ExactAudioCopy v1.0b3"
FILE "01-Sabaton-Dominium Maris Baltici.wav" WAVE
  TRACK 01 AUDIO
    INDEX 01 00:00:00
FILE "02-Sabaton-The Lion From The North.wav" WAVE
  TRACK 02 AUDIO
    INDEX 01 00:00:00
FILE "03-Sabaton-Gott Mit Uns.wav" WAVE
  TRACK 03 AUDIO
    INDEX 01 00:00:00
FILE "04-Sabaton-A Lifetime Of War.wav" WAVE
  TRACK 04 AUDIO
    INDEX 01 00:00:00
FILE "05-Sabaton-1 6 4 8.wav" WAVE
  TRACK 05 AUDIO
    INDEX 01 00:00:00
FILE "06-Sabaton-The Carolean's Prayer.wav" WAVE
  TRACK 06 AUDIO
    INDEX 01 00:00:00
FILE "07-Sabaton-Carolus Rex.wav" WAVE
  TRACK 07 AUDIO
    INDEX 01 00:00:00
FILE "08-Sabaton-Killing Ground.wav" WAVE
  TRACK 08 AUDIO
    INDEX 01 00:00:00
FILE "09-Sabaton-Poltava.wav" WAVE
  TRACK 09 AUDIO
    INDEX 01 00:00:00
FILE "10-Sabaton-Long Live The King.wav" WAVE
  TRACK 10 AUDIO
    INDEX 01 00:00:00
FILE "11-Sabaton-Ruina Imperii.wav" WAVE
  TRACK 11 AUDIO
    INDEX 01 00:00:00
FILE "12-Sabaton-Twilight Of The Thunder God (Bonus Track).wav" WAVE
  TRACK 12 AUDIO
    INDEX 01 00:00:00
Треклист
01. Dominium Maris Baltici (0:29)
02. Lejonet Från Norden (4:42)
03. Gott Mit Uns (3:16)
04. En Livstid I Krig (5:44)
05. 1 6 4 8 (3:56)
06. Karolinens Bön (6:14)
07. Carolus Rex (4:54)
08. Ett Slag Färgat Rött (4:24)
09. Poltava (4:03)
10. Konungens Likfärd (4:10)
11. Ruina Imperii (3:21)

Код:

Exact Audio Copy V1.0 beta 3 from 29. August 2011

EAC extraction logfile from 22. May 2012, 12:56

Sabaton / Carolus Rex

Used drive  : Optiarc DVD RW AD-5170A   Adapter: 0  ID: 1

Read mode               : Secure
Utilize accurate stream : Yes
Defeat audio cache      : Yes
Make use of C2 pointers : No

Read offset correction                      : 48
Overread into Lead-In and Lead-Out          : No
Fill up missing offset samples with silence : Yes
Delete leading and trailing silent blocks   : No
Null samples used in CRC calculations       : Yes
Used interface                              : Native Win32 interface for Win NT & 2000
Gap handling                                : Appended to previous track

Used output format              : User Defined Encoder
Selected bitrate                : 320 kBit/s
Quality                         : High
Add ID3 tag                     : No
Command line compressor         : C:\Program Files (x86)\Exact Audio Copy\Flac\flac.exe
Additional command line options : -V -8 -T "artist=%artist%" -T "title=%title%" -T "album=%albumtitle%" -T "date=%year%" -T "tracknumber=%tracknr%" -T "genre=%genre%" %source%

TOC of the extracted CD

     Track |   Start  |  Length  | Start sector | End sector
    ---------------------------------------------------------
        1  |  0:00.00 |  0:29.30 |         0    |     2204   
        2  |  0:29.30 |  4:42.36 |      2205    |    23390   
        3  |  5:11.66 |  3:15.48 |     23391    |    38063   
        4  |  8:27.39 |  5:44.31 |     38064    |    63894   
        5  | 14:11.70 |  3:55.74 |     63895    |    81593   
        6  | 18:07.69 |  6:14.05 |     81594    |   109648   
        7  | 24:21.74 |  4:54.23 |    109649    |   131721   
        8  | 29:16.22 |  4:24.37 |    131722    |   151558   
        9  | 33:40.59 |  4:03.22 |    151559    |   169805   
       10  | 37:44.06 |  4:09.58 |    169806    |   188538   
       11  | 41:53.64 |  3:21.10 |    188539    |   203623   

Track  1

     Filename C:\EACrips\01-Sabaton-Dominium Maris Baltici.wav

     Pre-gap length  0:00:02.00

     Peak level 68.3 %
     Extraction speed 1.3 X
     Track quality 100.0 %
     Test CRC 0199288D
     Copy CRC 0199288D
     Track not present in AccurateRip database
     Copy OK

Track  2

     Filename C:\EACrips\02-Sabaton-Lejonet Från Norden.wav

     Peak level 100.0 %
     Extraction speed 3.1 X
     Track quality 100.0 %
     Test CRC F965FF79
     Copy CRC F965FF79
     Track not present in AccurateRip database
     Copy OK

Track  3

     Filename C:\EACrips\03-Sabaton-Gott Mit Uns.wav

     Peak level 100.0 %
     Extraction speed 3.2 X
     Track quality 100.0 %
     Test CRC 89617378
     Copy CRC 89617378
     Track not present in AccurateRip database
     Copy OK

Track  4

     Filename C:\EACrips\04-Sabaton-En Livstid I Krig.wav

     Peak level 100.0 %
     Extraction speed 3.8 X
     Track quality 100.0 %
     Test CRC C268CAC9
     Copy CRC C268CAC9
     Track not present in AccurateRip database
     Copy OK

Track  5

     Filename C:\EACrips\05-Sabaton-1 6 4 8.wav

     Peak level 100.0 %
     Extraction speed 3.9 X
     Track quality 100.0 %
     Test CRC 812E3868
     Copy CRC 812E3868
     Track not present in AccurateRip database
     Copy OK

Track  6

     Filename C:\EACrips\06-Sabaton-Karolinens Bön.wav

     Peak level 100.0 %
     Extraction speed 4.5 X
     Track quality 100.0 %
     Test CRC F68D1F59
     Copy CRC F68D1F59
     Track not present in AccurateRip database
     Copy OK

Track  7

     Filename C:\EACrips\07-Sabaton-Carolus Rex.wav

     Peak level 100.0 %
     Extraction speed 4.7 X
     Track quality 100.0 %
     Test CRC 87063704
     Copy CRC 87063704
     Track not present in AccurateRip database
     Copy OK

Track  8

     Filename C:\EACrips\08-Sabaton-Ett Slag Färgat Rött.wav

     Peak level 100.0 %
     Extraction speed 4.9 X
     Track quality 100.0 %
     Test CRC 122BE4D4
     Copy CRC 122BE4D4
     Track not present in AccurateRip database
     Copy OK

Track  9

     Filename C:\EACrips\09-Sabaton-Poltava.wav

     Peak level 100.0 %
     Extraction speed 5.0 X
     Track quality 100.0 %
     Test CRC 0C36EFDA
     Copy CRC 0C36EFDA
     Track not present in AccurateRip database
     Copy OK

Track 10

     Filename C:\EACrips\10-Sabaton-Konungens Likfärd.wav

     Peak level 100.0 %
     Extraction speed 5.2 X
     Track quality 100.0 %
     Test CRC 60BF0142
     Copy CRC 60BF0142
     Track not present in AccurateRip database
     Copy OK

Track 11

     Filename C:\EACrips\11-Sabaton-Ruina Imperii.wav

     Peak level 100.0 %
     Extraction speed 5.2 X
     Track quality 100.0 %
     Test CRC A30C0016
     Copy CRC A30C0016
     Track not present in AccurateRip database
     Copy OK

None of the tracks are present in the AccurateRip database

No errors occurred

End of status report

==== Log checksum DD1BCFBAA2B55C919442120854CCFEB4DE97773D5CDE9CC8AD26CE57D6DD7B71 ====

Код:

REM GENRE Metal
REM DATE 2012
REM DISCID 830A9A0B
REM COMMENT "ExactAudioCopy v1.0b3"
FILE "01-Sabaton-Dominium Maris Baltici.wav" WAVE
  TRACK 01 AUDIO
    INDEX 01 00:00:00
FILE "02-Sabaton-Lejonet Frеn Norden.wav" WAVE
  TRACK 02 AUDIO
    INDEX 01 00:00:00
FILE "03-Sabaton-Gott Mit Uns.wav" WAVE
  TRACK 03 AUDIO
    INDEX 01 00:00:00
FILE "04-Sabaton-En Livstid I Krig.wav" WAVE
  TRACK 04 AUDIO
    INDEX 01 00:00:00
FILE "05-Sabaton-1 6 4 8.wav" WAVE
  TRACK 05 AUDIO
    INDEX 01 00:00:00
FILE "06-Sabaton-Karolinens Bцn.wav" WAVE
  TRACK 06 AUDIO
    INDEX 01 00:00:00
FILE "07-Sabaton-Carolus Rex.wav" WAVE
  TRACK 07 AUDIO
    INDEX 01 00:00:00
FILE "08-Sabaton-Ett Slag Fдrgat Rцtt.wav" WAVE
  TRACK 08 AUDIO
    INDEX 01 00:00:00
FILE "09-Sabaton-Poltava.wav" WAVE
  TRACK 09 AUDIO
    INDEX 01 00:00:00
FILE "10-Sabaton-Konungens Likfдrd.wav" WAVE
  TRACK 10 AUDIO
    INDEX 01 00:00:00
FILE "11-Sabaton-Ruina Imperii.wav" WAVE
  TRACK 11 AUDIO
    INDEX 01 00:00:00

Если раздача нравится - не забудь сказать спасибо!
info [Профиль]  [ЛС] 

post 29-Май-2012 20:17 (спустя 14 дней) [-]0[+]

Топик был перенесен из форума Оформление раздач в форум Mеtаl (losslеss)

VlaDai
 

VlaDai

Пол: Пол:Муж

Стаж: 5 лет 5 месяцев

Сообщений: 1051

Россия
Рейтинг

post 29-Май-2012 22:28 (спустя 14 дней) [-]0[+]

[Цитировать] 

Последний альбом представлен в 2 версиях - шведской и английской.

_________________
Слушаю митол и читаю мангу - айко наркоман.
info [Профиль]  [ЛС] 

NOFX

Пол: Пол:Муж

Стаж: 7 лет 3 месяца

Сообщений: 189

Россия
Рейтинг

post 02-Дек-2012 12:23 (спустя 6 месяцев 3 дня) [-]0[+]

[Цитировать] 

Шакарненько!!!
Спасибо,забираю!!!
info [Профиль]  [ЛС] 

alphawerewolf

Пол: Пол:Муж

Стаж: 5 лет

Сообщений: 116

Россия
Рейтинг

post 13-Апр-2013 00:38 (спустя 4 месяца 10 дней) [-]0[+]

[Цитировать] 

Отлично, спасибо Улыбаюсь

_________________
info [Профиль]  [ЛС] 

Пашокс

Пол: Пол:Муж

Стаж: 7 лет 5 месяцев

Сообщений: 85

Германия
Рейтинг

post 18-Сен-2014 11:38 (спустя 1 год 5 месяцев) [-]0[+]

[Цитировать] 

Обновлять будете?

_________________
ASRock Z87 Extreme6, Intel Core i7-4770(3,4 GHz), Gigabyte GTX 760 (2 GB), Kingston HyperX Beast(2400 MHz, 2x8 GB)
info [Профиль]  [ЛС] 

AlexKentXIII

Стаж: 2 года

Сообщений: 1

Рейтинг

post 20-Ноя-2014 00:31 (спустя 2 месяца 1 день) [-]0[+]

[Цитировать] 

Господа, дайте скорости пожалуйста, если вдруг тут кто-то еще сидит.

добавлено спустя 56 секунд:

AlexKentXIII писал(а):

Господа, дайте скорости пожалуйста, если вдруг тут кто-то еще сидит.
Вы про альбом Heroes? Если да, то его в свободном доступе нет, и его везде ищут и удаляют, насколько мне известно.
info [Профиль]  [ЛС] 
Показать сообщения:    
Ответить на тему

Текущее время: 05-Дек 14:34

Часовой пояс: GMT + 4



Вы не можете начинать темы
Вы не можете отвечать на сообщения
Вы не можете редактировать свои сообщения
Вы не можете удалять свои сообщения
Вы не можете голосовать в опросах
Вы не можете прикреплять файлы к сообщениям
Вы не можете скачивать файлы