Ошибка

(Gothic Metal, Symphonic Metal) Xandria - Дискография - 2003 - 2012, FLAC/APE, (image+.cue)+covers, lossless

Ответить на тему
 
Автор Сообщение

VlaDai

Пол: Пол:Муж

Стаж: 5 лет 5 месяцев

Сообщений: 1051

Россия
Рейтинг

post 06-Апр-2012 22:58 2[+]

[Цитировать] 

pic="http://s002.youpic.su/pictures/1333742400/c37e306c6550cf18da1427ab2f1f98e5.png"
Жанр:Gothic Metal, Symphonic Metal ||Происхождение исполнителя:Germany || Год издания данного носителя: 2003 - 2012 ||Страна-производитель носителя: Germany ||Тип релиза: image+.cue|| Аудио кодек: FLAC/APE || Битрейт аудио: lossless || Полиграфия: Присутствует || Продолжительность: 06:00:54
Треклист
01. Kill The Sun (3:23)
02. Mermaids (3:44)
03. Ginger (4:56)
04. She's Nirvana (3:22)
05. Forever Yours (5:09)
06. Casablanca (4:05)
07. So You Disappear (4:42)
08. Wisdom (3:10)
09. Isis / Osiris (3:31)
10. Calyx Virago (3:37)

Код:

Exact Audio Copy V0.99 prebeta 5 from 4. May 2009

Отчёт EAC об извлечении, выполненном 18. сентября 2011, 20:15

Xandria / Kill The Sun

Дисковод: _NEC    DVD_RW ND-4550A   Adapter: 4  ID: 0

Режим чтения                 : Достоверность
Использование точного потока : Да
Отключение кэша аудио        : Да
Использование указателей C2  : Нет

Коррекция смещения при чтении                     : 48
Способность читать области Lead-in и Lead-out     : Нет
Заполнение пропущенных сэмплов тишиной            : Да
Удаление блоков с тишиной в начале и конце        : Нет
При вычислениях CRC использовались нулевые сэмплы : Да
Интерфейс                                         : Установленный внешний ASPI-интерфейс

Выходной формат : Внутренние WAV-операции
Формат сэмплов  : 44.100 Гц; 16 бит; стерео

TOC извлечённого CD

     Трек |   Старт  | Длительность | Начальный сектор | Конечный сектор
    ---------------------------------------------------------------------
       1  |  0:00.00 |    3:23.16   |           0      |      15240     
       2  |  3:23.16 |    3:44.24   |       15241      |      32064     
       3  |  7:07.40 |    4:56.17   |       32065      |      54281     
       4  | 12:03.57 |    3:22.15   |       54282      |      69446     
       5  | 15:25.72 |    5:08.41   |       69447      |      92587     
       6  | 20:34.38 |    4:04.57   |       92588      |     110944     
       7  | 24:39.20 |    4:41.66   |      110945      |     132085     
       8  | 29:21.11 |    3:10.27   |      132086      |     146362     
       9  | 32:31.38 |    3:31.23   |      146363      |     162210     
      10  | 36:02.61 |    3:36.61   |      162211      |     178471     

Характеристики диапазона извлечения и сообщения об ошибках

Выбранный диапазон

     Имя файла C:\Temp\Xandria - Kill The Sun.wav

     Пиковый уровень 98.9 %
     Качество диапазона 100.0 %
     CRC теста 8A350C44
     CRC копии 8A350C44
     Копирование... OK

Ошибок не произошло

Конец отчёта

Код:

REM GENRE Gothic
REM DATE 2003
REM DISCID 82094B0A
REM COMMENT "ExactAudioCopy v0.99pb5"
PERFORMER "Xandria"
TITLE "Kill The Sun"
FILE "Xandria - Kill The Sun.flac" WAVE
  TRACK 01 AUDIO
    TITLE "Kill The Sun"
    PERFORMER "Xandria"
    INDEX 01 00:00:00
  TRACK 02 AUDIO
    TITLE "Mermaids"
    PERFORMER "Xandria"
    INDEX 01 03:23:16
  TRACK 03 AUDIO
    TITLE "Ginger"
    PERFORMER "Xandria"
    INDEX 01 07:07:40
  TRACK 04 AUDIO
    TITLE "She's Nirvana"
    PERFORMER "Xandria"
    INDEX 01 12:03:57
  TRACK 05 AUDIO
    TITLE "Forever Yours"
    PERFORMER "Xandria"
    INDEX 01 15:25:72
  TRACK 06 AUDIO
    TITLE "Casablanca"
    PERFORMER "Xandria"
    INDEX 01 20:34:38
  TRACK 07 AUDIO
    TITLE "So You Disappear"
    PERFORMER "Xandria"
    INDEX 01 24:39:20
  TRACK 08 AUDIO
    TITLE "Wisdom"
    PERFORMER "Xandria"
    INDEX 01 29:21:11
  TRACK 09 AUDIO
    TITLE "Isis / Osiris"
    PERFORMER "Xandria"
    INDEX 01 32:31:38
  TRACK 10 AUDIO
    TITLE "Calyx Virago"
    PERFORMER "Xandria"
    INDEX 01 36:02:61
Треклист
01. Ravenheart (3:45)
02. The Lioness (4:49)
03. Back To The River (3:36)
04. Eversleeping (3:40)
05. Fire Of Universe (3:34)
06. Some Like It Cold (3:56)
07. Answer (4:46)
08. My Scarlet Name (5:22)
09. Snow-White (4:08)
10. Black Flame (3:30)
11. Too Close To Breathe (4:39)
12. Keep My Secret Well (4:15)

Код:

Exact Audio Copy V0.99 prebeta 5 from 4. May 2009

Отчёт EAC об извлечении, выполненном 19. сентября 2011, 20:22

Xandria / Ravenheart

Дисковод: _NEC    DVD_RW ND-4550A   Adapter: 4  ID: 0

Режим чтения                 : Достоверность
Использование точного потока : Да
Отключение кэша аудио        : Да
Использование указателей C2  : Нет

Коррекция смещения при чтении                     : 48
Способность читать области Lead-in и Lead-out     : Нет
Заполнение пропущенных сэмплов тишиной            : Да
Удаление блоков с тишиной в начале и конце        : Нет
При вычислениях CRC использовались нулевые сэмплы : Да
Интерфейс                                         : Установленный внешний ASPI-интерфейс

Выходной формат : Внутренние WAV-операции
Формат сэмплов  : 44.100 Гц; 16 бит; стерео

TOC извлечённого CD

     Трек |   Старт  | Длительность | Начальный сектор | Конечный сектор
    ---------------------------------------------------------------------
       1  |  0:00.00 |    3:44.72   |           0      |      16871     
       2  |  3:44.72 |    4:49.18   |       16872      |      38564     
       3  |  8:34.15 |    3:35.54   |       38565      |      54743     
       4  | 12:09.69 |    3:40.02   |       54744      |      71245     
       5  | 15:49.71 |    3:33.55   |       71246      |      87275     
       6  | 19:23.51 |    3:56.35   |       87276      |     105010     
       7  | 23:20.11 |    4:45.46   |      105011      |     126431     
       8  | 28:05.57 |    5:22.24   |      126432      |     150605     
       9  | 33:28.06 |    4:07.40   |      150606      |     169170     
      10  | 37:35.46 |    3:29.61   |      169171      |     184906     
      11  | 41:05.32 |    4:38.59   |      184907      |     205815     
      12  | 45:44.16 |    4:15.00   |      205816      |     224940     

Характеристики диапазона извлечения и сообщения об ошибках

Выбранный диапазон

     Имя файла C:\Temp\Xandria - Ravenheart.wav

     Пиковый уровень 97.8 %
     Качество диапазона 99.9 %
     CRC теста 13A4068E
     CRC копии 13A4068E
     Копирование... OK

Ошибок не произошло

Конец отчёта

Код:

REM GENRE Gothic
REM DATE 2004
REM DISCID 950BB70C
REM COMMENT "ExactAudioCopy v0.99pb5"
PERFORMER "Xandria"
TITLE "Ravenheart"
FILE "Xandria - Ravenheart.flac" WAVE
  TRACK 01 AUDIO
    TITLE "Ravenheart"
    PERFORMER "Xandria"
    INDEX 01 00:00:00
  TRACK 02 AUDIO
    TITLE "The Lioness"
    PERFORMER "Xandria"
    INDEX 01 03:44:72
  TRACK 03 AUDIO
    TITLE "Back To The River"
    PERFORMER "Xandria"
    INDEX 01 08:34:15
  TRACK 04 AUDIO
    TITLE "Eversleeping"
    PERFORMER "Xandria"
    INDEX 01 12:09:69
  TRACK 05 AUDIO
    TITLE "Fire Of Universe"
    PERFORMER "Xandria"
    INDEX 01 15:49:71
  TRACK 06 AUDIO
    TITLE "Some Like It Cold"
    PERFORMER "Xandria"
    INDEX 01 19:23:51
  TRACK 07 AUDIO
    TITLE "Answer"
    PERFORMER "Xandria"
    INDEX 01 23:20:11
  TRACK 08 AUDIO
    TITLE "My Scarlet Name"
    PERFORMER "Xandria"
    INDEX 01 28:05:57
  TRACK 09 AUDIO
    TITLE "Snow-White"
    PERFORMER "Xandria"
    INDEX 01 33:28:06
  TRACK 10 AUDIO
    TITLE "Black Flame"
    PERFORMER "Xandria"
    INDEX 01 37:35:46
  TRACK 11 AUDIO
    TITLE "Too Close To Breathe"
    PERFORMER "Xandria"
    INDEX 01 41:05:32
  TRACK 12 AUDIO
    TITLE "Keep My Secret Well"
    PERFORMER "Xandria"
    INDEX 01 45:44:16
Треклист
01. India (5:17)
02. Now & Forever (3:21)
03. In Love With The Darkness (3:49)
04. Fight Me (3:37)
05. Black and Silver (3:57)
06. Like A Rose On The Grave Of Love (4:25)
07. Widescreen (4:15)
08. The End Of Every Story (4:54)
09. Who We Are (and Who We Want To Be) (4:18)
10. Dancer (3:50)
11. Winterhearted (4:18)
12. Return To India (6:00)

Код:

Exact Audio Copy V0.99 prebeta 5 from 4. May 2009

Отчёт EAC об извлечении, выполненном 20. сентября 2011, 18:14

Xandria / India

Дисковод: _NEC    DVD_RW ND-4550A   Adapter: 4  ID: 0

Режим чтения                 : Достоверность
Использование точного потока : Да
Отключение кэша аудио        : Да
Использование указателей C2  : Нет

Коррекция смещения при чтении                     : 48
Способность читать области Lead-in и Lead-out     : Нет
Заполнение пропущенных сэмплов тишиной            : Да
Удаление блоков с тишиной в начале и конце        : Нет
При вычислениях CRC использовались нулевые сэмплы : Да
Интерфейс                                         : Установленный внешний ASPI-интерфейс

Выходной формат : Внутренние WAV-операции
Формат сэмплов  : 44.100 Гц; 16 бит; стерео

TOC извлечённого CD

     Трек |   Старт  | Длительность | Начальный сектор | Конечный сектор
    ---------------------------------------------------------------------
       1  |  0:00.00 |    5:17.18   |           0      |      23792     
       2  |  5:17.18 |    3:20.70   |       23793      |      38862     
       3  |  8:38.13 |    3:49.16   |       38863      |      56053     
       4  | 12:27.29 |    3:37.23   |       56054      |      72351     
       5  | 16:04.52 |    3:56.60   |       72352      |      90111     
       6  | 20:01.37 |    4:25.21   |       90112      |     110007     
       7  | 24:26.58 |    4:15.20   |      110008      |     129152     
       8  | 28:42.03 |    4:54.19   |      129153      |     151221     
       9  | 33:36.22 |    4:17.70   |      151222      |     170566     
      10  | 37:54.17 |    3:50.36   |      170567      |     187852     
      11  | 41:44.53 |    4:18.07   |      187853      |     207209     
      12  | 46:02.60 |    6:00.15   |      207210      |     234224     

Характеристики диапазона извлечения и сообщения об ошибках

Выбранный диапазон

     Имя файла C:\Temp\Xandria - India.wav

     Пиковый уровень 99.0 %
     Качество диапазона 100.0 %
     CRC теста 613C40C6
     CRC копии 613C40C6
     Копирование... OK

Ошибок не произошло

Конец отчёта

Код:

REM GENRE Gothic
REM DATE 2005
REM DISCID A20C330C
REM COMMENT "ExactAudioCopy v0.99pb5"
PERFORMER "Xandria"
TITLE "India"
FILE "Xandria - India.flac" WAVE
  TRACK 01 AUDIO
    TITLE "India"
    PERFORMER "Xandria"
    INDEX 01 00:00:00
  TRACK 02 AUDIO
    TITLE "Now & Forever"
    PERFORMER "Xandria"
    INDEX 01 05:17:18
  TRACK 03 AUDIO
    TITLE "In Love With The Darkness"
    PERFORMER "Xandria"
    INDEX 01 08:38:13
  TRACK 04 AUDIO
    TITLE "Fight Me"
    PERFORMER "Xandria"
    INDEX 01 12:27:29
  TRACK 05 AUDIO
    TITLE "Black and Silver"
    PERFORMER "Xandria"
    INDEX 01 16:04:52
  TRACK 06 AUDIO
    TITLE "Like A Rose On The Grave Of Love"
    PERFORMER "Xandria"
    INDEX 01 20:01:37
  TRACK 07 AUDIO
    TITLE "Widescreen"
    PERFORMER "Xandria"
    INDEX 01 24:26:58
  TRACK 08 AUDIO
    TITLE "The End Of Every Story"
    PERFORMER "Xandria"
    INDEX 01 28:42:03
  TRACK 09 AUDIO
    TITLE "Who We Are (and Who We Want To Be)"
    PERFORMER "Xandria"
    INDEX 01 33:36:22
  TRACK 10 AUDIO
    TITLE "Dancer"
    PERFORMER "Xandria"
    INDEX 01 37:54:17
  TRACK 11 AUDIO
    TITLE "Winterhearted"
    PERFORMER "Xandria"
    INDEX 01 41:44:53
  TRACK 12 AUDIO
    TITLE "Return To India"
    PERFORMER "Xandria"
    INDEX 01 46:02:60
Треклист
01. Save My Life (3:57)
02. Vampire (4:31)
03. Beware (3:21)
04. Emotional Man (4:03)
05. Salome (6:11)
06. Only For The Stars In Your Eyes (3:17)
07. Firestorm (4:50)
08. A New Age (3:38)
09. The Wind and The Ocean (3:25)
10. Sisters Of The Light (3:37)
11. Sleeping Dogs Lie (4:12)
12. On My Way (3:51)
13. Sisters Of The Light (Xandria On Extasy version) (5:07)

Код:

Exact Audio Copy V0.99 prebeta 5 from 4. May 2009

Отчёт EAC об извлечении, выполненном 20. сентября 2011, 18:56

Xandria / Salome: The Seventh Veil

Дисковод: _NEC    DVD_RW ND-4550A   Adapter: 4  ID: 0

Режим чтения                 : Достоверность
Использование точного потока : Да
Отключение кэша аудио        : Да
Использование указателей C2  : Нет

Коррекция смещения при чтении                     : 48
Способность читать области Lead-in и Lead-out     : Нет
Заполнение пропущенных сэмплов тишиной            : Да
Удаление блоков с тишиной в начале и конце        : Нет
При вычислениях CRC использовались нулевые сэмплы : Да
Интерфейс                                         : Установленный внешний ASPI-интерфейс

Выходной формат : Внутренние WAV-операции
Формат сэмплов  : 44.100 Гц; 16 бит; стерео

TOC извлечённого CD

     Трек |   Старт  | Длительность | Начальный сектор | Конечный сектор
    ---------------------------------------------------------------------
       1  |  0:00.00 |    3:56.50   |           0      |      17749     
       2  |  3:56.50 |    4:31.24   |       17750      |      38098     
       3  |  8:27.74 |    3:21.15   |       38099      |      53188     
       4  | 11:49.14 |    4:03.12   |       53189      |      71425     
       5  | 15:52.26 |    6:11.05   |       71426      |      99255     
       6  | 22:03.31 |    3:17.15   |       99256      |     114045     
       7  | 25:20.46 |    4:50.17   |      114046      |     135812     
       8  | 30:10.63 |    3:37.66   |      135813      |     152153     
       9  | 33:48.54 |    3:24.69   |      152154      |     167522     
      10  | 37:13.48 |    3:37.04   |      167523      |     183801     
      11  | 40:50.52 |    4:11.66   |      183802      |     202692     
      12  | 45:02.43 |    3:51.16   |      202693      |     220033     
      13  | 48:53.59 |    5:07.11   |      220034      |     243069     

Характеристики диапазона извлечения и сообщения об ошибках

Выбранный диапазон

     Имя файла C:\Temp\Xandria - Salome  The Seventh Veil.wav

     Пиковый уровень 99.6 %
     Качество диапазона 100.0 %
     CRC теста 0864CA65
     CRC копии 0864CA65
     Копирование... OK

Ошибок не произошло
Конец отчёта

Код:

REM GENRE Gothic
REM DATE 2007
REM DISCID 970CA80D
REM COMMENT "ExactAudioCopy v0.99pb5"
PERFORMER "Xandria"
TITLE "Salome: The Seventh Veil"
FILE "Xandria - Salome  The Seventh Veil.flac" WAVE
  TRACK 01 AUDIO
    TITLE "Save My Life"
    PERFORMER "Xandria"
    INDEX 01 00:00:00
  TRACK 02 AUDIO
    TITLE "Vampire"
    PERFORMER "Xandria"
    INDEX 01 03:56:50
  TRACK 03 AUDIO
    TITLE "Beware"
    PERFORMER "Xandria"
    INDEX 01 08:27:74
  TRACK 04 AUDIO
    TITLE "Emotional Man"
    PERFORMER "Xandria"
    INDEX 01 11:49:14
  TRACK 05 AUDIO
    TITLE "Salome"
    PERFORMER "Xandria"
    INDEX 01 15:52:26
  TRACK 06 AUDIO
    TITLE "Only For The Stars In Your Eyes"
    PERFORMER "Xandria"
    INDEX 01 22:03:31
  TRACK 07 AUDIO
    TITLE "Firestorm"
    PERFORMER "Xandria"
    INDEX 01 25:20:46
  TRACK 08 AUDIO
    TITLE "A New Age"
    PERFORMER "Xandria"
    INDEX 01 30:10:63
  TRACK 09 AUDIO
    TITLE "The Wind and The Ocean"
    PERFORMER "Xandria"
    INDEX 01 33:48:54
  TRACK 10 AUDIO
    TITLE "Sisters Of The Light"
    PERFORMER "Xandria"
    INDEX 01 37:13:48
  TRACK 11 AUDIO
    TITLE "Sleeping Dogs Lie"
    PERFORMER "Xandria"
    INDEX 01 40:50:52
  TRACK 12 AUDIO
    TITLE "On My Way"
    PERFORMER "Xandria"
    INDEX 01 45:02:43
  TRACK 13 AUDIO
    TITLE "Sisters Of The Light (Xandria On Extasy version)"
    PERFORMER "Xandria"
    INDEX 01 48:53:59
Треклист
01. A Prophecy of Worlds to Fall (7:24)
02. Valentine (4:12)
03. Forevermore (4:59)
04. Euphoria (4:30)
05. Blood on My Hands (4:17)
06. Soulcrusher (6:12)
07. The Dream Is Still Alive (4:24)
08. The Lost Elysion (5:27)
09. Call of the Wind (4:52)
10. A Thousand Letters (4:19)
11. Cursed (4:11)
12. The Nomad's Crown (9:02)
13. When the Mirror Cracks (Bonus Track) (4:09)

Код:

Exact Audio Copy V0.99 prebeta 5 from 4. May 2009

EAC extraction logfile from 25. February 2012, 11:57

Xandria / Neverworld's End

Used drive  : ATAPI   iHAS624   B   Adapter: 2  ID: 0

Read mode               : Secure
Utilize accurate stream : Yes
Defeat audio cache      : Yes
Make use of C2 pointers : No

Read offset correction                      : 6
Overread into Lead-In and Lead-Out          : No
Fill up missing offset samples with silence : Yes
Delete leading and trailing silent blocks   : No
Null samples used in CRC calculations       : Yes
Used interface                              : Installed external ASPI interface

Used output format              : User Defined Encoder
Selected bitrate                : 40 kBit/s
Quality                         : High
Add ID3 tag                     : No
Command line compressor         : C:\Program Files\Exact Audio Copy\Flac\flac.exe
Additional command line options : -6 -V %s

TOC of the extracted CD

     Track |   Start  |  Length  | Start sector | End sector
    ---------------------------------------------------------
        1  |  0:00.00 |  7:23.42 |         0    |    33266   
        2  |  7:23.42 |  4:11.49 |     33267    |    52140   
        3  | 11:35.16 |  4:59.07 |     52141    |    74572   
        4  | 16:34.23 |  4:30.19 |     74573    |    94841   
        5  | 21:04.42 |  4:17.17 |     94842    |   114133   
        6  | 25:21.59 |  6:11.40 |    114134    |   141998   
        7  | 31:33.24 |  4:23.43 |    141999    |   161766   
        8  | 35:56.67 |  5:26.39 |    161767    |   186255   
        9  | 41:23.31 |  4:52.22 |    186256    |   208177   
       10  | 46:15.53 |  4:18.48 |    208178    |   227575   
       11  | 50:34.26 |  4:10.52 |    227576    |   246377   
       12  | 54:45.03 |  9:02.17 |    246378    |   287044   
       13  | 63:47.20 |  4:08.55 |    287045    |   305699   

Range status and errors

Selected range

     Filename D:\Download\Xandria - Neverworld's End.wav

     Peak level 99.1 %
     Range quality 100.0 %
     Copy CRC F747221B
     Copy OK

No errors occurred

 
AccurateRip summary
 
Track  1  not present in database
Track  2  not present in database
Track  3  not present in database
Track  4  not present in database
Track  5  not present in database
Track  6  not present in database
Track  7  not present in database
Track  8  not present in database
Track  9  not present in database
Track 10  not present in database
Track 11  not present in database
Track 12  not present in database
Track 13  not present in database
 
None of the tracks are present in the AccurateRip database

End of status report

Код:

REM GENRE "Gothic Metal"
REM DATE 2012
REM DISCID DE0FEC0D
REM COMMENT "ExactAudioCopy v0.99pb5"
PERFORMER "Xandria"
TITLE "Neverworld's End"
FILE "Xandria - Neverworld's End.flac" WAVE
  TRACK 01 AUDIO
    TITLE "A Prophecy of Worlds to Fall"
    PERFORMER "Xandria"
    INDEX 01 00:00:00
  TRACK 02 AUDIO
    TITLE "Valentine"
    PERFORMER "Xandria"
    INDEX 01 07:23:42
  TRACK 03 AUDIO
    TITLE "Forevermore"
    PERFORMER "Xandria"
    INDEX 01 11:35:16
  TRACK 04 AUDIO
    TITLE "Euphoria"
    PERFORMER "Xandria"
    INDEX 01 16:34:23
  TRACK 05 AUDIO
    TITLE "Blood on My Hands"
    PERFORMER "Xandria"
    INDEX 01 21:04:42
  TRACK 06 AUDIO
    TITLE "Soulcrusher"
    PERFORMER "Xandria"
    INDEX 01 25:21:59
  TRACK 07 AUDIO
    TITLE "The Dream Is Still Alive"
    PERFORMER "Xandria"
    INDEX 01 31:33:24
  TRACK 08 AUDIO
    TITLE "The Lost Elysion"
    PERFORMER "Xandria"
    INDEX 01 35:56:67
  TRACK 09 AUDIO
    TITLE "Call of the Wind"
    PERFORMER "Xandria"
    INDEX 01 41:23:31
  TRACK 10 AUDIO[spoiler]
    TITLE "A Thousand Letters"[/spoiler]
    PERFORMER "Xandria"
    INDEX 01 46:15:53
  TRACK 11 AUDIO
    TITLE "Cursed"
    PERFORMER "Xandria"
    INDEX 01 50:34:26
  TRACK 12 AUDIO
    TITLE "The Nomad's Crown"
    PERFORMER "Xandria"
    INDEX 01 54:45:03
  TRACK 13 AUDIO
    TITLE "When the Mirror Cracks (Bonus Track)"
    PERFORMER "Xandria"
    INDEX 01 63:47:20
Треклист
01. Now & Forever (3:19)
02. Ravenheart (3:45)
03. Kill The Sun (3:25)
04. In Love With The Darkness (3:52)
05. Eversleeping (3:43)
06. Only For The Stars In Your Eyes (3:13)
07. The End Of Every Story (4:52)
08. The Lioness (4:43)
09. India (5:16)
10. Save My Life (3:56)
11. Ginger (4:55)
12. Firestorm (4:50)
13. Some Like It Cold (3:59)
14. Black Flame (3:31)
15. Like A Rose On The Grave Of Love (4:28)
16. Sisters Of The Light (3:39)
17. Mermaids (Child Of The Blue) (3:44)
18. Drown In Me (3:10)
19. One Word (3:37)
20. Lullaby (2:44)

Код:

Exact Audio Copy V0.99 prebeta 5 from 4. May 2009

Отчёт EAC об извлечении, выполненном 20. сентября 2011, 17:24

Xandria / Now & Forever

Дисковод: _NEC    DVD_RW ND-4550A   Adapter: 4  ID: 0

Режим чтения                 : Достоверность
Использование точного потока : Да
Отключение кэша аудио        : Да
Использование указателей C2  : Нет

Коррекция смещения при чтении                     : 48
Способность читать области Lead-in и Lead-out     : Нет
Заполнение пропущенных сэмплов тишиной            : Да
Удаление блоков с тишиной в начале и конце        : Нет
При вычислениях CRC использовались нулевые сэмплы : Да
Интерфейс                                         : Установленный внешний ASPI-интерфейс

Выходной формат : Внутренние WAV-операции
Формат сэмплов  : 44.100 Гц; 16 бит; стерео

TOC извлечённого CD

     Трек |   Старт  | Длительность | Начальный сектор | Конечный сектор
    ---------------------------------------------------------------------
       1  |  0:00.00 |    3:19.12   |           0      |      14936     
       2  |  3:19.12 |    3:45.27   |       14937      |      31838     
       3  |  7:04.39 |    3:24.48   |       31839      |      47186     
       4  | 10:29.12 |    3:52.11   |       47187      |      64597     
       5  | 14:21.23 |    3:42.38   |       64598      |      81285     
       6  | 18:03.61 |    3:13.13   |       81286      |      95773     
       7  | 21:16.74 |    4:52.24   |       95774      |     117697     
       8  | 26:09.23 |    4:42.63   |      117698      |     138910     
       9  | 30:52.11 |    5:16.34   |      138911      |     162644     
      10  | 36:08.45 |    3:56.07   |      162645      |     180351     
      11  | 40:04.52 |    4:54.39   |      180352      |     202440     
      12  | 44:59.16 |    4:49.55   |      202441      |     224170     
      13  | 49:48.71 |    3:58.63   |      224171      |     242083     
      14  | 53:47.59 |    3:31.00   |      242084      |     257908     
      15  | 57:18.59 |    4:27.73   |      257909      |     278006     
      16  | 61:46.57 |    3:39.12   |      278007      |     294443     
      17  | 65:25.69 |    3:43.53   |      294444      |     311221     
      18  | 69:09.47 |    3:10.35   |      311222      |     325506     
      19  | 72:20.07 |    3:36.74   |      325507      |     341780     
      20  | 75:57.06 |    2:44.19   |      341781      |     354099     

Характеристики диапазона извлечения и сообщения об ошибках

Выбранный диапазон

     Имя файла C:\Temp\Xandria - Now & Forever.wav

     Пиковый уровень 100.0 %
     Качество диапазона 100.0 %
     CRC теста 76D35E50
     CRC копии 76D35E50
     Копирование... OK

Ошибок не произошло

Конец отчёта

Код:

REM GENRE Gothic
REM DATE 2008
REM DISCID 12127114
REM COMMENT "ExactAudioCopy v0.99pb5"
PERFORMER "Xandria"
TITLE "Now & Forever"
FILE "Xandria - Now & Forever.flac" WAVE
  TRACK 01 AUDIO
    TITLE "Now & Forever"
    PERFORMER "Xandria"
    INDEX 01 00:00:00
  TRACK 02 AUDIO
    TITLE "Ravenheart"
    PERFORMER "Xandria"
    INDEX 01 03:19:12
  TRACK 03 AUDIO
    TITLE "Kill The Sun"
    PERFORMER "Xandria"
    INDEX 01 07:04:39
  TRACK 04 AUDIO
    TITLE "In Love With The Darkness"
    PERFORMER "Xandria"
    INDEX 01 10:29:12
  TRACK 05 AUDIO
    TITLE "Eversleeping"
    PERFORMER "Xandria"
    INDEX 01 14:21:23
  TRACK 06 AUDIO
    TITLE "Only For The Stars In Your Eyes"
    PERFORMER "Xandria"
    INDEX 01 18:03:61
  TRACK 07 AUDIO
    TITLE "The End Of Every Story"
    PERFORMER "Xandria"
    INDEX 01 21:16:74
  TRACK 08 AUDIO
    TITLE "The Lioness"
    PERFORMER "Xandria"
    INDEX 01 26:09:23
  TRACK 09 AUDIO
    TITLE "India"
    PERFORMER "Xandria"
    INDEX 01 30:52:11
  TRACK 10 AUDIO
    TITLE "Save My Life"
    PERFORMER "Xandria"
    INDEX 01 36:08:45
  TRACK 11 AUDIO
    TITLE "Ginger"
    PERFORMER "Xandria"
    INDEX 01 40:04:52
  TRACK 12 AUDIO
    TITLE "Firestorm"
    PERFORMER "Xandria"
    INDEX 01 44:59:16
  TRACK 13 AUDIO
    TITLE "Some Like It Cold"
    PERFORMER "Xandria"
    INDEX 01 49:48:71
  TRACK 14 AUDIO
    TITLE "Black Flame"
    PERFORMER "Xandria"
    INDEX 01 53:47:59
  TRACK 15 AUDIO
    TITLE "Like A Rose On The Grave Of Love "
    PERFORMER "Xandria"
    INDEX 01 57:18:59
  TRACK 16 AUDIO
    TITLE "Sisters Of The Light"
    PERFORMER "Xandria"
    INDEX 01 61:46:57
  TRACK 17 AUDIO
    TITLE "Mermaids (Child Of The Blue)"
    PERFORMER "Xandria"
    INDEX 01 65:25:69
  TRACK 18 AUDIO
    TITLE "Drown In Me"
    PERFORMER "Xandria"
    INDEX 01 69:09:47
  TRACK 19 AUDIO
    TITLE "One Word"
    PERFORMER "Xandria"
    INDEX 01 72:20:07
  TRACK 20 AUDIO
    TITLE "Lullaby"
    PERFORMER "Xandria"
    INDEX 01 75:57:06
Треклист
01. Eversleeping (Single) (3:57)
02. Drown In Me (3:13)
03. Pure (3:07)
04. So Sweet (4:46)
05. Eversleeping (Album Version) (3:39)

Код:

Exact Audio Copy V0.99 prebeta 5 from 4. May 2009

Отчёт EAC об извлечении, выполненном 5. июля 2010, 16:16

Xandria / Eversleeping (ep)

Дисковод: Optiarc DVD RW AD-7530A   Adapter: 1  ID: 1

Режим чтения                 : Достоверность
Использование точного потока : Да
Отключение кэша аудио        : Да
Использование указателей C2  : Нет

Коррекция смещения при чтении                     : 6
Способность читать области Lead-in и Lead-out     : Нет
Заполнение пропущенных сэмплов тишиной            : Да
Удаление блоков с тишиной в начале и конце        : Нет
При вычислениях CRC использовались нулевые сэмплы : Да
Интерфейс                                         : Установленный внешний ASPI-интерфейс

Выходной формат          : Monkey's Audio (без потерь)
Выбранный битрейт        : High Lossless Compression
Качество                 : Высокий
Добавление ID3-тэга      : Да
Утилита сжатия           : C:\Program Files\Monkey's Audio\MAC.exe

TOC извлечённого CD

     Трек |   Старт  | Длительность | Начальный сектор | Конечный сектор
    ---------------------------------------------------------------------
       1  |  0:00.00 |    3:57.11   |           0      |      17785     
       2  |  3:57.11 |    3:13.21   |       17786      |      32281     
       3  |  7:10.32 |    3:07.21   |       32282      |      46327     
       4  | 10:17.53 |    4:46.06   |       46328      |      67783     
       5  | 15:03.59 |    3:39.32   |       67784      |      84240     

Характеристики диапазона извлечения и сообщения об ошибках

Выбранный диапазон

     Имя файла D:\music\Xandria\Xandria - Eversleeping (ep).wav

     Пиковый уровень 100.0 %
     Качество диапазона 100.0 %
     CRC копии 1DD48841
     Копирование... OK

Ошибок не произошло

Конец отчёта

Код:

REM GENRE Metal
REM DATE 2004
REM DISCID 37046305
REM COMMENT "ExactAudioCopy v0.99pb5"
PERFORMER "Xandria"
TITLE "Eversleeping (ep)"
FILE "Xandria - Eversleeping (ep).ape" WAVE
  TRACK 01 AUDIO
    TITLE "Eversleeping (Single)"
    PERFORMER "Xandria"
    INDEX 01 00:00:00
  TRACK 02 AUDIO
    TITLE "Drown In Me"
    PERFORMER "Xandria"
    INDEX 00 03:56:10
    INDEX 01 03:57:11
  TRACK 03 AUDIO
    TITLE "Pure"
    PERFORMER "Xandria"
    INDEX 00 07:06:16
    INDEX 01 07:10:32
  TRACK 04 AUDIO
    TITLE "So Sweet"
    PERFORMER "Xandria"
    INDEX 00 10:16:17
    INDEX 01 10:17:53
  TRACK 05 AUDIO
    TITLE "Eversleeping (Album Version)"
    PERFORMER "Xandria"
    INDEX 00 15:01:49
    INDEX 01 15:03:59

Если раздача нравится - не забудь сказать спасибо!
info [Профиль]  [ЛС] 

post 07-Апр-2012 15:46 (спустя 16 часов) [-]0[+]

Топик был перенесен из форума Оформление раздач в форум Mеtаl (losslеss)

VlaDai
 

VlaDai

Пол: Пол:Муж

Стаж: 5 лет 5 месяцев

Сообщений: 1051

Россия
Рейтинг

post 07-Апр-2012 16:54 (спустя 17 часов) [-]0[+]

[Цитировать] 

Вот ещё клипачок с новго альбома до кучи)
          

_________________
Слушаю митол и читаю мангу - айко наркоман.
info [Профиль]  [ЛС] 

NERV666

Пол: Пол:Муж

Стаж: 6 лет 9 месяцев

Сообщений: 1621

Рейтинг

post 07-Апр-2012 18:04 (спустя 1 час 9 минут) [-]0[+]

[Цитировать] 

премного благодарен за лослесс.

_________________
info [Профиль]  [ЛС] 

VlaDai

Пол: Пол:Муж

Стаж: 5 лет 5 месяцев

Сообщений: 1051

Россия
Рейтинг

post 07-Апр-2012 18:11 (спустя 7 минут) [-]0[+]

[Цитировать] 

NERV666
Такого даже на рутрекере нету Подмигиваю

_________________
Слушаю митол и читаю мангу - айко наркоман.
info [Профиль]  [ЛС] 

NERV666

Пол: Пол:Муж

Стаж: 6 лет 9 месяцев

Сообщений: 1621

Рейтинг

post 07-Апр-2012 18:32 (спустя 20 минут) [-]0[+]

[Цитировать] 

VlaDai
это да, долго там ждал подобной раздачи, а тут на любимом трекере да еще в золоте, прямо шикарный подарок. оооочень рад и обещаю раздавать долго-долго.

_________________
info [Профиль]  [ЛС] 

YarsanUsov

Стаж: 4 года 10 месяцев

Сообщений: 12

Предупреждений: 1

Рейтинг

post 07-Апр-2012 18:38 (спустя 6 минут) [-]0[+]

[Цитировать] 

VlaDai
Спасибо мужик)
info [Профиль]  [ЛС] 

VlaDai

Пол: Пол:Муж

Стаж: 5 лет 5 месяцев

Сообщений: 1051

Россия
Рейтинг

post 07-Апр-2012 19:17 (спустя 38 минут) [-]0[+]

[Цитировать] 

NERV666
За золото спасибо R.G. HaMeR, теперь все наши релизы более 2х гигов в объёме будут либо золото либо серебро Улыбаюсь
YarsanUsov
Не за что, у самого одна из любимых симфо групп, найтвиш мне не вставляет а вот ксандриа самое то)

_________________
Слушаю митол и читаю мангу - айко наркоман.
info [Профиль]  [ЛС] 

graynk

Пол: Пол:Муж

Стаж: 6 лет 5 месяцев

Сообщений: 85

Россия
Рейтинг

post 07-Апр-2012 19:19 (спустя 1 минута) [-]0[+]

[Цитировать] 

Ох много этих групп "симпатичная солистка, брутальные мужики, вроде уже не попса, но еще не митол" развелось. Скачаю - опробую.

_________________
info [Профиль]  [ЛС] 

VlaDai

Пол: Пол:Муж

Стаж: 5 лет 5 месяцев

Сообщений: 1051

Россия
Рейтинг

post 07-Апр-2012 19:36 (спустя 17 минут) [-]0[+]

[Цитировать] 

graynk
Хочешь митола?? Да пожалуйста Devourment - Butcher The Weak, Abominable Putridity - The Anomalies Of Artificial Origin, что ни на есть злющий брутальный метал, никаких там симпатичных солисток, только злобная мощная куча гуттарала и слемов. Если по блеку то из новенького например Mgła - With Hearts Toward None, да чё я тут распинаюсь метал раздел с митолом не пустует. А эту группу никто слушать не заставляет, качать тоже.

_________________
Слушаю митол и читаю мангу - айко наркоман.
info [Профиль]  [ЛС] 

YT1BRUTAL1TY

Пол: Пол:Муж

Стаж: 4 года 11 месяцев

Сообщений: 8

Канада
Рейтинг

post 07-Апр-2012 19:51 (спустя 15 минут) [-]0[+]

[Цитировать] 

Спасибо за релиз. Данная команда для меня открытие.
До Nightwish конечно не дотягивает, не хватает глубины звучания, а так вполне съедобно Улыбаюсь
info [Профиль]  [ЛС] 

VlaDai

Пол: Пол:Муж

Стаж: 5 лет 5 месяцев

Сообщений: 1051

Россия
Рейтинг

post 07-Апр-2012 20:44 (спустя 53 минуты) [-]0[+]

[Цитировать] 

YT1BRUTAL1TY
Не знаю, мне как раз найтвиш и не вставляет, а эта команда поинтереснее кажется) Но на вкус и на цвет)

_________________
Слушаю митол и читаю мангу - айко наркоман.
info [Профиль]  [ЛС] 

graynk

Пол: Пол:Муж

Стаж: 6 лет 5 месяцев

Сообщений: 85

Россия
Рейтинг

post 08-Апр-2012 01:06 (спустя 4 часа) [-]0[+]

[Цитировать] 

VlaDai писал(а):

graynk
Хочешь митола?? Да пожалуйста Devourment - Butcher The Weak, Abominable Putridity - The Anomalies Of Artificial Origin, что ни на есть злющий брутальный метал, никаких там симпатичных солисток, только злобная мощная куча гуттарала и слемов. Если по блеку то из новенького например Mgła - With Hearts Toward None, да чё я тут распинаюсь метал раздел с митолом не пустует. А эту группу никто слушать не заставляет, качать тоже.
Нервный ты какой-то. Где я писал, что жажду чистого митола? Просто сказал, что таких групп как эта сейчас очень много, и их хрен отличишь. Xandria, Nightwish, Evanescence, Lacuna Coil, Within Temptation. Это только те кого я сходу вспомнил.

_________________
info [Профиль]  [ЛС] 

Duality71

Пол: Пол:Муж

Стаж: 5 лет 1 месяц

Сообщений: 75

Россия
Рейтинг

post 08-Апр-2012 01:45 (спустя 38 минут) [-]0[+]

[Цитировать] 

Скачал бы с радостью,ибо плохой музыкой ты не делишься,но увы-место на хардах закончилось Грущу жду конца месяца-поеду за добавкой на 2,5тб

_________________
AMD Phenom II X6 1090T;16Gb DDR3;GTX 980 4096Mb;VTX3-25SAT3-128G;WD800JD;WD10 EADS;WD32 00AAJS;Win 7+Kubuntu 14.04.1.
Intel Pentium 4 3.2;1Gb DDR;WD Red WD20EFRX;ST3120022A;MAXTOR STM332062;Ubuntu Server 12.04.1 -Seedbox 24/7
ASUS RT-N16 3.0.0.4.260 firmware
Wexler Tab 7t
info [Профиль]  [ЛС] 

VlaDai

Пол: Пол:Муж

Стаж: 5 лет 5 месяцев

Сообщений: 1051

Россия
Рейтинг

post 08-Апр-2012 03:24 (спустя 1 час 39 минут) [-]0[+]

[Цитировать] 

Duality71
На ласте сейчас живёшь или занят ещё?) А хард это хорошо, но дорогие сейчас твари(( Тайваньцы ленятся после наводнения.

graynk
Просто такие заявления достали, все симфо группы копируют найтвиш, не различишь по звучанию... На самом же деле различий куча, просто их слышать надо. Если не слышно то извиняй, медведи нам разные на уши наступили)

Цитата:

симпатичная солистка, брутальные мужики
Солистка да, а уж чё ты брутального в мужиках на фоне заметил не знаю)

Цитата:

вроде уже не попса, но еще не митол
Как можно метал, даже готик, называть чем-то среднем между попсой и металом? Это готик метал, в нём и не должно быть гроула, метал многолик, но уж попсой его назвать это ахтунг :/

Цитата:

Xandria, Nightwish, Evanescence
Уж еванискинс вообще некаким местом на ксандрию не похожи, разница огромна.

_________________
Слушаю митол и читаю мангу - айко наркоман.
info [Профиль]  [ЛС] 

Duality71

Пол: Пол:Муж

Стаж: 5 лет 1 месяц

Сообщений: 75

Россия
Рейтинг

post 08-Апр-2012 11:40 (спустя 8 часов) [-]0[+]

[Цитировать] 

VlaDai
Я думаю теперь до мая там не появлюсь)+курсач,диплом....времени не хватает

_________________
AMD Phenom II X6 1090T;16Gb DDR3;GTX 980 4096Mb;VTX3-25SAT3-128G;WD800JD;WD10 EADS;WD32 00AAJS;Win 7+Kubuntu 14.04.1.
Intel Pentium 4 3.2;1Gb DDR;WD Red WD20EFRX;ST3120022A;MAXTOR STM332062;Ubuntu Server 12.04.1 -Seedbox 24/7
ASUS RT-N16 3.0.0.4.260 firmware
Wexler Tab 7t
info [Профиль]  [ЛС] 

VlaDai

Пол: Пол:Муж

Стаж: 5 лет 5 месяцев

Сообщений: 1051

Россия
Рейтинг

post 08-Апр-2012 14:05 (спустя 2 часа 24 минуты) [-]0[+]

[Цитировать] 

Duality71
Понятно, ну удачи во всём)))

_________________
Слушаю митол и читаю мангу - айко наркоман.
info [Профиль]  [ЛС] 

Duality71

Пол: Пол:Муж

Стаж: 5 лет 1 месяц

Сообщений: 75

Россия
Рейтинг

post 09-Апр-2012 22:07 (спустя 1 день 8 часов) [-]0[+]

[Цитировать] 

VlaDai
По поводу закачки....случилась веселая вещь-случайно отформатировал хард с торрентами,так что снова познаю безграничный мир митола XD еще раз спасибо за раздачу Улыбаюсь

_________________
AMD Phenom II X6 1090T;16Gb DDR3;GTX 980 4096Mb;VTX3-25SAT3-128G;WD800JD;WD10 EADS;WD32 00AAJS;Win 7+Kubuntu 14.04.1.
Intel Pentium 4 3.2;1Gb DDR;WD Red WD20EFRX;ST3120022A;MAXTOR STM332062;Ubuntu Server 12.04.1 -Seedbox 24/7
ASUS RT-N16 3.0.0.4.260 firmware
Wexler Tab 7t
info [Профиль]  [ЛС] 

VlaDai

Пол: Пол:Муж

Стаж: 5 лет 5 месяцев

Сообщений: 1051

Россия
Рейтинг

post 13-Апр-2012 17:12 (спустя 3 дня) [-]0[+]

[Цитировать] 

Duality71
Смеюсь жгёшь)

_________________
Слушаю митол и читаю мангу - айко наркоман.
info [Профиль]  [ЛС] 
Показать сообщения:    
Ответить на тему

Текущее время: 06-Дек 16:07

Часовой пояс: GMT + 4



Вы не можете начинать темы
Вы не можете отвечать на сообщения
Вы не можете редактировать свои сообщения
Вы не можете удалять свои сообщения
Вы не можете голосовать в опросах
Вы не можете прикреплять файлы к сообщениям
Вы не можете скачивать файлы