Ошибка

(OST) FLCL - 2001-2005, FLAC (tracks+.cue)+covers, lossless

Ответить на тему
 
Автор Сообщение

SilverTea

Пол: Пол:Муж

Стаж: 9 лет 4 месяца

Сообщений: 80

Рейтинг

post 02-Июн-2010 12:47 0[+]

[Цитировать] 



OST 1 - Addict
Жанр: OST
Год первого издания: 2001
Тип релиза: tracks+.cue
Аудио кодек: FLAC
Битрейт аудио: lossless
Продолжительность: 00:49:52
Источник: What.CD (dr_storm)

Треклист:
01. Last Dinosaur
02. Ride On Shooting Star
03. Sad Sad Kiddie
04. Carnival
05. Runners High (FLCL Version)
06. Instant Music
07. Stalker
08. Rever's Edge (B-6)
09. Stalker Goes to Babylon
10. One Life
11. Pain (A-7)
12. Kabarefusukii: Yori ~ Gallop
13. Hybrid Rainbow
14. Selfish-b (B-5)
15. Pink (A-6)
16. Beautiful Morning With You
17. Sleepy Head
18. Bran-new Lovesong
19. Come Down
20. Advice (FLCL Arrange Version)
21. Little Busters

Код:

EAC extraction logfile from 5. November 2006, 20:51 for CD
The Pillows/various / FLCL OST 1 - Addict

Used drive  : SAMSUNG CDRW/DVD SM-352F   Adapter: 0  ID: 0
Read mode   : Secure with NO C2, accurate stream, disable cache
Read offset correction : 6
Overread into Lead-In and Lead-Out : No

Used output format : C:\Documents and Settings\Kyle\My Documents\Apps\AudioChecker\Codecs\FLAC\flac.exe   (User Defined Encoder)
                     128 kBit/s
                     Additional command line options : -V -8 -T "artist=%a" -T "title=%t" -T "album=%g" -T "date=%y" -T "tracknumber=%n" -T "genre=%m" %s

Other options      :
    Fill up missing offset samples with silence : Yes
    Delete leading and trailing silent blocks : No
    Installed external ASPI interface

Track  1
     Filename C:\Documents and Settings\Kyle\My Documents\Torrent Shiznite\FLCL Complete Collection [FLAC]\OST 1 - Addict (2000)\01 - Last Dinosaur.wav

     Pre-gap length  0:00:02.00

     Peak level 99.1 %
     Track quality 99.5 %
     Test CRC BEBA6115
     Copy CRC BEBA6115
     Copy OK

Track  2
     Filename C:\Documents and Settings\Kyle\My Documents\Torrent Shiznite\FLCL Complete Collection [FLAC]\OST 1 - Addict (2000)\02 - Ride on Shooting Star.wav

     Peak level 98.9 %
     Track quality 100.0 %
     Test CRC 619C8BA4
     Copy CRC 619C8BA4
     Copy OK

Track  3
     Filename C:\Documents and Settings\Kyle\My Documents\Torrent Shiznite\FLCL Complete Collection [FLAC]\OST 1 - Addict (2000)\03 - Sad Sad Kiddie.wav

     Peak level 98.3 %
     Track quality 99.9 %
     Test CRC 5E3878BE
     Copy CRC 5E3878BE
     Copy OK

Track  4
     Filename C:\Documents and Settings\Kyle\My Documents\Torrent Shiznite\FLCL Complete Collection [FLAC]\OST 1 - Addict (2000)\04 - Carnival.wav

     Peak level 98.9 %
     Track quality 99.8 %
     Test CRC 32415209
     Copy CRC 32415209
     Copy OK

Track  5
     Filename C:\Documents and Settings\Kyle\My Documents\Torrent Shiznite\FLCL Complete Collection [FLAC]\OST 1 - Addict (2000)\05 - Runners High~FLCL ver.~.wav

     Peak level 98.5 %
     Track quality 99.8 %
     Test CRC 8597F5AB
     Copy CRC 8597F5AB
     Copy OK

Track  6
     Filename C:\Documents and Settings\Kyle\My Documents\Torrent Shiznite\FLCL Complete Collection [FLAC]\OST 1 - Addict (2000)\06 - Instant Music.wav

     Peak level 98.7 %
     Track quality 99.9 %
     Test CRC 793A05CE
     Copy CRC 793A05CE
     Copy OK

Track  7
     Filename C:\Documents and Settings\Kyle\My Documents\Torrent Shiznite\FLCL Complete Collection [FLAC]\OST 1 - Addict (2000)\07 - Stalker.wav

     Peak level 98.7 %
     Track quality 100.0 %
     Test CRC E9521683
     Copy CRC E9521683
     Copy OK

Track  8
     Filename C:\Documents and Settings\Kyle\My Documents\Torrent Shiznite\FLCL Complete Collection [FLAC]\OST 1 - Addict (2000)\08 - Rever's Edge.wav

     Peak level 99.1 %
     Track quality 100.0 %
     Test CRC F4BA9419
     Copy CRC F4BA9419
     Copy OK

Track  9
     Filename C:\Documents and Settings\Kyle\My Documents\Torrent Shiznite\FLCL Complete Collection [FLAC]\OST 1 - Addict (2000)\09 - Stalker Goes to Babylon.wav

     Peak level 99.1 %
     Track quality 100.0 %
     Test CRC 521BEDF1
     Copy CRC 521BEDF1
     Copy OK

Track 10
     Filename C:\Documents and Settings\Kyle\My Documents\Torrent Shiznite\FLCL Complete Collection [FLAC]\OST 1 - Addict (2000)\10 - One Life.wav

     Peak level 98.8 %
     Track quality 100.0 %
     Test CRC D2CE59D7
     Copy CRC D2CE59D7
     Copy OK

Track 11
     Filename C:\Documents and Settings\Kyle\My Documents\Torrent Shiznite\FLCL Complete Collection [FLAC]\OST 1 - Addict (2000)\11 - Pain.wav

     Peak level 99.1 %
     Track quality 100.0 %
     Test CRC 3A1A86D8
     Copy CRC 3A1A86D8
     Copy OK

Track 12
     Filename C:\Documents and Settings\Kyle\My Documents\Torrent Shiznite\FLCL Complete Collection [FLAC]\OST 1 - Addict (2000)\12 - Kabalevsky from 'Clown' ~Gallop.wav

     Peak level 98.9 %
     Track quality 99.8 %
     Test CRC CB9278B5
     Copy CRC CB9278B5
     Copy OK

Track 13
     Filename C:\Documents and Settings\Kyle\My Documents\Torrent Shiznite\FLCL Complete Collection [FLAC]\OST 1 - Addict (2000)\13 - Hybrid Rainbow.wav

     Peak level 99.1 %
     Track quality 100.0 %
     Test CRC D0EF7419
     Copy CRC D0EF7419
     Copy OK

Track 14
     Filename C:\Documents and Settings\Kyle\My Documents\Torrent Shiznite\FLCL Complete Collection [FLAC]\OST 1 - Addict (2000)\14 - Selfish-b.wav

     Peak level 99.1 %
     Track quality 99.9 %
     Test CRC A09C6275
     Copy CRC A09C6275
     Copy OK

Track 15
     Filename C:\Documents and Settings\Kyle\My Documents\Torrent Shiznite\FLCL Complete Collection [FLAC]\OST 1 - Addict (2000)\15 - Pink.wav

     Peak level 98.8 %
     Track quality 100.0 %
     Test CRC AF9630B3
     Copy CRC AF9630B3
     Copy OK

Track 16
     Filename C:\Documents and Settings\Kyle\My Documents\Torrent Shiznite\FLCL Complete Collection [FLAC]\OST 1 - Addict (2000)\16 - Beautiful Morning with You.wav

     Peak level 98.6 %
     Track quality 100.0 %
     Test CRC 18A79F44
     Copy CRC 18A79F44
     Copy OK

Track 17
     Filename C:\Documents and Settings\Kyle\My Documents\Torrent Shiznite\FLCL Complete Collection [FLAC]\OST 1 - Addict (2000)\17 - Sleepy Head.wav

     Peak level 99.1 %
     Track quality 100.0 %
     Test CRC 1C987CB6
     Copy CRC 1C987CB6
     Copy OK

Track 18
     Filename C:\Documents and Settings\Kyle\My Documents\Torrent Shiznite\FLCL Complete Collection [FLAC]\OST 1 - Addict (2000)\18 - Bran-new Lovesong.wav

     Peak level 99.0 %
     Track quality 100.0 %
     Test CRC B8C71C9F
     Copy CRC B8C71C9F
     Copy OK

Track 19
     Filename C:\Documents and Settings\Kyle\My Documents\Torrent Shiznite\FLCL Complete Collection [FLAC]\OST 1 - Addict (2000)\19 - Come Down.wav

     Peak level 97.9 %
     Track quality 100.0 %
     Test CRC 3900E527
     Copy CRC 3900E527
     Copy OK

Track 20
     Filename C:\Documents and Settings\Kyle\My Documents\Torrent Shiznite\FLCL Complete Collection [FLAC]\OST 1 - Addict (2000)\20 - Advice ~FLCL Arrange ver.~.wav

     Peak level 98.5 %
     Track quality 100.0 %
     Test CRC 2D9DA95E
     Copy CRC 2D9DA95E
     Copy OK

Track 21
     Filename C:\Documents and Settings\Kyle\My Documents\Torrent Shiznite\FLCL Complete Collection [FLAC]\OST 1 - Addict (2000)\21 - Little Busters.wav

     Peak level 98.7 %
     Track quality 99.9 %
     Test CRC E6312677
     Copy CRC E6312677
     Copy OK

No errors occured

End of status report

Код:

REM GENRE Anime
REM DATE 2000
REM DISCID 260BB015
REM COMMENT "ExactAudioCopy v0.95b4"
PERFORMER "The Pillows/various"
TITLE "FLCL OST 1 - Addict"
FILE "01 - Last Dinosaur.wav" WAVE
  TRACK 01 AUDIO
    TITLE "Last Dinosaur"
    PERFORMER "The Pillows/various"
    INDEX 01 00:00:00
FILE "02 - Ride on Shooting Star.wav" WAVE
  TRACK 02 AUDIO
    TITLE "Ride on Shooting Star"
    PERFORMER "The Pillows/various"
    INDEX 01 00:00:00
FILE "03 - Sad Sad Kiddie.wav" WAVE
  TRACK 03 AUDIO
    TITLE "Sad Sad Kiddie"
    PERFORMER "The Pillows/various"
    INDEX 01 00:00:00
FILE "04 - Carnival.wav" WAVE
  TRACK 04 AUDIO
    TITLE "Carnival"
    PERFORMER "The Pillows/various"
    INDEX 01 00:00:00
FILE "05 - Runners High~FLCL ver.~.wav" WAVE
  TRACK 05 AUDIO
    TITLE "Runners High~FLCL ver.~"
    PERFORMER "The Pillows/various"
    INDEX 01 00:00:00
FILE "06 - Instant Music.wav" WAVE
  TRACK 06 AUDIO
    TITLE "Instant Music"
    PERFORMER "The Pillows/various"
    INDEX 01 00:00:00
FILE "07 - Stalker.wav" WAVE
  TRACK 07 AUDIO
    TITLE "Stalker"
    PERFORMER "The Pillows/various"
    INDEX 01 00:00:00
FILE "08 - Rever's Edge.wav" WAVE
  TRACK 08 AUDIO
    TITLE "Rever's Edge"
    PERFORMER "The Pillows/various"
    INDEX 01 00:00:00
FILE "09 - Stalker Goes to Babylon.wav" WAVE
  TRACK 09 AUDIO
    TITLE "Stalker Goes to Babylon"
    PERFORMER "The Pillows/various"
    INDEX 01 00:00:00
FILE "10 - One Life.wav" WAVE
  TRACK 10 AUDIO
    TITLE "One Life"
    PERFORMER "The Pillows/various"
    INDEX 01 00:00:00
FILE "11 - Pain.wav" WAVE
  TRACK 11 AUDIO
    TITLE "Pain"
    PERFORMER "The Pillows/various"
    INDEX 01 00:00:00
FILE "12 - Kabalevsky from 'Clown' ~Gallop.wav" WAVE
  TRACK 12 AUDIO
    TITLE "Kabalevsky from 'Clown' ~Gallop"
    PERFORMER "The Pillows/various"
    INDEX 01 00:00:00
FILE "13 - Hybrid Rainbow.wav" WAVE
  TRACK 13 AUDIO
    TITLE "Hybrid Rainbow"
    PERFORMER "The Pillows/various"
    INDEX 01 00:00:00
FILE "14 - Selfish-b.wav" WAVE
  TRACK 14 AUDIO
    TITLE "Selfish-b"
    PERFORMER "The Pillows/various"
    INDEX 01 00:00:00
FILE "15 - Pink.wav" WAVE
  TRACK 15 AUDIO
    TITLE "Pink"
    PERFORMER "The Pillows/various"
    INDEX 01 00:00:00
FILE "16 - Beautiful Morning with You.wav" WAVE
  TRACK 16 AUDIO
    TITLE "Beautiful Morning with You"
    PERFORMER "The Pillows/various"
    INDEX 01 00:00:00
FILE "17 - Sleepy Head.wav" WAVE
  TRACK 17 AUDIO
    TITLE "Sleepy Head"
    PERFORMER "The Pillows/various"
    INDEX 01 00:00:00
FILE "18 - Bran-new Lovesong.wav" WAVE
  TRACK 18 AUDIO
    TITLE "Bran-new Lovesong"
    PERFORMER "The Pillows/various"
    INDEX 01 00:00:00
FILE "19 - Come Down.wav" WAVE
  TRACK 19 AUDIO
    TITLE "Come Down"
    PERFORMER "The Pillows/various"
    INDEX 01 00:00:00
FILE "20 - Advice ~FLCL Arrange ver.~.wav" WAVE
  TRACK 20 AUDIO
    TITLE "Advice ~FLCL Arrange ver.~"
    PERFORMER "The Pillows/various"
    INDEX 01 00:00:00
FILE "21 - Little Busters.wav" WAVE
  TRACK 21 AUDIO
    TITLE "Little Busters"
    PERFORMER "The Pillows/various"
    INDEX 01 00:00:00

Код:

AUDIOCHECKER v2.0 beta (build 457) - by Dester - opdester@freemail.hu
~~~~~~~~~~~~~~~~~~~~~~~~~~~~~~~~~~
-=== НЕ РЕДАКТИРУЙТЕ ЭТОТ ФАЙЛ! ===-

Путь: ...\Various Artists - OST 1 - Addict (FLAC)

01 -=- 01 - Last Dinosaur.flac -=- CDDA (99%)
02 -=- 02 - Ride on Shooting Star.flac -=- CDDA (100%)
03 -=- 03 - Sad Sad Kiddie.flac -=- CDDA (100%)
04 -=- 04 - Carnival.flac -=- CDDA (100%)
05 -=- 05 - Runners High~FLCL ver.~.flac -=- CDDA (100%)
06 -=- 06 - Instant Music.flac -=- CDDA (100%)
07 -=- 07 - Stalker.flac -=- CDDA (100%)
08 -=- 08 - Rever's Edge.flac -=- CDDA (99%)
09 -=- 09 - Stalker Goes to Babylon.flac -=- CDDA (100%)
10 -=- 10 - One Life.flac -=- CDDA (100%)
11 -=- 11 - Pain.flac -=- CDDA (100%)
12 -=- 12 - Kabalevsky from 'Clown' ~Gallop.flac -=- CDDA (100%)
13 -=- 13 - Hybrid Rainbow.flac -=- CDDA (100%)
14 -=- 14 - Selfish-b.flac -=- CDDA (100%)
15 -=- 15 - Pink.flac -=- CDDA (100%)
16 -=- 16 - Beautiful Morning with You.flac -=- CDDA (100%)
17 -=- 17 - Sleepy Head.flac -=- CDDA (100%)
18 -=- 18 - Bran-new Lovesong.flac -=- CDDA (100%)
19 -=- 19 - Come Down.flac -=- CDDA (100%)
20 -=- 20 - Advice ~FLCL Arrange ver.~.flac -=- CDDA (100%)
21 -=- 21 - Little Busters.flac -=- CDDA (100%)

Сводка 99,90% CDDA

146700820

OST 2 - King Of Pirates
Жанр: OST
Год первого издания: 2001
Тип релиза: tracks+.cue
Аудио кодек: FLAC
Битрейт аудио: lossless
Продолжительность: 01:04:39
Источник: What.CD (dr_storm)

Треклист:
01. Crazy Sunshine
02. White Ash
03. Taxi (Drama)
04. Nightmare
05. PATRICIA
06. Memory of Summer
07. Blues Drive Monster
08. Funny Bunny
09. Mamiko (Drama)
10. Ohgiri (Drama)
11. Harumi (Drama)
12. High Risk
13. WEEKEND
14. Being Bitten (Drama)
15. Another morning
16. LAST DINOSAUR
17. I think I can

Код:

EAC extraction logfile from 10. November 2006, 4:04 for CD
The Pillows/various / FLCL OST 2 - King of Pirates

Used drive  : SAMSUNG CDRW/DVD SM-352F   Adapter: 0  ID: 0
Read mode   : Secure with NO C2, accurate stream, disable cache
Read offset correction : 6
Overread into Lead-In and Lead-Out : No

Used output format : C:\Documents and Settings\Kyle\My Documents\Apps\AudioChecker\Codecs\FLAC\flac.exe   (User Defined Encoder)
                     128 kBit/s
                     Additional command line options : -V -8 -T "artist=%a" -T "title=%t" -T "album=%g" -T "date=%y" -T "tracknumber=%n" -T "genre=%m" %s

Other options      :
    Fill up missing offset samples with silence : Yes
    Delete leading and trailing silent blocks : No
    Installed external ASPI interface

Track  1
     Filename C:\Documents and Settings\Kyle\My Documents\Torrent Shiznite\FLCL Complete Collection [FLAC]\OST 2 - King Of Pirates (2001)\01 - Crazy Sunshine.wav

     Pre-gap length  0:00:02.00

     Peak level 99.0 %
     Track quality 100.0 %
     Test CRC B257D70C
     Copy CRC B257D70C
     Copy OK

Track  2
     Filename C:\Documents and Settings\Kyle\My Documents\Torrent Shiznite\FLCL Complete Collection [FLAC]\OST 2 - King Of Pirates (2001)\02 - White Ash.wav

     Peak level 98.9 %
     Track quality 100.0 %
     Test CRC 9AE16566
     Copy CRC 9AE16566
     Copy OK

Track  3
     Filename C:\Documents and Settings\Kyle\My Documents\Torrent Shiznite\FLCL Complete Collection [FLAC]\OST 2 - King Of Pirates (2001)\03 - Taxi (Drama).wav

     Peak level 99.0 %
     Track quality 99.9 %
     Test CRC 92D79CDE
     Copy CRC 92D79CDE
     Copy OK

Track  4
     Filename C:\Documents and Settings\Kyle\My Documents\Torrent Shiznite\FLCL Complete Collection [FLAC]\OST 2 - King Of Pirates (2001)\04 - Nightmare.wav

     Peak level 99.2 %
     Track quality 100.0 %
     Test CRC 01F8EE75
     Copy CRC 01F8EE75
     Copy OK

Track  5
     Filename C:\Documents and Settings\Kyle\My Documents\Torrent Shiznite\FLCL Complete Collection [FLAC]\OST 2 - King Of Pirates (2001)\05 - Patricia.wav

     Peak level 99.0 %
     Track quality 100.0 %
     Test CRC 30B50DA1
     Copy CRC 30B50DA1
     Copy OK

Track  6
     Filename C:\Documents and Settings\Kyle\My Documents\Torrent Shiznite\FLCL Complete Collection [FLAC]\OST 2 - King Of Pirates (2001)\06 - Memory of Summer.wav

     Peak level 96.6 %
     Track quality 100.0 %
     Test CRC 624589A9
     Copy CRC 624589A9
     Copy OK

Track  7
     Filename C:\Documents and Settings\Kyle\My Documents\Torrent Shiznite\FLCL Complete Collection [FLAC]\OST 2 - King Of Pirates (2001)\07 - Blues Drive Monster.wav

     Peak level 98.9 %
     Track quality 100.0 %
     Test CRC 2073C8B6
     Copy CRC 2073C8B6
     Copy OK

Track  8
     Filename C:\Documents and Settings\Kyle\My Documents\Torrent Shiznite\FLCL Complete Collection [FLAC]\OST 2 - King Of Pirates (2001)\08 - Funny Bunny.wav

     Peak level 98.9 %
     Track quality 100.0 %
     Test CRC 3FF83908
     Copy CRC 3FF83908
     Copy OK

Track  9
     Filename C:\Documents and Settings\Kyle\My Documents\Torrent Shiznite\FLCL Complete Collection [FLAC]\OST 2 - King Of Pirates (2001)\09 - Mamiko (Drama).wav

     Peak level 98.9 %
     Track quality 100.0 %
     Test CRC 486B5A9A
     Copy CRC 486B5A9A
     Copy OK

Track 10
     Filename C:\Documents and Settings\Kyle\My Documents\Torrent Shiznite\FLCL Complete Collection [FLAC]\OST 2 - King Of Pirates (2001)\10 - Ohgiri (Drama).wav

     Peak level 99.1 %
     Track quality 100.0 %
     Test CRC CB384E41
     Copy CRC CB384E41
     Copy OK

Track 11
     Filename C:\Documents and Settings\Kyle\My Documents\Torrent Shiznite\FLCL Complete Collection [FLAC]\OST 2 - King Of Pirates (2001)\11 - Harumi (Drama).wav

     Peak level 99.0 %
     Track quality 100.0 %
     Test CRC 07A01402
     Copy CRC 07A01402
     Copy OK

Track 12
     Filename C:\Documents and Settings\Kyle\My Documents\Torrent Shiznite\FLCL Complete Collection [FLAC]\OST 2 - King Of Pirates (2001)\12 - High Risk.wav

     Peak level 99.0 %
     Track quality 100.0 %
     Test CRC 99D727D8
     Copy CRC 99D727D8
     Copy OK

Track 13
     Filename C:\Documents and Settings\Kyle\My Documents\Torrent Shiznite\FLCL Complete Collection [FLAC]\OST 2 - King Of Pirates (2001)\13 - Weekend.wav

     Peak level 99.0 %
     Track quality 99.9 %
     Test CRC 6B96F65A
     Copy CRC 6B96F65A
     Copy OK

Track 14
     Filename C:\Documents and Settings\Kyle\My Documents\Torrent Shiznite\FLCL Complete Collection [FLAC]\OST 2 - King Of Pirates (2001)\14 - Being Bitten (Drama).wav

     Peak level 99.1 %
     Track quality 99.9 %
     Test CRC 574A0076
     Copy CRC 574A0076
     Copy OK

Track 15
     Filename C:\Documents and Settings\Kyle\My Documents\Torrent Shiznite\FLCL Complete Collection [FLAC]\OST 2 - King Of Pirates (2001)\15 - Another Morning.wav

     Peak level 99.0 %
     Track quality 100.0 %
     Test CRC 41FBF5B2
     Copy CRC 41FBF5B2
     Copy OK

Track 16
     Filename C:\Documents and Settings\Kyle\My Documents\Torrent Shiznite\FLCL Complete Collection [FLAC]\OST 2 - King Of Pirates (2001)\16 - Last Dinosaur.wav

     Peak level 98.9 %
     Track quality 100.0 %
     Test CRC 7FB95693
     Copy CRC 7FB95693
     Copy OK

Track 17
     Filename C:\Documents and Settings\Kyle\My Documents\Torrent Shiznite\FLCL Complete Collection [FLAC]\OST 2 - King Of Pirates (2001)\17 - I think I can.wav

     Peak level 99.0 %
     Track quality 100.0 %
     Test CRC F802177C
     Copy CRC F802177C
     Copy OK

No errors occured

End of status report

Код:

REM GENRE Anime
REM DATE 2001
REM DISCID EA0F2711
REM COMMENT "ExactAudioCopy v0.95b4"
PERFORMER "The Pillows/various"
TITLE "FLCL OST 2 - King of Pirates"
FILE "01 - Crazy Sunshine.wav" WAVE
  TRACK 01 AUDIO
    TITLE "Crazy Sunshine"
    PERFORMER "The Pillows/various"
    INDEX 01 00:00:00
FILE "02 - White Ash.wav" WAVE
  TRACK 02 AUDIO
    TITLE "White Ash"
    PERFORMER "The Pillows/various"
    INDEX 01 00:00:00
FILE "03 - Taxi (Drama).wav" WAVE
  TRACK 03 AUDIO
    TITLE "Taxi (Drama)"
    PERFORMER "The Pillows/various"
    INDEX 01 00:00:00
FILE "04 - Nightmare.wav" WAVE
  TRACK 04 AUDIO
    TITLE "Nightmare"
    PERFORMER "The Pillows/various"
    INDEX 01 00:00:00
FILE "05 - Patricia.wav" WAVE
  TRACK 05 AUDIO
    TITLE "Patricia"
    PERFORMER "The Pillows/various"
    INDEX 01 00:00:00
FILE "06 - Memory of Summer.wav" WAVE
  TRACK 06 AUDIO
    TITLE "Memory of Summer"
    PERFORMER "The Pillows/various"
    INDEX 01 00:00:00
FILE "07 - Blues Drive Monster.wav" WAVE
  TRACK 07 AUDIO
    TITLE "Blues Drive Monster"
    PERFORMER "The Pillows/various"
    INDEX 01 00:00:00
FILE "08 - Funny Bunny.wav" WAVE
  TRACK 08 AUDIO
    TITLE "Funny Bunny"
    PERFORMER "The Pillows/various"
    INDEX 01 00:00:00
FILE "09 - Mamiko (Drama).wav" WAVE
  TRACK 09 AUDIO
    TITLE "Mamiko (Drama)"
    PERFORMER "The Pillows/various"
    INDEX 01 00:00:00
FILE "10 - Ohgiri (Drama).wav" WAVE
  TRACK 10 AUDIO
    TITLE "Ohgiri (Drama)"
    PERFORMER "The Pillows/various"
    INDEX 01 00:00:00
FILE "11 - Harumi (Drama).wav" WAVE
  TRACK 11 AUDIO
    TITLE "Harumi (Drama)"
    PERFORMER "The Pillows/various"
    INDEX 01 00:00:00
FILE "12 - High Risk.wav" WAVE
  TRACK 12 AUDIO
    TITLE "High Risk"
    PERFORMER "The Pillows/various"
    INDEX 01 00:00:00
FILE "13 - Weekend.wav" WAVE
  TRACK 13 AUDIO
    TITLE "Weekend"
    PERFORMER "The Pillows/various"
    INDEX 01 00:00:00
FILE "14 - Being Bitten (Drama).wav" WAVE
  TRACK 14 AUDIO
    TITLE "Being Bitten (Drama)"
    PERFORMER "The Pillows/various"
    INDEX 01 00:00:00
FILE "15 - Another Morning.wav" WAVE
  TRACK 15 AUDIO
    TITLE "Another Morning"
    PERFORMER "The Pillows/various"
    INDEX 01 00:00:00
FILE "16 - Last Dinosaur.wav" WAVE
  TRACK 16 AUDIO
    TITLE "Last Dinosaur"
    PERFORMER "The Pillows/various"
    INDEX 01 00:00:00
FILE "17 - I think I can.wav" WAVE
  TRACK 17 AUDIO
    TITLE "I think I can"
    PERFORMER "The Pillows/various"
    INDEX 01 00:00:00

Код:

AUDIOCHECKER v2.0 beta (build 457) - by Dester - opdester@freemail.hu
~~~~~~~~~~~~~~~~~~~~~~~~~~~~~~~~~~
-=== НЕ РЕДАКТИРУЙТЕ ЭТОТ ФАЙЛ! ===-

Путь: ...\Various Artists - OST 2 - King Of Pirates (FLAC)

01 -=- 01 - Crazy Sunshine.flac -=- CDDA (100%)
02 -=- 02 - White Ash.flac -=- CDDA (100%)
03 -=- 03 - Taxi (Drama).flac -=- CDDA (100%)
04 -=- 04 - Nightmare.flac -=- CDDA (100%)
05 -=- 05 - Patricia.flac -=- CDDA (100%)
06 -=- 06 - Memory of Summer.flac -=- CDDA (100%)
07 -=- 07 - Blues Drive Monster.flac -=- CDDA (100%)
08 -=- 08 - Funny Bunny.flac -=- CDDA (99%)
09 -=- 09 - Mamiko (Drama).flac -=- CDDA (99%)
10 -=- 10 - Ohgiri (Drama).flac -=- CDDA (100%)
11 -=- 11 - Harumi (Drama).flac -=- CDDA (99%)
12 -=- 12 - High Risk.flac -=- CDDA (100%)
13 -=- 13 - Weekend.flac -=- CDDA (100%)
14 -=- 14 - Being Bitten (Drama).flac -=- CDDA (100%)
15 -=- 15 - Another Morning.flac -=- CDDA (100%)
16 -=- 16 - Last Dinosaur.flac -=- CDDA (100%)
17 -=- 17 - I think I can.flac -=- CDDA (100%)

Сводка 99,82% CDDA

143901380

OST 3
Жанр: OST
Год первого издания: 2005
Тип релиза: tracks+.cue
Аудио кодек: FLAC
Битрейт аудио: lossless
Продолжительность: 00:55:28
Источник: What.CD (ben7337)

Треклист:
01. Sad Sad Kiddie
02. Sleepy Head
03. I Think I Can
04. Blues Drive Monster
05. CARNIVAL
06. Come Down
07. Crazy Sunshine
08. STALKER
09. Nightmare
10. Funny Bunny
11. Beautiful Morning With You
12. Advice
13. RUNNERS HIGH
14. HYBRID RAINBOW
15. LITTLE BUSTERS
16. LAST DINOSAUR
17. Ride On Shooting Star

Код:

EAC extraction logfile from 10. November 2006, 5:40 for CD
The Pillows / FLCL OST 3

Used drive  : SAMSUNG CDRW/DVD SM-352F   Adapter: 0  ID: 0
Read mode   : Secure with NO C2, accurate stream, disable cache
Read offset correction : 6
Overread into Lead-In and Lead-Out : No

Used output format : C:\Documents and Settings\Kyle\My Documents\Apps\AudioChecker\Codecs\FLAC\flac.exe   (User Defined Encoder)
                     128 kBit/s
                     Additional command line options : -V -8 -T "artist=%a" -T "title=%t" -T "album=%g" -T "date=%y" -T "tracknumber=%n" -T "genre=%m" %s

Other options      :
    Fill up missing offset samples with silence : Yes
    Delete leading and trailing silent blocks : No
    Installed external ASPI interface

Track  1
     Filename C:\Documents and Settings\Kyle\My Documents\Torrent Shiznite\FLCL Complete Collection [FLAC]\OST 3 (2005)\01 - Sad Sad Kiddie.wav

     Pre-gap length  0:00:02.00

     Peak level 98.7 %
     Track quality 100.0 %
     Test CRC F4315D60
     Copy CRC F4315D60
     Copy OK

Track  2
     Filename C:\Documents and Settings\Kyle\My Documents\Torrent Shiznite\FLCL Complete Collection [FLAC]\OST 3 (2005)\02 - Sleepy Head.wav

     Pre-gap length  0:00:01.15

     Peak level 98.7 %
     Track quality 100.0 %
     Test CRC BACA3AAB
     Copy CRC BACA3AAB
     Copy OK

Track  3
     Filename C:\Documents and Settings\Kyle\My Documents\Torrent Shiznite\FLCL Complete Collection [FLAC]\OST 3 (2005)\03 - I Think I Can.wav

     Pre-gap length  0:00:01.35

     Peak level 98.7 %
     Track quality 100.0 %
     Test CRC 2389F5A1
     Copy CRC 2389F5A1
     Copy OK

Track  4
     Filename C:\Documents and Settings\Kyle\My Documents\Torrent Shiznite\FLCL Complete Collection [FLAC]\OST 3 (2005)\04 - Blues Drive Monster.wav

     Peak level 98.7 %
     Track quality 100.0 %
     Test CRC B3C91126
     Copy CRC B3C91126
     Copy OK

Track  5
     Filename C:\Documents and Settings\Kyle\My Documents\Torrent Shiznite\FLCL Complete Collection [FLAC]\OST 3 (2005)\05 - CARNIVAL.wav

     Peak level 93.2 %
     Track quality 100.0 %
     Test CRC F865E01B
     Copy CRC F865E01B
     Copy OK

Track  6
     Filename C:\Documents and Settings\Kyle\My Documents\Torrent Shiznite\FLCL Complete Collection [FLAC]\OST 3 (2005)\06 - Come Down.wav

     Peak level 98.7 %
     Track quality 100.0 %
     Test CRC A38CBA05
     Copy CRC A38CBA05
     Copy OK

Track  7
     Filename C:\Documents and Settings\Kyle\My Documents\Torrent Shiznite\FLCL Complete Collection [FLAC]\OST 3 (2005)\07 - Crazy Sunshine.wav

     Peak level 98.7 %
     Track quality 100.0 %
     Test CRC 14097803
     Copy CRC 14097803
     Copy OK

Track  8
     Filename C:\Documents and Settings\Kyle\My Documents\Torrent Shiznite\FLCL Complete Collection [FLAC]\OST 3 (2005)\08 - STALKER.wav

     Peak level 96.4 %
     Track quality 99.9 %
     Test CRC F568F492
     Copy CRC F568F492
     Copy OK

Track  9
     Filename C:\Documents and Settings\Kyle\My Documents\Torrent Shiznite\FLCL Complete Collection [FLAC]\OST 3 (2005)\09 - Nightmare.wav

     Peak level 96.4 %
     Track quality 100.0 %
     Test CRC 8BDBB875
     Copy CRC 8BDBB875
     Copy OK

Track 10
     Filename C:\Documents and Settings\Kyle\My Documents\Torrent Shiznite\FLCL Complete Collection [FLAC]\OST 3 (2005)\10 - Funny Bunny.wav

     Peak level 95.3 %
     Track quality 100.0 %
     Test CRC 2CD051A0
     Copy CRC 2CD051A0
     Copy OK

Track 11
     Filename C:\Documents and Settings\Kyle\My Documents\Torrent Shiznite\FLCL Complete Collection [FLAC]\OST 3 (2005)\11 - Beautiful morning with you.wav

     Peak level 96.4 %
     Track quality 99.9 %
     Test CRC 7A3246CA
     Copy CRC 7A3246CA
     Copy OK

Track 12
     Filename C:\Documents and Settings\Kyle\My Documents\Torrent Shiznite\FLCL Complete Collection [FLAC]\OST 3 (2005)\12 - Advice.wav

     Peak level 98.7 %
     Track quality 100.0 %
     Test CRC CBC35162
     Copy CRC CBC35162
     Copy OK

Track 13
     Filename C:\Documents and Settings\Kyle\My Documents\Torrent Shiznite\FLCL Complete Collection [FLAC]\OST 3 (2005)\13 - RUNNERS HIGH.wav

     Peak level 98.7 %
     Track quality 100.0 %
     Test CRC 68037673
     Copy CRC 68037673
     Copy OK

Track 14
     Filename C:\Documents and Settings\Kyle\My Documents\Torrent Shiznite\FLCL Complete Collection [FLAC]\OST 3 (2005)\14 - HYBRID RAINBOW.wav

     Peak level 92.1 %
     Track quality 99.9 %
     Test CRC 05E00EE5
     Copy CRC 05E00EE5
     Copy OK

Track 15
     Filename C:\Documents and Settings\Kyle\My Documents\Torrent Shiznite\FLCL Complete Collection [FLAC]\OST 3 (2005)\15 - LITTLE BUSTERS.wav

     Peak level 98.7 %
     Track quality 100.0 %
     Test CRC 8AD62578
     Copy CRC 8AD62578
     Copy OK

Track 16
     Filename C:\Documents and Settings\Kyle\My Documents\Torrent Shiznite\FLCL Complete Collection [FLAC]\OST 3 (2005)\16 - LAST DINOSAUR.wav

     Peak level 95.3 %
     Track quality 100.0 %
     Test CRC D40B95DE
     Copy CRC D40B95DE
     Copy OK

Track 17
     Filename C:\Documents and Settings\Kyle\My Documents\Torrent Shiznite\FLCL Complete Collection [FLAC]\OST 3 (2005)\17 - Ride on shooting star.wav

     Peak level 94.2 %
     Track quality 100.0 %
     Test CRC 6788A336
     Copy CRC 6788A336
     Copy OK

No errors occured

End of status report

Код:

REM GENRE Anime
REM DATE 2005
REM DISCID 050D0011
REM COMMENT "ExactAudioCopy v0.95b4"
PERFORMER "The Pillows"
TITLE "FLCL OST 3"
FILE "01 - Sad Sad Kiddie.wav" WAVE
  TRACK 01 AUDIO
    TITLE "Sad Sad Kiddie"
    PERFORMER "The Pillows"
    INDEX 01 00:00:00
  TRACK 02 AUDIO
    TITLE "Sleepy Head"
    PERFORMER "The Pillows"
    INDEX 00 03:11:00
FILE "02 - Sleepy Head.wav" WAVE
    INDEX 01 00:00:00
  TRACK 03 AUDIO
    TITLE "I Think I Can"
    PERFORMER "The Pillows"
    INDEX 00 03:00:50
FILE "03 - I Think I Can.wav" WAVE
    INDEX 01 00:00:00
FILE "04 - Blues Drive Monster.wav" WAVE
  TRACK 04 AUDIO
    TITLE "Blues Drive Monster"
    PERFORMER "The Pillows"
    INDEX 01 00:00:00
FILE "05 - CARNIVAL.wav" WAVE
  TRACK 05 AUDIO
    TITLE "CARNIVAL"
    PERFORMER "The Pillows"
    INDEX 01 00:00:00
FILE "06 - Come Down.wav" WAVE
  TRACK 06 AUDIO
    TITLE "Come Down"
    PERFORMER "The Pillows"
    INDEX 01 00:00:00
FILE "07 - Crazy Sunshine.wav" WAVE
  TRACK 07 AUDIO
    TITLE "Crazy Sunshine"
    PERFORMER "The Pillows"
    INDEX 01 00:00:00
FILE "08 - STALKER.wav" WAVE
  TRACK 08 AUDIO
    TITLE "STALKER"
    PERFORMER "The Pillows"
    INDEX 01 00:00:00
FILE "09 - Nightmare.wav" WAVE
  TRACK 09 AUDIO
    TITLE "Nightmare"
    PERFORMER "The Pillows"
    INDEX 01 00:00:00
FILE "10 - Funny Bunny.wav" WAVE
  TRACK 10 AUDIO
    TITLE "Funny Bunny"
    PERFORMER "The Pillows"
    INDEX 01 00:00:00
FILE "11 - Beautiful morning with you.wav" WAVE
  TRACK 11 AUDIO
    TITLE "Beautiful morning with you"
    PERFORMER "The Pillows"
    INDEX 01 00:00:00
FILE "12 - Advice.wav" WAVE
  TRACK 12 AUDIO
    TITLE "Advice"
    PERFORMER "The Pillows"
    INDEX 01 00:00:00
FILE "13 - RUNNERS HIGH.wav" WAVE
  TRACK 13 AUDIO
    TITLE "RUNNERS HIGH"
    PERFORMER "The Pillows"
    INDEX 01 00:00:00
FILE "14 - HYBRID RAINBOW.wav" WAVE
  TRACK 14 AUDIO
    TITLE "HYBRID RAINBOW"
    PERFORMER "The Pillows"
    INDEX 01 00:00:00
FILE "15 - LITTLE BUSTERS.wav" WAVE
  TRACK 15 AUDIO
    TITLE "LITTLE BUSTERS"
    PERFORMER "The Pillows"
    INDEX 01 00:00:00
FILE "16 - LAST DINOSAUR.wav" WAVE
  TRACK 16 AUDIO
    TITLE "LAST DINOSAUR"
    PERFORMER "The Pillows"
    INDEX 01 00:00:00
FILE "17 - Ride on shooting star.wav" WAVE
  TRACK 17 AUDIO
    TITLE "Ride on shooting star"
    PERFORMER "The Pillows"
    INDEX 01 00:00:00

Код:

AUDIOCHECKER v2.0 beta (build 457) - by Dester - opdester@freemail.hu
~~~~~~~~~~~~~~~~~~~~~~~~~~~~~~~~~~
-=== НЕ РЕДАКТИРУЙТЕ ЭТОТ ФАЙЛ! ===-

Путь: ...\Various Artists - OST 3 (FLAC)

01 -=- 01 - Sad Sad Kiddie.flac -=- CDDA (99%)
02 -=- 02 - Sleepy Head.flac -=- CDDA (100%)
03 -=- 03 - I Think I Can.flac -=- CDDA (100%)
04 -=- 04 - Blues Drive Monster.flac -=- CDDA (100%)
05 -=- 05 - CARNIVAL.flac -=- CDDA (100%)
06 -=- 06 - Come Down.flac -=- CDDA (100%)
07 -=- 07 - Crazy Sunshine.flac -=- CDDA (99%)
08 -=- 08 - STALKER.flac -=- CDDA (100%)
09 -=- 09 - Nightmare.flac -=- CDDA (100%)
10 -=- 10 - Funny Bunny.flac -=- CDDA (100%)
11 -=- 11 - Beautiful morning with you.flac -=- CDDA (100%)
12 -=- 12 - Advice.flac -=- CDDA (100%)
13 -=- 13 - RUNNERS HIGH.flac -=- CDDA (100%)
14 -=- 14 - HYBRID RAINBOW.flac -=- CDDA (100%)
15 -=- 15 - LITTLE BUSTERS.flac -=- CDDA (100%)
16 -=- 16 - LAST DINOSAUR.flac -=- CDDA (100%)
17 -=- 17 - Ride on shooting star.flac -=- CDDA (100%)

Сводка 99,88% CDDA

91642692
info [Профиль]  [ЛС] 

tkilla

Пол: Пол:Муж

Стаж: 8 лет 9 месяцев

Сообщений: 10

Россия
Рейтинг

post 02-Июн-2010 17:59 (спустя 5 часов) [-]0[+]

[Цитировать] 

люблю Pillows

_________________
будда- тот кто поступает как будда
info [Профиль]  [ЛС] 

agerage

Пол: Пол:Муж

Стаж: 8 лет 10 месяцев

Сообщений: 837

Япония
Рейтинг

post 02-Июн-2010 18:03 (спустя 3 минуты) [-]0[+]

[Цитировать] 

Музыка очень классная в анимехе, The Pillows - супер группа, давно качал, но только в той раздаче присутсвовало только 2 CD. Исправлю ка....
info [Профиль]  [ЛС] 
Показать сообщения:    
Ответить на тему

Текущее время: 22-Авг 07:54

Часовой пояс: GMT + 4



Вы не можете начинать темы
Вы не можете отвечать на сообщения
Вы не можете редактировать свои сообщения
Вы не можете удалять свои сообщения
Вы не можете голосовать в опросах
Вы не можете прикреплять файлы к сообщениям
Вы не можете скачивать файлы