Ошибка

До окончания фрилича осталось:


(Electronic, Ambient, New Age, Instrumental, Meditation) Lisa Moskow & Robert Rich - Yearning - 1995, FLAC (tracks+.cue), lossless

Ответить на тему
 
Автор Сообщение

mdanet

Пол: Пол:Муж

Стаж: 11 лет

Сообщений: 427

Россия
Рейтинг

post 29-Мар-2024 00:58 0[+]

[Цитировать] 

Lisa Moskow & Robert Rich - Yearning


pic="https://i7.imageban.ru/out/2024/03/28/944702defbb0ad14f5f720976b2a2961.jpg"


Жанр: Electronic, Ambient, New Age, Instrumental, Meditation
Год издания данного носителя: 1995
Страна-производитель носителя: США
Лейбл: Fathom/Hearts of Space Records
Каталоговый номер: HS11050-2
Аудио кодек: FLAC
Тип рипа: tracks+.cue
Битрейт аудио: lossless
Продолжительность: 00:59:40
Источник (релизер): WhatCD
Полиграфия: Отсутствует
01. Bija (10:31)
02. Suspension (09:50)
03. Nada (08:50)
04. Kali (07:50)
05. A Thousand Tears (11:40)
06. The Mirror (10:58)
Exact Audio Copy V1.3 from 2. September 2016 

EAC extraction logfile from 16. April 2019, 22:14

Robert Rich & Lisa Moskow / Yearning

Used drive : TSSTcorpCDDVDW SN-208FB Adapter: 1 ID: 0

Read mode : Secure
Utilize accurate stream : Yes
Defeat audio cache : Yes
Make use of C2 pointers : No

Read offset correction : 6
Overread into Lead-In and Lead-Out : No
Fill up missing offset samples with silence : Yes
Delete leading and trailing silent blocks : No
Null samples used in CRC calculations : Yes
Used interface : Native Win32 interface for Win NT & 2000
Gap handling : Appended to previous track

Used output format : User Defined Encoder
Selected bitrate : 1024 kBit/s
Quality : High
Add ID3 tag : No
Command line compressor : C:Program Files (x86)Exact Audio CopyFlacflac.exe
Additional command line options : -8 -V -T "ARTIST=%artist%" -T "TITLE=%title%" -T "ALBUM=%albumtitle%" -T "DATE=%year%" -T "TRACKNUMBER=%tracknr%" -T "GENRE=%genre%" -T "PERFORMER=%albuminterpret%" -T "COMPOSER=%composer%" %haslyrics%--tag-from-file=LYRICS="%lyricsfile%"%haslyrics% -T "ALBUMARTIST=%albumartist%" -T "DISCNUMBER=%cdnumber%" -T "TOTALDISCS=%totalcds%" -T "TOTALTRACKS=%numtracks%" -T "COMMENT=%comment%" %source% -o %dest%

TOC of the extracted CD

Track | Start | Length | Start sector | End sector
---------------------------------------------------------
1 | 0:00.00 | 10:31.00 | 0 | 47324
2 | 10:31.00 | 9:50.00 | 47325 | 91574
3 | 20:21.00 | 8:50.00 | 91575 | 131324
4 | 29:11.00 | 7:50.00 | 131325 | 166574
5 | 37:01.00 | 11:40.00 | 166575 | 219074
6 | 48:41.00 | 10:58.57 | 219075 | 268481

Track 1

Filename C:UsersGirkGirklintonMusic�1 - Bija.wav

Pre-gap length 0:00:02.00

Peak level 99.9 %
Extraction speed 1.3 X
Track quality 100.0 %
Test CRC C2FD0E4B
Copy CRC C2FD0E4B
Accurately ripped (confidence 4) [19F45B8D] (AR v2)
Copy OK

Track 2

Filename C:UsersGirkGirklintonMusic�2 - Suspension.wav

Peak level 94.8 %
Extraction speed 1.6 X
Track quality 100.0 %
Test CRC 41B06C40
Copy CRC 41B06C40
Accurately ripped (confidence 4) [5CF25560] (AR v2)
Copy OK

Track 3

Filename C:UsersGirkGirklintonMusic�3 - Nada.wav

Peak level 82.6 %
Extraction speed 1.8 X
Track quality 100.0 %
Test CRC CCF4270E
Copy CRC CCF4270E
Accurately ripped (confidence 4) [6834E136] (AR v2)
Copy OK

Track 4

Filename C:UsersGirkGirklintonMusic�4 - Kali.wav

Peak level 85.8 %
Extraction speed 1.9 X
Track quality 100.0 %
Test CRC DCC11D77
Copy CRC DCC11D77
Accurately ripped (confidence 3) [25EA806E] (AR v2)
Copy OK

Track 5

Filename C:UsersGirkGirklintonMusic�5 - A Thousand Tears.wav

Peak level 96.1 %
Extraction speed 2.2 X
Track quality 100.0 %
Test CRC AFAE080C
Copy CRC AFAE080C
Accurately ripped (confidence 4) [83A8E590] (AR v2)
Copy OK

Track 6

Filename C:UsersGirkGirklintonMusic�6 - The Mirror.wav

Peak level 88.7 %
Extraction speed 2.4 X
Track quality 100.0 %
Test CRC DED43513
Copy CRC DED43513
Accurately ripped (confidence 3) [4F186942] (AR v2)
Copy OK

All tracks accurately ripped

No errors occurred

End of status report

---- CUETools DB Plugin V2.1.6

[CTDB TOCID: 2APSXnHellXXGizCpCfuvHOVBt0-] found
Submit result: 2APSXnHellXXGizCpCfuvHOVBt0- has been confirmed
Track | CTDB Status
1 | (18/18) Accurately ripped
2 | (18/18) Accurately ripped
3 | (18/18) Accurately ripped
4 | (18/18) Accurately ripped
5 | (15/18) Accurately ripped
6 | (17/18) Accurately ripped

==== Log checksum D6C83E2B75D19A3350ED84633748BE44E6A7F390C015032E688EC5506F53CF78 ====
REM DATE 1995 
REM DISCID 3F0DFB06
REM COMMENT "ExactAudioCopy v1.3"
PERFORMER "Robert Rich & Lisa Moskow"
TITLE "Yearning"
REM COMPOSER ""
FILE "01 - Bija.wav" WAVE
TRACK 01 AUDIO
TITLE "Bija"
PERFORMER "Robert Rich & Lisa Moskow"
REM COMPOSER ""
INDEX 01 00:00:00
FILE "02 - Suspension.wav" WAVE
TRACK 02 AUDIO
TITLE "Suspension"
PERFORMER "Robert Rich & Lisa Moskow"
REM COMPOSER ""
INDEX 01 00:00:00
FILE "03 - Nada.wav" WAVE
TRACK 03 AUDIO
TITLE "Nada"
PERFORMER "Robert Rich & Lisa Moskow"
REM COMPOSER ""
INDEX 01 00:00:00
FILE "04 - Kali.wav" WAVE
TRACK 04 AUDIO
TITLE "Kali"
PERFORMER "Robert Rich & Lisa Moskow"
REM COMPOSER ""
INDEX 01 00:00:00
FILE "05 - A Thousand Tears.wav" WAVE
TRACK 05 AUDIO
TITLE "A Thousand Tears"
PERFORMER "Robert Rich & Lisa Moskow"
REM COMPOSER ""
INDEX 01 00:00:00
FILE "06 - The Mirror.wav" WAVE
TRACK 06 AUDIO
TITLE "The Mirror"
PERFORMER "Robert Rich & Lisa Moskow"
REM COMPOSER ""
INDEX 01 00:00:00
AUDIOCHECKER v2.0 beta (build 457) - by Dester - opdester@freemail.hu
~~~~~~~~~~~~~~~~~~~~~~~~~~~~~~~~~~
-=== DO NOT EDIT THIS FILE! ===-

Path: ...Robert Rich & Lisa Moskow - Yearning (1995) [CD FLAC]

1 -=- 06 - The Mirror.flac -=- CDDA (100%)
2 -=- 01 - Bija.flac -=- CDDA (100%)
3 -=- 02 - Suspension.flac -=- CDDA (100%)
4 -=- 03 - Nada.flac -=- CDDA (100%)
5 -=- 04 - Kali.flac -=- CDDA (100%)
6 -=- 05 - A Thousand Tears.flac -=- CDDA (100%)

Summary 100,00% CDDA

16848884
          
          
          
          
          
          
info [Профиль]  [ЛС] 
Показать сообщения:    
Ответить на тему

Текущее время: 18-Май 11:10

Часовой пояс: GMT + 4



Вы не можете начинать темы
Вы не можете отвечать на сообщения
Вы не можете редактировать свои сообщения
Вы не можете удалять свои сообщения
Вы не можете голосовать в опросах
Вы не можете прикреплять файлы к сообщениям
Вы не можете скачивать файлы