Ошибка

(Synthwave / Synthpop) The Midnight - Kids - 2018, FLAC (tracks), lossless

Ответить на тему
 
Автор Сообщение

Slava2312

Пол: Пол:Муж

Стаж: 4 года 3 месяца

Сообщений: 12

Россия
Рейтинг

post 05-Дек-2018 01:34 0[+]

[Цитировать] 

The Midnight - Kids


pic="https://i108.fastpic.ru/big/2018/1205/e4/4181b96f54869f04495354c3a4f249e4.jpg"



Жанр: Synthwave / Synthpop
Год издания данного носителя: 2018
Страна-производитель носителя: USA
Лейбл: Not On Label (The Midnight Self-released)
Каталоговый номер: MDNT004
Аудио кодек: FLAC
Тип рипа: tracks
Битрейт аудио: lossless
Продолжительность: 00:33:56
Источник (релизер): bandcamp.com
Треклист:
[3:10] 01. The Midnight - Youth
[4:32] 02. The Midnight - Wave
[2:14] 03. The Midnight - Kids (Prelude)
[4:37] 04. The Midnight - Lost Boy
[0:58] 05. The Midnight - Saturday Mornings (Interlude)
[4:17] 06. The Midnight - Explorers
[4:02] 07. The Midnight - America 2
[4:04] 08. The Midnight - Arcade Dreams
[6:04] 09. The Midnight - Kids (Reprise)
----------------------- 
DON'T MODIFY THIS FILE
-----------------------
PERFORMER: auCDtect Task Manager, ver. 1.5.1RC3 build 1.5.1.4
Copyright (c) 2008-2010 y-soft. All rights reserved
http://y-soft.org
ANALYZER: auCDtect: CD records authenticity detector, version 0.8.2
Copyright (c) 2004 Oleg Berngardt. All rights reserved.
Copyright (c) 2004 Alexander Djourik. All rights reserved.
FILE: 09 - Kids (Reprise).flac
Size: 42648241 Hash: 0BBB4FFB77476F57C198DB10EB28CDEF Accuracy: -m0
Conclusion: CDDA 100%
Signature: 04A198A5D112B47711CBFCC993F02255CBD5CC42
FILE: 08 - Arcade Dreams.flac
Size: 28237716 Hash: FBF2E289BDC72CD25D874D0F4557DADB Accuracy: -m0
Conclusion: CDDA 99%
Signature: AC9D54F7387306335AD1BDC9969A6027BF5C3B45
FILE: 07 - America 2.flac
Size: 27941062 Hash: C22783C1E914AB876CCBDC14F8C42EFD Accuracy: -m0
Conclusion: CDDA 100%
Signature: F2CDB88C9441F109D8F7DE57931AFF74223F1E31
FILE: 06 - Explorers.flac
Size: 32639138 Hash: F66CEA4496513779D74A042358D5636A Accuracy: -m0
Conclusion: CDDA 100%
Signature: F6A8BF8CBE9EC89CDA1DED23AB506C63724A3BA0
FILE: 05 - Saturday Mornings (Interlude).flac
Size: 5600804 Hash: 516FDD652562BB261379759FE7069CDE Accuracy: -m0
Conclusion: CDDA 100%
Signature: C0DC41C0A82485CCA7C883026CD86793B1B63494
FILE: 04 - Lost Boy.flac
Size: 31921349 Hash: AA80B37A6BAD0CC21502F4D893A1BEE0 Accuracy: -m0
Conclusion: CDDA 100%
Signature: CDE0E72C7A7FF6F1C0E28919BE21767C663746CF
FILE: 03 - Kids (Prelude).flac
Size: 15553178 Hash: A663335E027F137312F8A7777F6AC305 Accuracy: -m0
Conclusion: CDDA 100%
Signature: 04A3A48C5786D0C1A3F6C75A818AE1DEF0D189DF
FILE: 02 - Wave.flac
Size: 32240881 Hash: B725B7E100CC11268869CDC68C0E1849 Accuracy: -m0
Conclusion: CDDA 100%
Signature: 32CFC13DB6905C1D2D60FA55EEF693793136F93B
FILE: 01 - Youth.flac
Size: 19162683 Hash: 92FF6A23BF98FB03AB3D372C4635C381 Accuracy: -m0
Conclusion: CDDA 100%
Signature: 5BA007FA1D88088CF55DA5B5E6E7EC20D4E3EF82
foobar2000 1.4.1 / Замер динамического диапазона (DR) 1.1.1 
Дата отчёта: 2018-12-05 01:21:33

--------------------------------------------------------------------------------
Анализ: The Midnight / Kids
--------------------------------------------------------------------------------

DR Пики RMS Продолжительность трека
--------------------------------------------------------------------------------
DR11 -0.89 дБ -14.60 дБ 3:10 01-Youth
DR6 0.00 дБ -7.76 дБ 4:32 02-Wave
DR9 0.00 дБ -11.11 дБ 2:14 03-Kids (Prelude)
DR6 0.00 дБ -7.41 дБ 4:37 04-Lost Boy
DR13 -0.33 дБ -17.32 дБ 0:58 05-Saturday Mornings (Interlude)
DR5 0.00 дБ -6.60 дБ 4:17 06-Explorers
DR4 0.00 дБ -6.53 дБ 4:02 07-America 2
DR9 0.00 дБ -10.90 дБ 4:04 08-Arcade Dreams
DR6 0.00 дБ -8.37 дБ 6:04 09-Kids (Reprise)
--------------------------------------------------------------------------------

Количество треков: 9
Реальные значения DR: DR8

Частота: 44100 Гц
Каналов: 2
Разрядность: 16
Битрейт: 930 кбит/с
Кодек: FLAC
================================================================================

info [Профиль]  [ЛС] 
Показать сообщения:    
Ответить на тему

Текущее время: 10-Дек 02:54

Часовой пояс: GMT + 4



Вы не можете начинать темы
Вы не можете отвечать на сообщения
Вы не можете редактировать свои сообщения
Вы не можете удалять свои сообщения
Вы не можете голосовать в опросах
Вы не можете прикреплять файлы к сообщениям
Вы не можете скачивать файлы