Ошибка

(Psychedelic folk, Drone, Avant-folk) Natural Snow Buildings - Terror's Horns - 2015, FLAC (tracks+.cue), lossless

Ответить на тему
 
Автор Сообщение

chernichnoe

Пол: Пол:Жен

Стаж: 4 года 9 месяцев

Сообщений: 34

Россия
Рейтинг

post 20-Фев-2018 13:32 0[+]

[Цитировать] 

Natural Snow Buildings - Terror's Horns


pic="https://s3.amazonaws.com/delivery.midheaven.com/t/132900/images/600197010822_main.jpg"


Жанр: Psychedelic folk, Drone, Avant-folk
Год издания данного носителя: 2015
Страна-производитель носителя: UK
Лейбл: Ba Da Bing!
Каталоговый номер: BING 108CD
Аудио кодек: FLAC
Тип рипа: tracks+.cue
Битрейт аудио: lossless
Продолжительность: 00:44:57

Треклист:
1. Dawn On A Buck Skin
2. Saturna's Black Belt
3. Twilight Bells, Terror's Horns
4. King In Yellow
5. People In The Hills
6. Sun Tower
7. The Rising Portal
8. Orion Is Dead
X Lossless Decoder version 20141129a (148.2) 

XLD extraction logfile from 2015-08-24 12:45:01 -0400

Natural Snow Buildings / Terror's Horn

Used drive : OPTIARC DVD RW AD-5970H (revision 3APH)
Media type : Pressed CD

Ripper mode : XLD Secure Ripper
Disable audio cache : OK for the drive with a cache less than 1375KiB
Make use of C2 pointers : NO
Read offset correction : 48
Max retry count : 20
Gap status : Analyzed, Appended (except HTOA)

TOC of the extracted CD
Track | Start | Length | Start sector | End sector
---------------------------------------------------------
1 | 00:00:00 | 03:22:44 | 0 | 15193
2 | 03:22:44 | 02:53:66 | 15194 | 28234
3 | 06:16:35 | 04:06:25 | 28235 | 46709
4 | 10:22:60 | 09:50:23 | 46710 | 90982
5 | 20:13:08 | 03:34:38 | 90983 | 107070
6 | 23:47:46 | 04:19:47 | 107071 | 126542
7 | 28:07:18 | 12:58:65 | 126543 | 184957
8 | 41:06:08 | 04:02:15 | 184958 | 203122

AccurateRip Summary
Disc not found in AccurateRip DB.

All Tracks
Album gain : -11.42 dB
Peak : 0.998901
Statistics
Read error : 0
Jitter error (maybe fixed) : 0
Retry sector count : 0
Damaged sector count : 0

Track 01
Filename : /Users/alexandercaulfield/Music/Natural Snow Buildings - Terror's Horn [FLAC]/01 Dawn On A Buck Skin.flac
Pre-gap length : 00:02:00

Track gain : -8.60 dB
Peak : 0.998901
CRC32 hash (test run) : F9E96424
CRC32 hash : F9E96424
CRC32 hash (skip zero) : 96D2D3BA
AccurateRip v1 signature : 1DE8852C
AccurateRip v2 signature : CB99C186
->Track not present in AccurateRip database.
Statistics
Read error : 0
Jitter error (maybe fixed) : 0
Retry sector count : 0
Damaged sector count : 0

Track 02
Filename : /Users/alexandercaulfield/Music/Natural Snow Buildings - Terror's Horn [FLAC]/02 Saturna's Black Belt.flac
Pre-gap length : 00:02:00

Track gain : -6.96 dB
Peak : 0.924774
CRC32 hash (test run) : 5CEF3E70
CRC32 hash : 5CEF3E70
CRC32 hash (skip zero) : E79319CA
AccurateRip v1 signature : 10B934B6
AccurateRip v2 signature : 9193AF95
->Track not present in AccurateRip database.
Statistics
Read error : 0
Jitter error (maybe fixed) : 0
Retry sector count : 0
Damaged sector count : 0

Track 03
Filename : /Users/alexandercaulfield/Music/Natural Snow Buildings - Terror's Horn [FLAC]/03 Twilight Bells, Terror's Horns.flac
Pre-gap length : 00:02:00

Track gain : -7.76 dB
Peak : 0.998901
CRC32 hash (test run) : A81A5CFF
CRC32 hash : A81A5CFF
CRC32 hash (skip zero) : 1A3D4449
AccurateRip v1 signature : E18E7289
AccurateRip v2 signature : 23DC2A5B
->Track not present in AccurateRip database.
Statistics
Read error : 0
Jitter error (maybe fixed) : 0
Retry sector count : 0
Damaged sector count : 0

Track 04
Filename : /Users/alexandercaulfield/Music/Natural Snow Buildings - Terror's Horn [FLAC]/04 King In Yellow.flac
Pre-gap length : 00:02:00

Track gain : -9.89 dB
Peak : 0.998901
CRC32 hash (test run) : BEE9FF96
CRC32 hash : BEE9FF96
CRC32 hash (skip zero) : 574422ED
AccurateRip v1 signature : 84C5D6F4
AccurateRip v2 signature : C8209284
->Track not present in AccurateRip database.
Statistics
Read error : 0
Jitter error (maybe fixed) : 0
Retry sector count : 0
Damaged sector count : 0

Track 05
Filename : /Users/alexandercaulfield/Music/Natural Snow Buildings - Terror's Horn [FLAC]/05 People In The Hills.flac
Pre-gap length : 00:02:00

Track gain : -8.71 dB
Peak : 0.998901
CRC32 hash (test run) : E64308A4
CRC32 hash : E64308A4
CRC32 hash (skip zero) : 7E57D64B
AccurateRip v1 signature : AFAD422E
AccurateRip v2 signature : 4298C2A0
->Track not present in AccurateRip database.
Statistics
Read error : 0
Jitter error (maybe fixed) : 0
Retry sector count : 0
Damaged sector count : 0

Track 06
Filename : /Users/alexandercaulfield/Music/Natural Snow Buildings - Terror's Horn [FLAC]/06 Sun Tower.flac
Pre-gap length : 00:02:00

Track gain : -9.82 dB
Peak : 0.998901
CRC32 hash (test run) : 9F416D88
CRC32 hash : 9F416D88
CRC32 hash (skip zero) : 4F1064C6
AccurateRip v1 signature : 8157B330
AccurateRip v2 signature : 24902AC4
->Track not present in AccurateRip database.
Statistics
Read error : 0
Jitter error (maybe fixed) : 0
Retry sector count : 0
Damaged sector count : 0

Track 07
Filename : /Users/alexandercaulfield/Music/Natural Snow Buildings - Terror's Horn [FLAC]/07 The Rising Portal.flac
Pre-gap length : 00:02:00

Track gain : -12.26 dB
Peak : 0.998901
CRC32 hash (test run) : E5EF14E7
CRC32 hash : E5EF14E7
CRC32 hash (skip zero) : ED6D5148
AccurateRip v1 signature : D8C50B2D
AccurateRip v2 signature : 7E42A1FF
->Track not present in AccurateRip database.
Statistics
Read error : 0
Jitter error (maybe fixed) : 0
Retry sector count : 0
Damaged sector count : 0

Track 08
Filename : /Users/alexandercaulfield/Music/Natural Snow Buildings - Terror's Horn [FLAC]/08 Orion Is Dead.flac
Pre-gap length : 00:02:00

Track gain : -9.81 dB
Peak : 0.998901
CRC32 hash (test run) : D4B32303
CRC32 hash : D4B32303
CRC32 hash (skip zero) : 4BB8340A
AccurateRip v1 signature : 3041FCB2
AccurateRip v2 signature : FCC1BA79
->Track not present in AccurateRip database.
Statistics
Read error : 0
Jitter error (maybe fixed) : 0
Retry sector count : 0
Damaged sector count : 0

No errors occurred

End of status report

-----BEGIN XLD SIGNATURE-----
DaFKn2OgX7zbGEsuZux59ZuaR6OjncQoUT8CLfscuYGXwaaBNdL6JGCMuGM0rpzXOiwc7vgTb6fWQVPpHVAgl1SISbeSNMpjLHWccsC
-----END XLD SIGNATURE-----
TITLE "Terror's Horns" 
PERFORMER "Natural Snow Buildings"
REM DATE "2015"
REM DISCNUMBER 1
REM TOTALDISCS 1
REM DISCID 6B0A9408
REM REPLAYGAIN_ALBUM_GAIN -11.42 dB
REM REPLAYGAIN_ALBUM_PEAK 0.998901
FILE "01 Dawn On A Buck Skin.flac" WAVE
TRACK 01 AUDIO
TITLE "Dawn On A Buck Skin"
ISRC USCPT1510111
FLAGS DCP
REM REPLAYGAIN_TRACK_GAIN -8.60 dB
REM REPLAYGAIN_TRACK_PEAK 0.998901
INDEX 01 00:00:00
TRACK 02 AUDIO
TITLE "Saturna's Black Belt"
ISRC USCPT1510112
FLAGS DCP
REM REPLAYGAIN_TRACK_GAIN -6.96 dB
REM REPLAYGAIN_TRACK_PEAK 0.924774
INDEX 00 03:20:44
FILE "02 Saturna's Black Belt.flac" WAVE
INDEX 01 00:00:00
TRACK 03 AUDIO
TITLE "Twilight Bells, Terror's Horns"
ISRC USCPT1510113
FLAGS DCP
REM REPLAYGAIN_TRACK_GAIN -7.76 dB
REM REPLAYGAIN_TRACK_PEAK 0.998901
INDEX 00 02:51:66
FILE "03 Twilight Bells, Terror's Horns.flac" WAVE
INDEX 01 00:00:00
TRACK 04 AUDIO
TITLE "King In Yellow"
ISRC USCPT1510114
FLAGS DCP
REM REPLAYGAIN_TRACK_GAIN -9.89 dB
REM REPLAYGAIN_TRACK_PEAK 0.998901
INDEX 00 04:04:25
FILE "04 King In Yellow.flac" WAVE
INDEX 01 00:00:00
TRACK 05 AUDIO
TITLE "People In The Hills"
ISRC USCPT1510115
FLAGS DCP
REM REPLAYGAIN_TRACK_GAIN -8.71 dB
REM REPLAYGAIN_TRACK_PEAK 0.998901
INDEX 00 09:48:23
FILE "05 People In The Hills.flac" WAVE
INDEX 01 00:00:00
TRACK 06 AUDIO
TITLE "Sun Tower"
ISRC USCPT1510116
FLAGS DCP
REM REPLAYGAIN_TRACK_GAIN -9.82 dB
REM REPLAYGAIN_TRACK_PEAK 0.998901
INDEX 00 03:32:38
FILE "06 Sun Tower.flac" WAVE
INDEX 01 00:00:00
TRACK 07 AUDIO
TITLE "The Rising Portal"
ISRC USCPT1510117
FLAGS DCP
REM REPLAYGAIN_TRACK_GAIN -12.26 dB
REM REPLAYGAIN_TRACK_PEAK 0.998901
INDEX 00 04:17:47
FILE "07 The Rising Portal.flac" WAVE
INDEX 01 00:00:00
TRACK 08 AUDIO
TITLE "Orion Is Dead"
ISRC USCPT1510118
FLAGS DCP
REM REPLAYGAIN_TRACK_GAIN -9.81 dB
REM REPLAYGAIN_TRACK_PEAK 0.998901
INDEX 00 12:56:65
FILE "08 Orion Is Dead.flac" WAVE
INDEX 01 00:00:00
info [Профиль]  [ЛС] 
Показать сообщения:    
Ответить на тему

Текущее время: 20-Янв 21:39

Часовой пояс: GMT + 4



Вы не можете начинать темы
Вы не можете отвечать на сообщения
Вы не можете редактировать свои сообщения
Вы не можете удалять свои сообщения
Вы не можете голосовать в опросах
Вы не можете прикреплять файлы к сообщениям
Вы не можете скачивать файлы