Ошибка
Загрузка...

(OST) Spice and Wolf | Волчица и пряности - 2008-2009, FLAC (tracks+.cue)+covers, lossles

Ответить на тему
 
Автор Сообщение

Алмаз

Пол: Пол:Муж

Стаж: 7 лет 9 месяцев

Сообщений: 1840

Россия
Рейтинг

post 10-Мар-2012 18:25 0[+]

[Цитировать] 

Волчица и пряности

Общие характеристики:
Производство: Япония | Год выпуска: 2008-2009 | Формат: FLAC | Тип рипа: tracks+.cue | Частота: 44100Гц | Продолжительность: 120 треков - 6:32:59
Альбомы:
OST
Список треков:
  1. Shounin to Ookami to, Tabi no Nibasha [2:46]
  2. Tabi no Tochuu [4:54]
  3. Tooi Yakusoku ha... [1:28]
  4. Shippoto Dansu [2:33]
  5. Yume Nomanimani [1:54]
  6. Hashiru [1:48]
  7. Kagen no Gatsu [2:45]
  8. Tsukiyo Notategami [2:05]
  9. Hitoribocchino Yume [2:14]
  10. Hikaru Wadachi [2:22]
  11. Ikoku no Shirabe [3:35]
  12. Zawazawasuru [2:17]
  13. Hajimeteno Mura [3:16]
  14. Nagai Yoru, Hie ta Gatsu [1:59]
  15. Hamu [2:10]
  16. Yureru Mugi [2:51]
  17. Michi Narumono [1:44]
  18. Yoakemae [1:31]
  19. Kiminomotohe [2:33]
  20. Chiisanatameiki [2:14]
  21. Kenshi Toyopparai [2:06]
  22. Tsuyoi Kaze ga Fui Temo [2:24]
  23. Tadashi ki Tenbin [2:12]
  24. Satoshi ki Nin Tachi [1:10]
  25. Wasure Naide [2:52]
  26. Kurai Mori [2:15]
  27. Matsurinouta [2:51]
  28. Henka [2:18]
  29. Mada Minu Machi he [2:38]
  30. Ringo Hiyori ~ The Wolf Whistling Song (TV Size) [1:36]
  31. Tabi no Tochuu (TV Size) [1:33]

REM GENRE Anime 
REM DATE 2008
REM DISCID BF11181F
REM COMMENT "ExactAudioCopy v1.0b3"
CATALOG 4580226561036
PERFORMER ""
TITLE "Spice and Wolf OST"
FILE "01 - Shounin to Ookami to, Tabi no Nibasha.wav" WAVE
TRACK 01 AUDIO
TITLE "Shounin to Ookami to, Tabi no Nibasha"
PERFORMER "Yuji Yoshino"
INDEX 01 00:00:00
TRACK 02 AUDIO
TITLE "Tabi no Tochuu"
PERFORMER "Yuji Yoshino"
INDEX 00 02:45:00
FILE "02 - Tabi no Tochuu.wav" WAVE
INDEX 01 00:00:00
TRACK 03 AUDIO
TITLE "Tooi Yakusoku ha..."
PERFORMER "Yuji Yoshino"
INDEX 00 04:51:30
FILE "03 - Tooi Yakusoku ha....wav" WAVE
INDEX 01 00:00:00
TRACK 04 AUDIO
TITLE "Shippoto Dansu"
PERFORMER "Yuji Yoshino"
INDEX 00 01:27:05
FILE "04 - Shippoto Dansu.wav" WAVE
INDEX 01 00:00:00
TRACK 05 AUDIO
TITLE "Yume Nomanimani"
PERFORMER "Yuji Yoshino"
INDEX 00 02:31:40
FILE "05 - Yume Nomanimani.wav" WAVE
INDEX 01 00:00:00
TRACK 06 AUDIO
TITLE "Hashiru"
PERFORMER "Yuji Yoshino"
INDEX 00 01:53:05
FILE "06 - Hashiru.wav" WAVE
INDEX 01 00:00:00
TRACK 07 AUDIO
TITLE "Kagen no Gatsu"
PERFORMER "Yuji Yoshino"
INDEX 00 01:46:10
FILE "07 - Kagen no Gatsu.wav" WAVE
INDEX 01 00:00:00
TRACK 08 AUDIO
TITLE "Tsukiyo Notategami"
PERFORMER "Yuji Yoshino"
INDEX 00 02:44:40
FILE "08 - Tsukiyo Notategami.wav" WAVE
INDEX 01 00:00:00
TRACK 09 AUDIO
TITLE "Hitoribocchino Yume"
PERFORMER "Yuji Yoshino"
INDEX 00 02:03:20
FILE "09 - Hitoribocchino Yume.wav" WAVE
INDEX 01 00:00:00
TRACK 10 AUDIO
TITLE "Hikaru Wadachi"
PERFORMER "Yuji Yoshino"
INDEX 00 02:12:65
FILE "10 - Hikaru Wadachi.wav" WAVE
INDEX 01 00:00:00
TRACK 11 AUDIO
TITLE "Ikoku no Shirabe"
PERFORMER "Yuji Yoshino"
INDEX 00 02:20:20
FILE "11 - Ikoku no Shirabe.wav" WAVE
INDEX 01 00:00:00
TRACK 12 AUDIO
TITLE "Zawazawasuru"
PERFORMER "Yuji Yoshino"
INDEX 00 03:33:25
FILE "12 - Zawazawasuru.wav" WAVE
INDEX 01 00:00:00
TRACK 13 AUDIO
TITLE "Hajimeteno Mura"
PERFORMER "Yuji Yoshino"
INDEX 00 02:16:00
FILE "13 - Hajimeteno Mura.wav" WAVE
INDEX 01 00:00:00
TRACK 14 AUDIO
TITLE "Nagai Yoru, Hie ta Gatsu"
PERFORMER "Yuji Yoshino"
INDEX 00 03:14:20
FILE "14 - Nagai Yoru, Hie ta Gatsu.wav" WAVE
INDEX 01 00:00:00
TRACK 15 AUDIO
TITLE "Hamu"
PERFORMER "Yuji Yoshino"
INDEX 00 01:58:00
FILE "15 - Hamu.wav" WAVE
INDEX 01 00:00:00
TRACK 16 AUDIO
TITLE "Yureru Mugi"
PERFORMER "Yuji Yoshino"
INDEX 00 02:09:05
FILE "16 - Yureru Mugi.wav" WAVE
INDEX 01 00:00:00
TRACK 17 AUDIO
TITLE "Michi Narumono"
PERFORMER "Yuji Yoshino"
INDEX 00 02:49:45
FILE "17 - Michi Narumono.wav" WAVE
INDEX 01 00:00:00
TRACK 18 AUDIO
TITLE "Yoakemae"
PERFORMER "Yuji Yoshino"
INDEX 00 01:42:55
FILE "18 - Yoakemae.wav" WAVE
INDEX 01 00:00:00
TRACK 19 AUDIO
TITLE "Kiminomotohe"
PERFORMER "Yuji Yoshino"
INDEX 00 01:29:35
FILE "19 - Kiminomotohe.wav" WAVE
INDEX 01 00:00:00
TRACK 20 AUDIO
TITLE "Chiisanatameiki"
PERFORMER "Yuji Yoshino"
INDEX 00 02:31:40
FILE "20 - Chiisanatameiki.wav" WAVE
INDEX 01 00:00:00
TRACK 21 AUDIO
TITLE "Kenshi Toyopparai"
PERFORMER "Yuji Yoshino"
INDEX 00 02:12:25
FILE "21 - Kenshi Toyopparai.wav" WAVE
INDEX 01 00:00:00
TRACK 22 AUDIO
TITLE "Tsuyoi Kaze ga Fui Temo"
PERFORMER "Yuji Yoshino"
INDEX 00 02:04:65
FILE "22 - Tsuyoi Kaze ga Fui Temo.wav" WAVE
INDEX 01 00:00:00
TRACK 23 AUDIO
TITLE "Tadashi ki Tenbin"
PERFORMER "Yuji Yoshino"
INDEX 00 02:22:35
FILE "23 - Tadashi ki Tenbin.wav" WAVE
INDEX 01 00:00:00
TRACK 24 AUDIO
TITLE "Satoshi ki Nin Tachi"
PERFORMER "Yuji Yoshino"
INDEX 00 02:10:60
FILE "24 - Satoshi ki Nin Tachi.wav" WAVE
INDEX 01 00:00:00
TRACK 25 AUDIO
TITLE "Wasure Naide"
PERFORMER "Yuji Yoshino"
INDEX 00 01:08:50
FILE "25 - Wasure Naide.wav" WAVE
INDEX 01 00:00:00
TRACK 26 AUDIO
TITLE "Kurai Mori"
PERFORMER "Yuji Yoshino"
INDEX 00 02:50:30
FILE "26 - Kurai Mori.wav" WAVE
INDEX 01 00:00:00
TRACK 27 AUDIO
TITLE "Matsurinouta"
PERFORMER "Yuji Yoshino"
INDEX 00 02:15:00
FILE "27 - Matsurinouta.wav" WAVE
INDEX 01 00:00:00
TRACK 28 AUDIO
TITLE "Henka"
PERFORMER "Yuji Yoshino"
INDEX 00 02:49:70
FILE "28 - Henka.wav" WAVE
INDEX 01 00:00:00
TRACK 29 AUDIO
TITLE "Mada Minu Machi he"
PERFORMER "Yuji Yoshino"
INDEX 00 02:16:30
FILE "29 - Mada Minu Machi he.wav" WAVE
INDEX 01 00:00:00
TRACK 30 AUDIO
TITLE "Ringo Hiyori ~ The Wolf Whistling Song (TV Size)"
PERFORMER "Rocky Chack"
INDEX 00 02:37:00
FILE "30 - Ringo Hiyori ~ The Wolf Whistling Song (TV Size).wav" WAVE
INDEX 01 00:00:00
TRACK 31 AUDIO
TITLE "Tabi no Tochuu (TV Size)"
PERFORMER "Yuji Yoshino"
INDEX 00 01:30:05
FILE "31 - Tabi no Tochuu (TV Size).wav" WAVE
INDEX 01 00:00:00

OST II
Список треков:
  1. Mitsu no Yoake (TV Size) [1:32]
  2. Shukusai Nohajimari [1:07]
  3. Hoshi ta Sakana Tobudou Sake to [2:32]
  4. Nin to Ikyou no Kamigami [5:54]
  5. Honoo no Odori [1:41]
  6. Kino ii Hitobito [2:22]
  7. Kumerusun no Asa [3:38]
  8. Jitsuzonshugi Mono [2:52]
  9. Houjou no Warutsu [2:06]
  10. Seikou ka Muichimon ka [3:28]
  11. Uma Ranai Mizo [1:51]
  12. Kurutta Souba [1:47]
  13. Boudou [2:10]
  14. Wakaki Nendaiki Sakka [2:23]
  15. Ookami to Odoru [1:09]
  16. Hakoniwa no Midori [3:28]
  17. Gatsu wo Karu Kuma [2:51]
  18. Kurai Takurami Itsuwari no Torihiki [2:22]
  19. Kazoku [2:11]
  20. Nezuminoshippo Tei [1:07]
  21. Sakaba no Musume Tachi [1:21]
  22. Shizuka na Doku [4:43]
  23. Yuruyakana Sakamichi [3:38]
  24. Shiawasedeari Tsuduke ru Monogatari [2:29]
  25. Rakuen Soushitsu [3:13]
  26. Matsuri ha Owari, Tabi ha Tsuduki [2:25]
  27. Perfect World (TV Size) [1:32]

REM GENRE Anime 
REM DATE 2009
REM DISCID A50FE91B
REM COMMENT "ExactAudioCopy v1.0b3"
PERFORMER ""
TITLE "Spice and Wolf OST 2"
FILE "01 - Mitsu no Yoake (TV Size).wav" WAVE
TRACK 01 AUDIO
TITLE "Mitsu no Yoake (TV Size)"
PERFORMER "Akino Arai"
INDEX 01 00:00:00
TRACK 02 AUDIO
TITLE "Shukusai Nohajimari"
PERFORMER "Yuji Yoshino"
INDEX 00 01:31:36
FILE "02 - Shukusai Nohajimari.wav" WAVE
INDEX 01 00:00:00
TRACK 03 AUDIO
TITLE "Hoshi ta Sakana Tobudou Sake to"
PERFORMER "Yuji Yoshino"
INDEX 00 01:06:55
FILE "03 - Hoshi ta Sakana Tobudou Sake to.wav" WAVE
INDEX 01 00:00:00
TRACK 04 AUDIO
TITLE "Nin to Ikyou no Kamigami"
PERFORMER "Yuji Yoshino"
INDEX 00 02:30:59
FILE "04 - Nin to Ikyou no Kamigami.wav" WAVE
INDEX 01 00:00:00
TRACK 05 AUDIO
TITLE "Honoo no Odori"
PERFORMER "Yuji Yoshino"
INDEX 00 05:53:46
FILE "05 - Honoo no Odori.wav" WAVE
INDEX 01 00:00:00
TRACK 06 AUDIO
TITLE "Kino ii Hitobito"
PERFORMER "Yuji Yoshino"
INDEX 00 01:41:03
FILE "06 - Kino ii Hitobito.wav" WAVE
INDEX 01 00:00:00
TRACK 07 AUDIO
TITLE "Kumerusun no Asa"
PERFORMER "Yuji Yoshino"
INDEX 00 02:19:11
FILE "07 - Kumerusun no Asa.wav" WAVE
INDEX 01 00:00:00
TRACK 08 AUDIO
TITLE "Jitsuzonshugi Mono"
PERFORMER "Yuji Yoshino"
INDEX 00 03:36:23
FILE "08 - Jitsuzonshugi Mono.wav" WAVE
INDEX 01 00:00:00
TRACK 09 AUDIO
TITLE "Houjou no Warutsu"
PERFORMER "Yuji Yoshino"
INDEX 00 02:49:57
FILE "09 - Houjou no Warutsu.wav" WAVE
INDEX 01 00:00:00
TRACK 10 AUDIO
TITLE "Seikou ka Muichimon ka"
PERFORMER "Yuji Yoshino"
INDEX 00 02:05:19
FILE "10 - Seikou ka Muichimon ka.wav" WAVE
INDEX 01 00:00:00
TRACK 11 AUDIO
TITLE "Uma Ranai Mizo"
PERFORMER "Yuji Yoshino"
INDEX 00 03:25:24
FILE "11 - Uma Ranai Mizo.wav" WAVE
INDEX 01 00:00:00
TRACK 12 AUDIO
TITLE "Kurutta Souba"
PERFORMER "Yuji Yoshino"
INDEX 00 01:48:52
FILE "12 - Kurutta Souba.wav" WAVE
INDEX 01 00:00:00
FILE "13 - Boudou.wav" WAVE
TRACK 13 AUDIO
TITLE "Boudou"
PERFORMER "Yuji Yoshino"
INDEX 01 00:00:00
TRACK 14 AUDIO
TITLE "Wakaki Nendaiki Sakka"
PERFORMER "Yuji Yoshino"
INDEX 00 02:07:41
FILE "14 - Wakaki Nendaiki Sakka.wav" WAVE
INDEX 01 00:00:00
TRACK 15 AUDIO
TITLE "Ookami to Odoru"
PERFORMER "Yuji Yoshino"
INDEX 00 02:19:69
FILE "15 - Ookami to Odoru.wav" WAVE
INDEX 01 00:00:00
TRACK 16 AUDIO
TITLE "Hakoniwa no Midori"
PERFORMER "Yuji Yoshino"
INDEX 00 01:07:20
FILE "16 - Hakoniwa no Midori.wav" WAVE
INDEX 01 00:00:00
TRACK 17 AUDIO
TITLE "Gatsu wo Karu Kuma"
PERFORMER "Yuji Yoshino"
INDEX 00 03:25:14
FILE "17 - Gatsu wo Karu Kuma.wav" WAVE
INDEX 01 00:00:00
TRACK 18 AUDIO
TITLE "Kurai Takurami Itsuwari no Torihiki"
PERFORMER "Yuji Yoshino"
INDEX 00 02:49:11
FILE "18 - Kurai Takurami Itsuwari no Torihiki.wav" WAVE
INDEX 01 00:00:00
TRACK 19 AUDIO
TITLE "Kazoku"
PERFORMER "Yuji Yoshino"
INDEX 00 02:19:34
FILE "19 - Kazoku.wav" WAVE
INDEX 01 00:00:00
FILE "20 - Nezuminoshippo Tei.wav" WAVE
TRACK 20 AUDIO
TITLE "Nezuminoshippo Tei"
PERFORMER "Yuji Yoshino"
INDEX 01 00:00:00
TRACK 21 AUDIO
TITLE "Sakaba no Musume Tachi"
PERFORMER "Yuji Yoshino"
INDEX 00 01:06:49
FILE "21 - Sakaba no Musume Tachi.wav" WAVE
INDEX 01 00:00:00
TRACK 22 AUDIO
TITLE "Shizuka na Doku"
PERFORMER "Yuji Yoshino"
INDEX 00 01:17:70
FILE "22 - Shizuka na Doku.wav" WAVE
INDEX 01 00:00:00
TRACK 23 AUDIO
TITLE "Yuruyakana Sakamichi"
PERFORMER "Yuji Yoshino"
INDEX 00 04:40:49
FILE "23 - Yuruyakana Sakamichi.wav" WAVE
INDEX 01 00:00:00
TRACK 24 AUDIO
TITLE "Shiawasedeari Tsuduke ru Monogatari"
PERFORMER "Yuji Yoshino"
INDEX 00 03:35:59
FILE "24 - Shiawasedeari Tsuduke ru Monogatari.wav" WAVE
INDEX 01 00:00:00
TRACK 25 AUDIO
TITLE "Rakuen Soushitsu"
PERFORMER "Yuji Yoshino"
INDEX 00 02:26:74
FILE "25 - Rakuen Soushitsu.wav" WAVE
INDEX 01 00:00:00
TRACK 26 AUDIO
TITLE "Matsuri ha Owari, Tabi ha Tsuduki"
PERFORMER "Yuji Yoshino"
INDEX 00 03:10:07
FILE "26 - Matsuri ha Owari, Tabi ha Tsuduki.wav" WAVE
INDEX 01 00:00:00
TRACK 27 AUDIO
TITLE "Perfect World (TV Size)"
PERFORMER "Rocky Chack"
INDEX 00 02:19:63
FILE "27 - Perfect World (TV Size).wav" WAVE
INDEX 01 00:00:00

OST NDS
Список треков:
  1. Umi wo Wataru Kaze [3:20]
  2. Horo Tono Tabiji [2:04]
  3. Michi no Mukou ni [2:11]
  4. Sakaba Nite [1:56]
  5. Ooki na Machi [2:13]
  6. Nodokana Mura [2:19]
  7. Beorinu no Sanbashi [2:23]
  8. Itsumono Koukei [1:32]
  9. Sentaku no Toki [0:32]
  10. Kimyou na Uwasa [2:21]
  11. Hourou no Tabi [2:24]
  12. Nigiwau Shijou [1:44]
  13. Shoudan no Seki de [2:07]
  14. Chottodogimagi [2:12]
  15. Deiana no ie [2:20]
  16. Choppiriii Kanji? [1:03]
  17. Semaru Kiki [0:45]
  18. Tomoni Iru Yasura gi [0:50]
  19. Hoshizora wo Miage te [0:39]
  20. Okitegami [1:16]
  21. Shinjitsu [0:45]
  22. Kanashimi wo Koe te [0:45]
  23. Odori no wa [2:17]
  24. Kono Michi no Owari ni.. [3:29]

REM GENRE Anime 
REM DATE 2009
REM DISCID 480A2D18
REM COMMENT "ExactAudioCopy v1.0b3"
PERFORMER ""
TITLE "Spice and Wolf OST NDS"
FILE "01 - Umi wo Wataru Kaze.wav" WAVE
TRACK 01 AUDIO
TITLE "Umi wo Wataru Kaze"
PERFORMER "Ami Koshimizu"
FLAGS DCP
INDEX 01 00:00:00
FILE "02 - Horo Tono Tabiji.wav" WAVE
TRACK 02 AUDIO
TITLE "Horo Tono Tabiji"
PERFORMER "Yuji Yoshino"
FLAGS DCP
INDEX 01 00:00:00
FILE "03 - Michi no Mukou ni.wav" WAVE
TRACK 03 AUDIO
TITLE "Michi no Mukou ni"
PERFORMER "Yuji Yoshino"
FLAGS DCP
INDEX 01 00:00:00
FILE "04 - Sakaba Nite.wav" WAVE
TRACK 04 AUDIO
TITLE "Sakaba Nite"
PERFORMER "Yuji Yoshino"
FLAGS DCP
INDEX 01 00:00:00
FILE "05 - Ooki na Machi.wav" WAVE
TRACK 05 AUDIO
TITLE "Ooki na Machi"
PERFORMER "Yuji Yoshino"
FLAGS DCP
INDEX 01 00:00:00
FILE "06 - Nodokana Mura.wav" WAVE
TRACK 06 AUDIO
TITLE "Nodokana Mura"
PERFORMER "Yuji Yoshino"
FLAGS DCP
INDEX 01 00:00:00
FILE "07 - Beorinu no Sanbashi.wav" WAVE
TRACK 07 AUDIO
TITLE "Beorinu no Sanbashi"
PERFORMER "Yuji Yoshino"
FLAGS DCP
INDEX 01 00:00:00
FILE "08 - Itsumono Koukei.wav" WAVE
TRACK 08 AUDIO
TITLE "Itsumono Koukei"
PERFORMER "Yuji Yoshino"
FLAGS DCP
INDEX 01 00:00:00
FILE "09 - Sentaku no Toki.wav" WAVE
TRACK 09 AUDIO
TITLE "Sentaku no Toki"
PERFORMER "Yuji Yoshino"
FLAGS DCP
INDEX 01 00:00:00
FILE "10 - Kimyou na Uwasa.wav" WAVE
TRACK 10 AUDIO
TITLE "Kimyou na Uwasa"
PERFORMER "Yuji Yoshino"
FLAGS DCP
INDEX 01 00:00:00
FILE "11 - Hourou no Tabi.wav" WAVE
TRACK 11 AUDIO
TITLE "Hourou no Tabi"
PERFORMER "Yuji Yoshino"
FLAGS DCP
INDEX 01 00:00:00
FILE "12 - Nigiwau Shijou.wav" WAVE
TRACK 12 AUDIO
TITLE "Nigiwau Shijou"
PERFORMER "Yuji Yoshino"
FLAGS DCP
INDEX 01 00:00:00
FILE "13 - Shoudan no Seki de.wav" WAVE
TRACK 13 AUDIO
TITLE "Shoudan no Seki de"
PERFORMER "Yuji Yoshino"
FLAGS DCP
INDEX 01 00:00:00
FILE "14 - Chottodogimagi.wav" WAVE
TRACK 14 AUDIO
TITLE "Chottodogimagi"
PERFORMER "Yuji Yoshino"
FLAGS DCP
INDEX 01 00:00:00
FILE "15 - Deiana no ie.wav" WAVE
TRACK 15 AUDIO
TITLE "Deiana no ie"
PERFORMER "Yuji Yoshino"
FLAGS DCP
INDEX 01 00:00:00
FILE "16 - Choppiriii Kanji.wav" WAVE
TRACK 16 AUDIO
TITLE "Choppiriii Kanji?"
PERFORMER "Yuji Yoshino"
FLAGS DCP
INDEX 01 00:00:00
FILE "17 - Semaru Kiki.wav" WAVE
TRACK 17 AUDIO
TITLE "Semaru Kiki"
PERFORMER "Yuji Yoshino"
FLAGS DCP
INDEX 01 00:00:00
FILE "18 - Tomoni Iru Yasura gi.wav" WAVE
TRACK 18 AUDIO
TITLE "Tomoni Iru Yasura gi"
PERFORMER "Yuji Yoshino"
FLAGS DCP
INDEX 01 00:00:00
FILE "19 - Hoshizora wo Miage te.wav" WAVE
TRACK 19 AUDIO
TITLE "Hoshizora wo Miage te"
PERFORMER "Yuji Yoshino"
FLAGS DCP
INDEX 01 00:00:00
FILE "20 - Okitegami.wav" WAVE
TRACK 20 AUDIO
TITLE "Okitegami"
PERFORMER "Yuji Yoshino"
FLAGS DCP
INDEX 01 00:00:00
FILE "21 - Shinjitsu.wav" WAVE
TRACK 21 AUDIO
TITLE "Shinjitsu"
PERFORMER "Yuji Yoshino"
FLAGS DCP
INDEX 01 00:00:00
FILE "22 - Kanashimi wo Koe te.wav" WAVE
TRACK 22 AUDIO
TITLE "Kanashimi wo Koe te"
PERFORMER "Yuji Yoshino"
FLAGS DCP
INDEX 01 00:00:00
FILE "23 - Odori no wa.wav" WAVE
TRACK 23 AUDIO
TITLE "Odori no wa"
PERFORMER "Yuji Yoshino"
FLAGS DCP
INDEX 01 00:00:00
FILE "24 - Kono Michi no Owari ni...wav" WAVE
TRACK 24 AUDIO
TITLE "Kono Michi no Owari ni.."
PERFORMER "Ami Koshimizu"
FLAGS DCP
INDEX 01 00:00:00

Синглы:
OP
Список треков:
  1. Tabi no Tochuu [4:55]
  2. Yakusoku Nouta [5:29]
  3. Tabi no Tochuu without Natsumi [4:55]
  4. Yakusoku Nouta without Natsumi [5:23]

REM GENRE Anime 
REM DATE 2008
REM DISCID 3304D904
REM COMMENT "ExactAudioCopy v1.0b3"
CATALOG 4580226561012
PERFORMER "Natsumi Kiyoura"
TITLE "Spice and Wolf OP"
FILE "01 - Tabi no Tochuu.wav" WAVE
TRACK 01 AUDIO
TITLE "Tabi no Tochuu"
PERFORMER "Natsumi Kiyoura"
INDEX 01 00:00:00
TRACK 02 AUDIO
TITLE "Yakusoku Nouta"
PERFORMER "Natsumi Kiyoura"
INDEX 00 04:50:64
FILE "02 - Yakusoku Nouta.wav" WAVE
INDEX 01 00:00:00
TRACK 03 AUDIO
TITLE "Tabi no Tochuu without Natsumi"
PERFORMER "Natsumi Kiyoura"
INDEX 00 05:22:59
FILE "03 - Tabi no Tochuu without Natsumi.wav" WAVE
INDEX 01 00:00:00
TRACK 04 AUDIO
TITLE "Yakusoku Nouta without Natsumi"
PERFORMER "Natsumi Kiyoura"
INDEX 00 04:50:63
FILE "04 - Yakusoku Nouta without Natsumi.wav" WAVE
INDEX 01 00:00:00

ED
Список треков:
  1. Ringo Hiyori ~ The Wolf Whistling Song [4:53]
  2. Namaiki Nabokura [3:55]
  3. Ringo Hiyori ~ The Wolf Whistling Song (w/o Rocky Chack) [4:53]
  4. Namaiki Nabokura (w/o Rocky Chack) [3:51]

REM GENRE Anime 
REM DATE 2008
REM DISCID 26041C04
REM COMMENT "ExactAudioCopy v1.0b3"
CATALOG 4580226561029
PERFORMER "Rocky Chack"
TITLE "Spice and Wolf ED"
FILE "01 - Ringo Hiyori ~ The Wolf Whistling Song.wav" WAVE
TRACK 01 AUDIO
TITLE "Ringo Hiyori ~ The Wolf Whistling Song"
PERFORMER "Rocky Chack"
INDEX 01 00:00:00
TRACK 02 AUDIO
TITLE "Namaiki Nabokura"
PERFORMER "Rocky Chack"
INDEX 00 04:50:01
FILE "02 - Namaiki Nabokura.wav" WAVE
INDEX 01 00:00:00
TRACK 03 AUDIO
TITLE "Ringo Hiyori ~ The Wolf Whistling Song (w/o Rocky Chack)"
PERFORMER "Rocky Chack"
INDEX 00 03:50:51
FILE "03 - Ringo Hiyori ~ The Wolf Whistling Song (w,o Rocky Chack).wav" WAVE
INDEX 01 00:00:00
TRACK 04 AUDIO
TITLE "Namaiki Nabokura (w/o Rocky Chack)"
PERFORMER "Rocky Chack"
INDEX 00 04:50:02
FILE "04 - Namaiki Nabokura (w,o Rocky Chack).wav" WAVE
INDEX 01 00:00:00

Theme Song ND
Список треков:
  1. Tonari Niiruyo [4:07]
  2. Tonari Niiruyo ED Ver [5:03]
  3. Tonari Niiruyo BGM Ver [3:46]
  4. Tonari Niiruyo -Instrumental- [4:07]
  5. Tonari Niiruyo ED Ver -Instrumental- [5:00]

REM GENRE Anime 
REM DATE 2008
REM DISCID 3C052C05
REM COMMENT "ExactAudioCopy v1.0b3"
PERFORMER "Ami Koshimizu"
TITLE "Spice and Wolf Theme Song NDS"
FILE "01 - Tonari Niiruyo.wav" WAVE
TRACK 01 AUDIO
TITLE "Tonari Niiruyo"
PERFORMER "Ami Koshimizu"
INDEX 01 00:00:00
TRACK 02 AUDIO
TITLE "Tonari Niiruyo ED Ver"
PERFORMER "Ami Koshimizu"
INDEX 00 04:05:33
FILE "02 - Tonari Niiruyo ED Ver.wav" WAVE
INDEX 01 00:00:00
TRACK 03 AUDIO
TITLE "Tonari Niiruyo BGM Ver"
PERFORMER "Ami Koshimizu"
INDEX 00 05:00:31
FILE "03 - Tonari Niiruyo BGM Ver.wav" WAVE
INDEX 01 00:00:00
TRACK 04 AUDIO
TITLE "Tonari Niiruyo -Instrumental-"
PERFORMER "Ami Koshimizu"
INDEX 00 03:42:63
FILE "04 - Tonari Niiruyo -Instrumental-.wav" WAVE
INDEX 01 00:00:00
TRACK 05 AUDIO
TITLE "Tonari Niiruyo ED Ver -Instrumental-"
PERFORMER "Ami Koshimizu"
INDEX 00 04:05:33
FILE "05 - Tonari Niiruyo ED Ver -Instrumental-.wav" WAVE
INDEX 01 00:00:00

OP 2
Список треков:
  1. Mitsu no Yoake [4:54]
  2. Ekleipsis [4:09]
  3. Monday, Tuesday [4:24]
  4. Mitsu no Yoake (w/o Akino) [4:53]

REM GENRE Anime 
REM DATE 2009
REM DISCID 30044B04
REM COMMENT "ExactAudioCopy v1.0b3"
CATALOG 4580226565317
PERFORMER "Akino Arai"
TITLE "Spice and Wolf OP 2"
FILE "01 - Mitsu no Yoake.wav" WAVE
TRACK 01 AUDIO
TITLE "Mitsu no Yoake"
PERFORMER "Akino Arai"
INDEX 01 00:00:00
TRACK 02 AUDIO
TITLE "Ekleipsis"
PERFORMER "Akino Arai"
INDEX 00 04:51:39
FILE "02 - Ekleipsis.wav" WAVE
INDEX 01 00:00:00
TRACK 03 AUDIO
TITLE "Monday, Tuesday"
PERFORMER "Akino Arai"
INDEX 00 04:04:72
FILE "03 - Monday, Tuesday.wav" WAVE
INDEX 01 00:00:00
TRACK 04 AUDIO
TITLE "Mitsu no Yoake (w/o Akino)"
PERFORMER "Akino Arai"
INDEX 00 04:19:31
FILE "04 - Mitsu no Yoake (w,o Akino).wav" WAVE
INDEX 01 00:00:00

ED 2
Список треков:
  1. Perfect World [5:58]
  2. Kun to Boku [3:42]
  3. Perfect World (w/o R.C.) [5:53]
  4. Kun to Boku (w/o R.C.) [3:35]

REM GENRE Anime 
REM DATE 2009
REM DISCID 29047B04
REM COMMENT "ExactAudioCopy v1.0b3"
CATALOG 4580226565324
PERFORMER "Rocky Chack"
TITLE "Spice and Wolf ED 2"
FILE "01 - Perfect World.wav" WAVE
TRACK 01 AUDIO
TITLE "Perfect World"
PERFORMER "Rocky Chack"
INDEX 01 00:00:00
TRACK 02 AUDIO
TITLE "Kun to Boku"
PERFORMER "Rocky Chack"
INDEX 00 05:55:11
FILE "02 - Kun to Boku.wav" WAVE
INDEX 01 00:00:00
TRACK 03 AUDIO
TITLE "Perfect World (w/o R.C.)"
PERFORMER "Rocky Chack"
INDEX 00 03:37:08
FILE "03 - Perfect World (w,o R.C.).wav" WAVE
INDEX 01 00:00:00
TRACK 04 AUDIO
TITLE "Kun to Boku (w/o R.C.)"
PERFORMER "Rocky Chack"
INDEX 00 05:49:45
FILE "04 - Kun to Boku (w,o R.C.).wav" WAVE
INDEX 01 00:00:00

Drama CD:
Drama CD
Список треков:
  1. Daiichi Maku: Izakaya [4:01]
  2. Daini Maku: Yadoya Sono 1 [5:42]
  3. Daisan Maku: Horo no Yume [6:12]
  4. Daiyon Maku: Yadoya Sono 2 [6:09]
  5. Daigo Maku: Yadoya Sono 3 [5:22]
  6. Dairoku Maku: Futaritabi Futatabi...? [5:12]
  7. Dainana Maku: Rorensu no Yume Sono 1 [6:06]
  8. Daihachi Maku: Rorensu no Yume Sono 2 [7:24]
  9. Daiku Maku: Rorensu no Yume Sono 3 [5:26]
  10. Daijuu Maku: Yatto Genjitsu [6:28]

REM GENRE Anime 
REM DATE 2008
REM DISCID 960D9B0A
REM COMMENT "ExactAudioCopy v1.0b3"
CATALOG 4988013574144
PERFORMER "Jun Fukuyama & Ami Koshimizu"
TITLE "Spice and Wolf Drama CD"
FILE "01 - Daiichi Maku- Izakaya.wav" WAVE
TRACK 01 AUDIO
TITLE "Daiichi Maku: Izakaya"
PERFORMER "Jun Fukuyama & Ami Koshimizu"
INDEX 01 00:00:00
FILE "02 - Daini Maku- Yadoya Sono 1.wav" WAVE
TRACK 02 AUDIO
TITLE "Daini Maku: Yadoya Sono 1"
PERFORMER "Jun Fukuyama & Ami Koshimizu"
INDEX 01 00:00:00
FILE "03 - Daisan Maku- Horo no Yume.wav" WAVE
TRACK 03 AUDIO
TITLE "Daisan Maku: Horo no Yume"
PERFORMER "Jun Fukuyama & Ami Koshimizu"
INDEX 01 00:00:00
FILE "04 - Daiyon Maku- Yadoya Sono 2.wav" WAVE
TRACK 04 AUDIO
TITLE "Daiyon Maku: Yadoya Sono 2"
PERFORMER "Jun Fukuyama & Ami Koshimizu"
INDEX 01 00:00:00
FILE "05 - Daigo Maku- Yadoya Sono 3.wav" WAVE
TRACK 05 AUDIO
TITLE "Daigo Maku: Yadoya Sono 3"
PERFORMER "Jun Fukuyama & Ami Koshimizu"
INDEX 01 00:00:00
FILE "06 - Dairoku Maku- Futaritabi Futatabi....wav" WAVE
TRACK 06 AUDIO
TITLE "Dairoku Maku: Futaritabi Futatabi...?"
PERFORMER "Jun Fukuyama & Ami Koshimizu"
INDEX 01 00:00:00
FILE "07 - Dainana Maku- Rorensu no Yume Sono 1.wav" WAVE
TRACK 07 AUDIO
TITLE "Dainana Maku: Rorensu no Yume Sono 1"
PERFORMER "Jun Fukuyama & Ami Koshimizu"
INDEX 01 00:00:00
FILE "08 - Daihachi Maku- Rorensu no Yume Sono 2.wav" WAVE
TRACK 08 AUDIO
TITLE "Daihachi Maku: Rorensu no Yume Sono 2"
PERFORMER "Jun Fukuyama & Ami Koshimizu"
INDEX 01 00:00:00
FILE "09 - Daiku Maku- Rorensu no Yume Sono 3.wav" WAVE
TRACK 09 AUDIO
TITLE "Daiku Maku: Rorensu no Yume Sono 3"
PERFORMER "Jun Fukuyama & Ami Koshimizu"
INDEX 01 00:00:00
FILE "10 - Daijuu Maku- Yatto Genjitsu.wav" WAVE
TRACK 10 AUDIO
TITLE "Daijuu Maku: Yatto Genjitsu"
PERFORMER "Jun Fukuyama & Ami Koshimizu"
INDEX 01 00:00:00

Drama CD 2
Список треков:
  1. Daiichi Maku: Ookami to Momo Nohachimitsu Tsuke [5:29]
  2. Daini Maku: Ookami to Momo Nohachimitsu Tsuke [11:10]
  3. Daisan Maku: Ookami to Momo Nohachimitsu Tsuke [7:43]
  4. Daiyon Maku: Ookami to Momo Nohachimitsu Tsuke [9:09]
  5. Daigo Maku: Ookami to Momo Nohachimitsu Tsuke [4:24]
  6. Dairoku Maku: Ookami to Momo Nohachimitsu Tsuke [9:12]
  7. Dainana Maku: Ookami to Momo Nohachimitsu Tsuke [5:48]

REM GENRE Anime 
REM DATE 2009
REM DISCID 410C6607
REM COMMENT "ExactAudioCopy v1.0b3"
PERFORMER "Various Artists"
TITLE "Spice and Wolf Drama CD 2"
FILE "01 - Daiichi Maku- Ookami to Momo Nohachimitsu Tsuke.wav" WAVE
TRACK 01 AUDIO
TITLE "Daiichi Maku: Ookami to Momo Nohachimitsu Tsuke"
PERFORMER "Various Artists"
INDEX 01 00:00:00
FILE "02 - Daini Maku- Ookami to Momo Nohachimitsu Tsuke.wav" WAVE
TRACK 02 AUDIO
TITLE "Daini Maku: Ookami to Momo Nohachimitsu Tsuke"
PERFORMER "Various Artists"
INDEX 01 00:00:00
FILE "03 - Daisan Maku- Ookami to Momo Nohachimitsu Tsuke.wav" WAVE
TRACK 03 AUDIO
TITLE "Daisan Maku: Ookami to Momo Nohachimitsu Tsuke"
PERFORMER "Various Artists"
INDEX 01 00:00:00
FILE "04 - Daiyon Maku- Ookami to Momo Nohachimitsu Tsuke.wav" WAVE
TRACK 04 AUDIO
TITLE "Daiyon Maku: Ookami to Momo Nohachimitsu Tsuke"
PERFORMER "Various Artists"
INDEX 01 00:00:00
FILE "05 - Daigo Maku- Ookami to Momo Nohachimitsu Tsuke.wav" WAVE
TRACK 05 AUDIO
TITLE "Daigo Maku: Ookami to Momo Nohachimitsu Tsuke"
PERFORMER "Various Artists"
INDEX 01 00:00:00
FILE "06 - Dairoku Maku- Ookami to Momo Nohachimitsu Tsuke.wav" WAVE
TRACK 06 AUDIO
TITLE "Dairoku Maku: Ookami to Momo Nohachimitsu Tsuke"
PERFORMER "Various Artists"
INDEX 01 00:00:00
FILE "07 - Dainana Maku- Ookami to Momo Nohachimitsu Tsuke.wav" WAVE
TRACK 07 AUDIO
TITLE "Dainana Maku: Ookami to Momo Nohachimitsu Tsuke"
PERFORMER "Various Artists"
INDEX 01 00:00:00


Проверка:
 
Exact Audio Copy V1.0 beta 3 from 29. August 2011

EAC extraction logfile from 11. February 2012, 6:03

- / Spice and Wolf OST

Used drive : PLEXTOR DVDR PX-760A Adapter: 1 ID: 0

Read mode : Secure
Utilize accurate stream : Yes
Defeat audio cache : Yes
Make use of C2 pointers : No

Read offset correction : 30
Overread into Lead-In and Lead-Out : Yes
Fill up missing offset samples with silence : Yes
Delete leading and trailing silent blocks : No
Null samples used in CRC calculations : Yes
Used interface : Native Win32 interface for Win NT & 2000
Gap handling : Appended to previous track

Used output format : User Defined Encoder
Selected bitrate : 1024 kBit/s
Quality : High
Add ID3 tag : No
Command line compressor : C:\Program Files (x86)\Exact Audio Copy\Flac\flac.exe
Additional command line options : -V -8 -T "Genre=%genre%" -T "Artist=%artist%" -T "Title=%title%" -T "Album=%albumtitle%" -T "Date=%year%" -T "Tracknumber=%tracknr%" -T "Comment=%comment%" %source%

TOC of the extracted CD

Track | Start | Length | Start sector | End sector
---------------------------------------------------------
1 | 0:00.00 | 2:46.30 | 0 | 12479
2 | 2:46.30 | 4:53.60 | 12480 | 34514
3 | 7:40.15 | 1:28.35 | 34515 | 41149
4 | 9:08.50 | 2:32.70 | 41150 | 52619
5 | 11:41.45 | 1:54.35 | 52620 | 61204
6 | 13:36.05 | 1:47.40 | 61205 | 69269
7 | 15:23.45 | 2:45.10 | 69270 | 81654
8 | 18:08.55 | 2:04.50 | 81655 | 91004
9 | 20:13.30 | 2:14.20 | 91005 | 101074
10 | 22:27.50 | 2:21.50 | 101075 | 111699
11 | 24:49.25 | 3:34.55 | 111700 | 127804
12 | 28:24.05 | 2:17.30 | 127805 | 138109
13 | 30:41.35 | 3:15.50 | 138110 | 152784
14 | 33:57.10 | 1:59.30 | 152785 | 161739
15 | 35:56.40 | 2:10.35 | 161740 | 171524
16 | 38:07.00 | 2:51.00 | 171525 | 184349
17 | 40:58.00 | 1:44.10 | 184350 | 192159
18 | 42:42.10 | 1:30.65 | 192160 | 198974
19 | 44:13.00 | 2:32.70 | 198975 | 210444
20 | 46:45.70 | 2:13.55 | 210445 | 220474
21 | 48:59.50 | 2:06.20 | 220475 | 229944
22 | 51:05.70 | 2:23.65 | 229945 | 240734
23 | 53:29.60 | 2:12.15 | 240735 | 250649
24 | 55:42.00 | 1:10.05 | 250650 | 255904
25 | 56:52.05 | 2:51.60 | 255905 | 268789
26 | 59:43.65 | 2:15.30 | 268790 | 278944
27 | 61:59.20 | 2:51.25 | 278945 | 291794
28 | 64:50.45 | 2:17.60 | 291795 | 302129
29 | 67:08.30 | 2:38.30 | 302130 | 314009
30 | 69:46.60 | 1:36.35 | 314010 | 321244
31 | 71:23.20 | 1:33.05 | 321245 | 328224

Track 1

Filename C:\RIPs\01 - Shounin to Ookami to, Tabi no Nibasha.wav

Pre-gap length 0:00:02.00

Peak level 98.8 %
Extraction speed 2.0 X
Track quality 100.0 %
Test CRC E6918A31
Copy CRC E6918A31
Accurately ripped (confidence 4) [917D6EF1] (AR v1)
Copy OK

Track 2

Filename C:\RIPs\02 - Tabi no Tochuu.wav

Pre-gap length 0:00:01.30

Peak level 98.8 %
Extraction speed 1.6 X
Track quality 99.9 %
Test CRC E2A34827
Copy CRC E2A34827
Accurately ripped (confidence 4) [DAF588A2] (AR v1)
Copy OK

Track 3

Filename C:\RIPs\03 - Tooi Yakusoku ha....wav

Pre-gap length 0:00:02.30

Peak level 96.8 %
Extraction speed 1.7 X
Track quality 100.0 %
Test CRC 257CA0DB
Copy CRC 257CA0DB
Accurately ripped (confidence 4) [D5200939] (AR v1)
Copy OK

Track 4

Filename C:\RIPs\04 - Shippoto Dansu.wav

Pre-gap length 0:00:01.30

Peak level 98.8 %
Extraction speed 1.9 X
Track quality 100.0 %
Test CRC DAC9BAA9
Copy CRC DAC9BAA9
Accurately ripped (confidence 4) [430D1EA9] (AR v1)
Copy OK

Track 5

Filename C:\RIPs\05 - Yume Nomanimani.wav

Pre-gap length 0:00:01.30

Peak level 98.8 %
Extraction speed 1.8 X
Track quality 100.0 %
Test CRC 1D4EAE89
Copy CRC 1D4EAE89
Accurately ripped (confidence 4) [101B7F35] (AR v1)
Copy OK

Track 6

Filename C:\RIPs\06 - Hashiru.wav

Pre-gap length 0:00:01.30

Peak level 98.8 %
Extraction speed 1.0 X
Track quality 99.9 %
Test CRC 13F3AFB7
Copy CRC 13F3AFB7
Accurately ripped (confidence 4) [1E4645E9] (AR v1)
Copy OK

Track 7

Filename C:\RIPs\07 - Kagen no Gatsu.wav

Pre-gap length 0:00:01.30

Peak level 98.8 %
Extraction speed 2.0 X
Track quality 100.0 %
Test CRC 3F6C9A24
Copy CRC 3F6C9A24
Accurately ripped (confidence 4) [8A51A761] (AR v1)
Copy OK

Track 8

Filename C:\RIPs\08 - Tsukiyo Notategami.wav

Pre-gap length 0:00:00.45

Peak level 98.8 %
Extraction speed 1.9 X
Track quality 100.0 %
Test CRC E15D4270
Copy CRC E15D4270
Accurately ripped (confidence 4) [207E4188] (AR v1)
Copy OK

Track 9

Filename C:\RIPs\09 - Hitoribocchino Yume.wav

Pre-gap length 0:00:01.30

Peak level 91.7 %
Extraction speed 1.9 X
Track quality 100.0 %
Test CRC D93E8AF0
Copy CRC D93E8AF0
Accurately ripped (confidence 4) [94C1613B] (AR v1)
Copy OK

Track 10

Filename C:\RIPs\10 - Hikaru Wadachi.wav

Pre-gap length 0:00:01.30

Peak level 98.8 %
Extraction speed 1.9 X
Track quality 100.0 %
Test CRC 567A66EA
Copy CRC 567A66EA
Accurately ripped (confidence 4) [1583AF21] (AR v1)
Copy OK

Track 11

Filename C:\RIPs\11 - Ikoku no Shirabe.wav

Pre-gap length 0:00:01.30

Peak level 98.8 %
Extraction speed 2.1 X
Track quality 100.0 %
Test CRC 0FFF3F35
Copy CRC 0FFF3F35
Accurately ripped (confidence 4) [E48031EF] (AR v1)
Copy OK

Track 12

Filename C:\RIPs\12 - Zawazawasuru.wav

Pre-gap length 0:00:01.30

Peak level 92.3 %
Extraction speed 1.9 X
Track quality 100.0 %
Test CRC 28071019
Copy CRC 28071019
Accurately ripped (confidence 4) [9C90B286] (AR v1)
Copy OK

Track 13

Filename C:\RIPs\13 - Hajimeteno Mura.wav

Pre-gap length 0:00:01.30

Peak level 98.8 %
Extraction speed 2.0 X
Track quality 100.0 %
Test CRC FF1DCD4E
Copy CRC FF1DCD4E
Accurately ripped (confidence 4) [F1198646] (AR v1)
Copy OK

Track 14

Filename C:\RIPs\14 - Nagai Yoru, Hie ta Gatsu.wav

Pre-gap length 0:00:01.30

Peak level 82.8 %
Extraction speed 1.8 X
Track quality 100.0 %
Test CRC 9E802EC4
Copy CRC 9E802EC4
Accurately ripped (confidence 4) [FA422B64] (AR v1)
Copy OK

Track 15

Filename C:\RIPs\15 - Hamu.wav

Pre-gap length 0:00:01.30

Peak level 98.8 %
Extraction speed 1.1 X
Track quality 99.9 %
Test CRC 463CF666
Copy CRC 463CF666
Accurately ripped (confidence 3) [7B82202D] (AR v1)
Copy OK

Track 16

Filename C:\RIPs\16 - Yureru Mugi.wav

Pre-gap length 0:00:01.30

Peak level 98.8 %
Extraction speed 1.3 X
Track quality 99.9 %
Test CRC 9847CF09
Copy CRC 9847CF09
Accurately ripped (confidence 4) [D72757EB] (AR v1)
Copy OK

Track 17

Filename C:\RIPs\17 - Michi Narumono.wav

Pre-gap length 0:00:01.30

Peak level 98.8 %
Extraction speed 1.8 X
Track quality 100.0 %
Test CRC 09EC18CD
Copy CRC 09EC18CD
Accurately ripped (confidence 4) [C3BD1B95] (AR v1)
Copy OK

Track 18

Filename C:\RIPs\18 - Yoakemae.wav

Pre-gap length 0:00:01.30

Peak level 50.3 %
Extraction speed 1.7 X
Track quality 100.0 %
Test CRC AE247560
Copy CRC AE247560
Accurately ripped (confidence 4) [8FF2590F] (AR v1)
Copy OK

Track 19

Filename C:\RIPs\19 - Kiminomotohe.wav

Pre-gap length 0:00:01.30

Peak level 98.8 %
Extraction speed 1.9 X
Track quality 100.0 %
Test CRC 4F144F22
Copy CRC 4F144F22
Accurately ripped (confidence 4) [14D52D84] (AR v1)
Copy OK

Track 20

Filename C:\RIPs\20 - Chiisanatameiki.wav

Pre-gap length 0:00:01.30

Peak level 91.0 %
Extraction speed 1.9 X
Track quality 100.0 %
Test CRC 6AFB8B4A
Copy CRC 6AFB8B4A
Accurately ripped (confidence 4) [6834DD00] (AR v1)
Copy OK

Track 21

Filename C:\RIPs\21 - Kenshi Toyopparai.wav

Pre-gap length 0:00:01.30

Peak level 69.2 %
Extraction speed 1.9 X
Track quality 100.0 %
Test CRC DE638D90
Copy CRC DE638D90
Accurately ripped (confidence 4) [47BBD797] (AR v1)
Copy OK

Track 22

Filename C:\RIPs\22 - Tsuyoi Kaze ga Fui Temo.wav

Pre-gap length 0:00:01.30

Peak level 98.8 %
Extraction speed 1.9 X
Track quality 100.0 %
Test CRC E7D8EE61
Copy CRC E7D8EE61
Accurately ripped (confidence 4) [357BB990] (AR v1)
Copy OK

Track 23

Filename C:\RIPs\23 - Tadashi ki Tenbin.wav

Pre-gap length 0:00:01.30

Peak level 84.3 %
Extraction speed 1.9 X
Track quality 100.0 %
Test CRC 3E85057A
Copy CRC 3E85057A
Accurately ripped (confidence 4) [5708068B] (AR v1)
Copy OK

Track 24

Filename C:\RIPs\24 - Satoshi ki Nin Tachi.wav

Pre-gap length 0:00:01.30

Peak level 98.8 %
Extraction speed 0.8 X
Track quality 99.8 %
Test CRC 86AAFF09
Copy CRC 86AAFF09
Accurately ripped (confidence 4) [C54AA1B4] (AR v1)
Copy OK

Track 25

Filename C:\RIPs\25 - Wasure Naide.wav

Pre-gap length 0:00:01.30

Peak level 98.8 %
Extraction speed 2.0 X
Track quality 100.0 %
Test CRC 45510C68
Copy CRC 45510C68
Accurately ripped (confidence 4) [DCD2EDF3] (AR v1)
Copy OK

Track 26

Filename C:\RIPs\26 - Kurai Mori.wav

Pre-gap length 0:00:01.30

Peak level 98.8 %
Extraction speed 1.9 X
Track quality 100.0 %
Test CRC E883FDDA
Copy CRC E883FDDA
Accurately ripped (confidence 4) [1659B266] (AR v1)
Copy OK

Track 27

Filename C:\RIPs\27 - Matsurinouta.wav

Pre-gap length 0:00:00.30

Peak level 98.8 %
Extraction speed 1.3 X
Track quality 99.9 %
Test CRC 2D474EBC
Copy CRC 2D474EBC
Accurately ripped (confidence 4) [2DE24200] (AR v1)
Copy OK

Track 28

Filename C:\RIPs\28 - Henka.wav

Pre-gap length 0:00:01.30

Peak level 98.8 %
Extraction speed 1.2 X
Track quality 99.9 %
Test CRC 1CB93F17
Copy CRC 1CB93F17
Accurately ripped (confidence 4) [1BBFD924] (AR v1)
Copy OK

Track 29

Filename C:\RIPs\29 - Mada Minu Machi he.wav

Pre-gap length 0:00:01.30

Peak level 98.8 %
Extraction speed 1.9 X
Track quality 100.0 %
Test CRC 0AAF16AD
Copy CRC 0AAF16AD
Accurately ripped (confidence 4) [1D7C57A0] (AR v1)
Copy OK

Track 30

Filename C:\RIPs\30 - Ringo Hiyori ~ The Wolf Whistling Song (TV Size).wav

Pre-gap length 0:00:01.30

Peak level 98.8 %
Extraction speed 1.7 X
Track quality 100.0 %
Test CRC 682EA542
Copy CRC 682EA542
Accurately ripped (confidence 4) [879DD00E] (AR v1)
Copy OK

Track 31

Filename C:\RIPs\31 - Tabi no Tochuu (TV Size).wav

Pre-gap length 0:00:06.30

Peak level 98.8 %
Extraction speed 1.7 X
Track quality 100.0 %
Test CRC 0071FD01
Copy CRC 0071FD01
Accurately ripped (confidence 4) [DEE105E6] (AR v1)
Copy OK

All tracks accurately ripped

No errors occurred

End of status report

---- CUETools DB Plugin V2.1.3

[CTDB TOCID: .YPmqQJfAjqafhAlfmZACpQUqWg-] found, Submit result: already submitted
[1cc144dd] (2/2) Accurately ripped

==== Log checksum 95EA4801702C64A0A948714601C8876EBFE117812FC3A3D28C4743C6FBB4824F ====
 
-----------------------

DON'T MODIFY THIS FILE

-----------------------

PERFORMER: auCDtect Task Manager, ver. 1.5.1RC4 build 1.5.1.5
Copyright (c) 2008-2010 y-soft. All rights reserved
http://y-soft.org

ANALYZER: auCDtect: CD records authenticity detector, version 0.8.2
Copyright (c) 2004 Oleg Berngardt. All rights reserved.
Copyright (c) 2004 Alexander Djourik. All rights reserved.

FILE: 11 - Ikoku no Shirabe.flac
Size: 21890805 Hash: E30D481D215C4BDBB02DE3FF05B6B3BF Accuracy: -m0
Conclusion: CDDA 100%
Signature: 47098A6E15EE87DAEC2F124AEEC28C485D77C0B0
FILE: 10 - Hikaru Wadachi.flac
Size: 17427782 Hash: D82AE84F80BD8BB29735F13E5364FE5C Accuracy: -m0
Conclusion: CDDA 100%
Signature: F133F30243BF7DB612CBE20484264D1C8797C159
FILE: 09 - Hitoribocchino Yume.flac
Size: 12180279 Hash: 687992D000E3DED9A2A92347B63B1AD8 Accuracy: -m0
Conclusion: CDDA 100%
Signature: 92E6436ECDE84194501FC3B17A66EC38AFF20E5C
FILE: 08 - Tsukiyo Notategami.flac
Size: 14750740 Hash: 109BCCEEA4276E5F952FA8BB35A620D5 Accuracy: -m0
Conclusion: CDDA 100%
Signature: 31EC694E68EC007F197D57FED1BB311861A71B73
FILE: 07 - Kagen no Gatsu.flac
Size: 14780281 Hash: 8BCCC70423565579CB1D6DFCDD9BED60 Accuracy: -m0
Conclusion: CDDA 100%
Signature: 5B60FDA042009BCD641FB9FA017C8357CB31E3AD
FILE: 06 - Hashiru.flac
Size: 12140710 Hash: 10F6D454DEADB0A158B19B6E352A8A4F Accuracy: -m0
Conclusion: CDDA 99%
Signature: ED9B0F138C26F9CF8B2EAC869401CB3817BC5889
FILE: 05 - Yume Nomanimani.flac
Size: 10226267 Hash: A7AFEF3E92A5F29A925206AD54DAD5AC Accuracy: -m0
Conclusion: CDDA 100%
Signature: 200B0E2F65AB81F0AA45CA5C42EFD7D03D2BEFCB
FILE: 04 - Shippoto Dansu.flac
Size: 18652632 Hash: A7DE6621B63BBA26FFB88FF90B367BE4 Accuracy: -m0
Conclusion: CDDA 100%
Signature: E268F945D1DD3FCF219A31CE0F6364213ED526AA
FILE: 03 - Tooi Yakusoku ha....flac
Size: 8198520 Hash: 2139A2D2B4EC32FF708207E74AC8B895 Accuracy: -m0
Conclusion: CDDA 100%
Signature: 12532A10C48130EBF8D160F68978A1387BEA5744
FILE: 02 - Tabi no Tochuu.flac
Size: 36263709 Hash: 0A9D023AA0D5F0D283220FACEB5BDF80 Accuracy: -m0
Conclusion: CDDA 100%
Signature: 1E659820B73ED6B33AE11B2C259B30D1BAB79AC1
FILE: 01 - Shounin to Ookami to, Tabi no Nibasha.flac
Size: 18261235 Hash: C642DDD6CE4AB79638A693E260AF6F92 Accuracy: -m0
Conclusion: CDDA 92%
Signature: D8AE8624FB01703E9B888A8676516527FC49FAE3
FILE: 31 - Tabi no Tochuu (TV Size).flac
Size: 10305559 Hash: C657F466CB7DD0F40A20B82A300CBC3E Accuracy: -m0
Conclusion: CDDA 100%
Signature: E14A61802E101488C95B1558BAAF33A1BF4FE670
FILE: 30 - Ringo Hiyori ~ The Wolf Whistling Song (TV Size).flac
Size: 9603153 Hash: 5CB5F587D307FC13772076FC8464BE06 Accuracy: -m0
Conclusion: CDDA 100%
Signature: 685CCBD3AB7158ABBAC1976F28BEE51884311BA0
FILE: 29 - Mada Minu Machi he.flac
Size: 19115440 Hash: B5392832E1611F7EB08AE1C8416829AA Accuracy: -m0
Conclusion: CDDA 99%
Signature: 3B3CF35B8E0ADE68752547D7700FD30F23F433E1
FILE: 28 - Henka.flac
Size: 15048858 Hash: C7A3A6E9AFCF9CDDB10F0B6820439E06 Accuracy: -m0
Conclusion: CDDA 100%
Signature: 80281E2F4D32739E360054DC191F2178EC6CE5B1
FILE: 27 - Matsurinouta.flac
Size: 20505165 Hash: 7E26F7799017E7CF8F29F4C580D62144 Accuracy: -m0
Conclusion: CDDA 99%
Signature: 1B12F09EC88087D486761488A38CBA58C0942BC7
FILE: 26 - Kurai Mori.flac
Size: 12650252 Hash: 1BBAE865823842FC22C551EE3A508237 Accuracy: -m0
Conclusion: CDDA 100%
Signature: D558B36BFDFEEDC0865E333A806B8FA967D63373
FILE: 25 - Wasure Naide.flac
Size: 16037078 Hash: A8189A71144D325398BAE32B1A0EE39D Accuracy: -m0
Conclusion: CDDA 100%
Signature: BBF9E5EB03C9039915E96E79335EB2E08DD889BD
FILE: 24 - Satoshi ki Nin Tachi.flac
Size: 6560806 Hash: 072F1E33944A64F7084AFA84C3CAE651 Accuracy: -m0
Conclusion: CDDA 100%
Signature: 8AFF5521BDD86B2A5D9568F0B280B6C1DCFA7121
FILE: 23 - Tadashi ki Tenbin.flac
Size: 11857123 Hash: 2178730DFE5DF0FE4221B89D7CC7A1A2 Accuracy: -m0
Conclusion: CDDA 100%
Signature: 4ED00283EC522D190BD6D33D6D4128EF1FEAC037
FILE: 22 - Tsuyoi Kaze ga Fui Temo.flac
Size: 15437477 Hash: 5EC86558491A3F17C71DD367207104C0 Accuracy: -m0
Conclusion: CDDA 100%
Signature: 2BC2D69202D53C78B7E34410D3DD09D71BF40FE0
FILE: 21 - Kenshi Toyopparai.flac
Size: 9162938 Hash: B385FCAACB71A263BBFE4A921F367E25 Accuracy: -m0
Conclusion: CDDA 100%
Signature: A83E171D8759B4A35F1D8A6BFE646DD2DE883C3C
FILE: 20 - Chiisanatameiki.flac
Size: 12953825 Hash: 1F41B112CBF835C2037A8835975659AF Accuracy: -m0
Conclusion: CDDA 100%
Signature: BF336EDB0B845A1F6CBE32CCF98BDE4ABB5826F6
FILE: 19 - Kiminomotohe.flac
Size: 18092346 Hash: E3119B8E6525B68881CD2F631899B279 Accuracy: -m0
Conclusion: CDDA 99%
Signature: 2843B7210CE455C772D5B153D6410FA1BF9DBB6D
FILE: 18 - Yoakemae.flac
Size: 8747213 Hash: C79953A96F6760BF7CAD3AAC633F60A6 Accuracy: -m0
Conclusion: MPEG 79%
Signature: C22DB8AE64135EAF0EC5231EE9CE4C6A59E498F5
FILE: 17 - Michi Narumono.flac
Size: 10352454 Hash: D6C203248248CDCF9A683D7A36377FC7 Accuracy: -m0
Conclusion: CDDA 100%
Signature: 25A6B3D4650A38746C5D9E5C6F2263436957AA4F
FILE: 16 - Yureru Mugi.flac
Size: 16173277 Hash: E51AACE88176A69A3387F6D2BC671DB2 Accuracy: -m0
Conclusion: CDDA 100%
Signature: B960BDD5BCA37F6161082D0A58F70E8ECF8217F8
FILE: 15 - Hamu.flac
Size: 14917271 Hash: 8235BF32A5EEFAAD4B019C22E4DCA26D Accuracy: -m0
Conclusion: CDDA 100%
Signature: 0583A538CD73D768D03554DB98C80E127F7D3026
FILE: 14 - Nagai Yoru, Hie ta Gatsu.flac
Size: 11140490 Hash: 31B274A305D1EF8FDF35826A5B963043 Accuracy: -m0
Conclusion: CDDA 100%
Signature: 0168D8D0A8F29989381A3371688C049357191AE0
FILE: 13 - Hajimeteno Mura.flac
Size: 22222516 Hash: 96B9AC5F888144ED680A515C0FD8224B Accuracy: -m0
Conclusion: CDDA 100%
Signature: 09539CF7ED6AC7E53773E89AE2A476D21EBE5032
FILE: 12 - Zawazawasuru.flac
Size: 13953497 Hash: 167BD70600808EB2C63712AC323B90A3 Accuracy: -m0
Conclusion: CDDA 100%
Signature: 71EEE2E27158735010F0F149AC3D0B8A7A0160CF
 
Exact Audio Copy V1.0 beta 3 from 29. August 2011

EAC extraction logfile from 11. February 2012, 13:40

- / Spice and Wolf OST 2

Used drive : PLEXTOR DVDR PX-760A Adapter: 1 ID: 0

Read mode : Secure
Utilize accurate stream : Yes
Defeat audio cache : Yes
Make use of C2 pointers : No

Read offset correction : 30
Overread into Lead-In and Lead-Out : Yes
Fill up missing offset samples with silence : Yes
Delete leading and trailing silent blocks : No
Null samples used in CRC calculations : Yes
Used interface : Native Win32 interface for Win NT & 2000
Gap handling : Appended to previous track

Used output format : User Defined Encoder
Selected bitrate : 1024 kBit/s
Quality : High
Add ID3 tag : No
Command line compressor : C:\Program Files (x86)\Exact Audio Copy\Flac\flac.exe
Additional command line options : -V -8 -T "Genre=%genre%" -T "Artist=%artist%" -T "Title=%title%" -T "Album=%albumtitle%" -T "Date=%year%" -T "Tracknumber=%tracknr%" -T "Comment=%comment%" %source%

TOC of the extracted CD

Track | Start | Length | Start sector | End sector
---------------------------------------------------------
1 | 0:00.00 | 1:32.18 | 0 | 6917
2 | 1:32.18 | 1:07.28 | 6918 | 11970
3 | 2:39.46 | 2:32.32 | 11971 | 23402
4 | 5:12.03 | 5:54.17 | 23403 | 49969
5 | 11:06.20 | 1:41.14 | 49970 | 57558
6 | 12:47.34 | 2:21.57 | 57559 | 68190
7 | 15:09.16 | 3:37.71 | 68191 | 84536
8 | 18:47.12 | 2:52.28 | 84537 | 97464
9 | 21:39.40 | 2:05.58 | 97465 | 106897
10 | 23:45.23 | 3:27.70 | 106898 | 122492
11 | 27:13.18 | 1:51.24 | 122493 | 130841
12 | 29:04.42 | 1:47.10 | 130842 | 138876
13 | 30:51.52 | 2:10.13 | 138877 | 148639
14 | 33:01.65 | 2:22.40 | 148640 | 159329
15 | 35:24.30 | 1:08.67 | 159330 | 164496
16 | 36:33.22 | 3:27.60 | 164497 | 180081
17 | 40:01.07 | 2:51.20 | 180082 | 192926
18 | 42:52.27 | 2:22.06 | 192927 | 203582
19 | 45:14.33 | 2:10.51 | 203583 | 213383
20 | 47:25.09 | 1:07.09 | 213384 | 218417
21 | 48:32.18 | 1:20.41 | 218418 | 224458
22 | 49:52.59 | 4:43.20 | 224459 | 245703
23 | 54:36.04 | 3:37.68 | 245704 | 262046
24 | 58:13.72 | 2:28.60 | 262047 | 273206
25 | 60:42.57 | 3:12.53 | 273207 | 287659
26 | 63:55.35 | 2:25.34 | 287660 | 298568
27 | 66:20.69 | 1:32.28 | 298569 | 305496

Track 1

Filename C:\RIPs\01 - Mitsu no Yoake (TV Size).wav

Pre-gap length 0:00:02.00

Peak level 72.9 %
Extraction speed 1.7 X
Track quality 100.0 %
Test CRC C15D1E1D
Copy CRC C15D1E1D
Accurately ripped (confidence 2) [987D57CB] (AR v1)
Copy OK

Track 2

Filename C:\RIPs\02 - Shukusai Nohajimari.wav

Pre-gap length 0:00:00.57

Peak level 82.0 %
Extraction speed 0.7 X
Track quality 99.8 %
Test CRC 436BFE02
Copy CRC 436BFE02
Accurately ripped (confidence 2) [DFB993F4] (AR v1)
Copy OK

Track 3

Filename C:\RIPs\03 - Hoshi ta Sakana Tobudou Sake to.wav

Pre-gap length 0:00:00.48

Peak level 34.5 %
Extraction speed 1.9 X
Track quality 100.0 %
Test CRC BD52304A
Copy CRC BD52304A
Accurately ripped (confidence 2) [1410465D] (AR v1)
Copy OK

Track 4

Filename C:\RIPs\04 - Nin to Ikyou no Kamigami.wav

Pre-gap length 0:00:01.48

Peak level 57.0 %
Extraction speed 1.7 X
Track quality 99.9 %
Test CRC 7722F61B
Copy CRC 7722F61B
Accurately ripped (confidence 2) [5CA1EB7B] (AR v1)
Copy OK

Track 5

Filename C:\RIPs\05 - Honoo no Odori.wav

Pre-gap length 0:00:00.46

Peak level 74.6 %
Extraction speed 1.7 X
Track quality 100.0 %
Test CRC 651CA5E5
Copy CRC 651CA5E5
Accurately ripped (confidence 2) [398DE014] (AR v1)
Copy OK

Track 6

Filename C:\RIPs\06 - Kino ii Hitobito.wav

Pre-gap length 0:00:00.11

Peak level 73.1 %
Extraction speed 1.2 X
Track quality 99.9 %
Test CRC 5226FF49
Copy CRC 5226FF49
Accurately ripped (confidence 2) [05BA016F] (AR v1)
Copy OK

Track 7

Filename C:\RIPs\07 - Kumerusun no Asa.wav

Pre-gap length 0:00:02.46

Peak level 66.9 %
Extraction speed 2.1 X
Track quality 100.0 %
Test CRC 826D4621
Copy CRC 826D4621
Accurately ripped (confidence 2) [CBC12B2C] (AR v1)
Copy OK

Track 8

Filename C:\RIPs\08 - Jitsuzonshugi Mono.wav

Pre-gap length 0:00:01.48

Peak level 27.5 %
Extraction speed 2.0 X
Track quality 100.0 %
Test CRC 7A4E2D55
Copy CRC 7A4E2D55
Accurately ripped (confidence 2) [92099180] (AR v1)
Copy OK

Track 9

Filename C:\RIPs\09 - Houjou no Warutsu.wav

Pre-gap length 0:00:02.46

Peak level 91.3 %
Extraction speed 1.9 X
Track quality 100.0 %
Test CRC F5C19337
Copy CRC F5C19337
Accurately ripped (confidence 2) [EDE03CCF] (AR v1)
Copy OK

Track 10

Filename C:\RIPs\10 - Seikou ka Muichimon ka.wav

Pre-gap length 0:00:00.39

Peak level 70.9 %
Extraction speed 2.1 X
Track quality 100.0 %
Test CRC 037576A0
Copy CRC 037576A0
Accurately ripped (confidence 2) [B44CE4E9] (AR v1)
Copy OK

Track 11

Filename C:\RIPs\11 - Uma Ranai Mizo.wav

Pre-gap length 0:00:02.46

Peak level 42.1 %
Extraction speed 1.8 X
Track quality 100.0 %
Test CRC 04B63C0A
Copy CRC 04B63C0A
Accurately ripped (confidence 2) [8A1D5FFA] (AR v1)
Copy OK

Track 12

Filename C:\RIPs\12 - Kurutta Souba.wav

Pre-gap length 0:00:02.47

Peak level 79.2 %
Extraction speed 1.8 X
Track quality 100.0 %
Test CRC 944CFFD3
Copy CRC 944CFFD3
Accurately ripped (confidence 2) [F7B8F9BA] (AR v1)
Copy OK

Track 13

Filename C:\RIPs\13 - Boudou.wav

Peak level 83.1 %
Extraction speed 1.8 X
Track quality 100.0 %
Test CRC 25B41E45
Copy CRC 25B41E45
Accurately ripped (confidence 2) [808AB964] (AR v1)
Copy OK

Track 14

Filename C:\RIPs\14 - Wakaki Nendaiki Sakka.wav

Pre-gap length 0:00:02.47

Peak level 19.1 %
Extraction speed 1.9 X
Track quality 100.0 %
Test CRC 79BDB2A5
Copy CRC 79BDB2A5
Accurately ripped (confidence 2) [07A6FAF4] (AR v1)
Copy OK

Track 15

Filename C:\RIPs\15 - Ookami to Odoru.wav

Pre-gap length 0:00:02.46

Peak level 98.0 %
Extraction speed 1.5 X
Track quality 100.0 %
Test CRC 2ECF62B6
Copy CRC 2ECF62B6
Accurately ripped (confidence 2) [5BE4D288] (AR v1)
Copy OK

Track 16

Filename C:\RIPs\16 - Hakoniwa no Midori.wav

Pre-gap length 0:00:01.47

Peak level 26.8 %
Extraction speed 1.4 X
Track quality 99.9 %
Test CRC 8DA41CDE
Copy CRC 8DA41CDE
Accurately ripped (confidence 2) [EB9EA56C] (AR v1)
Copy OK

Track 17

Filename C:\RIPs\17 - Gatsu wo Karu Kuma.wav

Pre-gap length 0:00:02.46

Peak level 70.5 %
Extraction speed 2.0 X
Track quality 100.0 %
Test CRC EB6A4287
Copy CRC EB6A4287
Accurately ripped (confidence 2) [B253675A] (AR v1)
Copy OK

Track 18

Filename C:\RIPs\18 - Kurai Takurami Itsuwari no Torihiki.wav

Pre-gap length 0:00:02.09

Peak level 64.0 %
Extraction speed 1.2 X
Track quality 99.9 %
Test CRC 0A41F062
Copy CRC 0A41F062
Accurately ripped (confidence 2) [289D7886] (AR v1)
Copy OK

Track 19

Filename C:\RIPs\19 - Kazoku.wav

Pre-gap length 0:00:02.47

Peak level 60.0 %
Extraction speed 1.9 X
Track quality 100.0 %
Test CRC 431E6107
Copy CRC 431E6107
Accurately ripped (confidence 2) [53002112] (AR v1)
Copy OK

Track 20

Filename C:\RIPs\20 - Nezuminoshippo Tei.wav

Peak level 98.7 %
Extraction speed 1.5 X
Track quality 100.0 %
Test CRC 9AC505D7
Copy CRC 9AC505D7
Accurately ripped (confidence 2) [1A503671] (AR v1)
Copy OK

Track 21

Filename C:\RIPs\21 - Sakaba no Musume Tachi.wav

Pre-gap length 0:00:00.35

Peak level 88.6 %
Extraction speed 1.6 X
Track quality 100.0 %
Test CRC D22B5780
Copy CRC D22B5780
Accurately ripped (confidence 2) [D4E8B388] (AR v1)
Copy OK

Track 22

Filename C:\RIPs\22 - Shizuka na Doku.wav

Pre-gap length 0:00:02.46

Peak level 60.1 %
Extraction speed 2.1 X
Track quality 100.0 %
Test CRC F67F331D
Copy CRC F67F331D
Accurately ripped (confidence 2) [81DF27EF] (AR v1)
Copy OK

Track 23

Filename C:\RIPs\23 - Yuruyakana Sakamichi.wav

Pre-gap length 0:00:02.46

Peak level 65.9 %
Extraction speed 2.1 X
Track quality 100.0 %
Test CRC 50BAA4F5
Copy CRC 50BAA4F5
Accurately ripped (confidence 2) [0B4A8942] (AR v1)
Copy OK

Track 24

Filename C:\RIPs\24 - Shiawasedeari Tsuduke ru Monogatari.wav

Pre-gap length 0:00:02.09

Peak level 63.3 %
Extraction speed 1.9 X
Track quality 100.0 %
Test CRC 783D1DD2
Copy CRC 783D1DD2
Accurately ripped (confidence 2) [B9D0FD32] (AR v1)
Copy OK

Track 25

Filename C:\RIPs\25 - Rakuen Soushitsu.wav

Pre-gap length 0:00:01.61

Peak level 51.7 %
Extraction speed 2.0 X
Track quality 100.0 %
Test CRC AA2CCA9C
Copy CRC AA2CCA9C
Accurately ripped (confidence 2) [73CA2D27] (AR v1)
Copy OK

Track 26

Filename C:\RIPs\26 - Matsuri ha Owari, Tabi ha Tsuduki.wav

Pre-gap length 0:00:02.46

Peak level 99.3 %
Extraction speed 1.9 X
Track quality 100.0 %
Test CRC E3F2EE18
Copy CRC E3F2EE18
Accurately ripped (confidence 2) [DA0FE90C] (AR v1)
Copy OK

Track 27

Filename C:\RIPs\27 - Perfect World (TV Size).wav

Pre-gap length 0:00:05.46

Peak level 62.1 %
Extraction speed 1.7 X
Track quality 100.0 %
Test CRC E07F251A
Copy CRC E07F251A
Accurately ripped (confidence 2) [9FE04A5A] (AR v1)
Copy OK

All tracks accurately ripped

No errors occurred

End of status report

---- CUETools DB Plugin V2.1.3

[CTDB TOCID: S11d7MaUg3r.l1n.btbkIbuAKO0-] found, Submit result: S11d7MaUg3r.l1n.btbkIbuAKO0- has been confirmed
[897e66dd] (2/2) Accurately ripped

==== Log checksum EA9DC29E452415F38371CBCA4C424DB7B935AD66AA48E526143848E191DEA9F4 ====
 
-----------------------

DON'T MODIFY THIS FILE

-----------------------

PERFORMER: auCDtect Task Manager, ver. 1.5.1RC4 build 1.5.1.5
Copyright (c) 2008-2010 y-soft. All rights reserved
http://y-soft.org

ANALYZER: auCDtect: CD records authenticity detector, version 0.8.2
Copyright (c) 2004 Oleg Berngardt. All rights reserved.
Copyright (c) 2004 Alexander Djourik. All rights reserved.

FILE: 08 - Jitsuzonshugi Mono.flac
Size: 12322911 Hash: 97D061ACA06374FAFF886ADD9B8E2337 Accuracy: -m0
Conclusion: CDDA 100%
Signature: 92378C38F9DF8600B499AF3D5AD279791CEB0138
FILE: 07 - Kumerusun no Asa.flac
Size: 19055769 Hash: 169AC669532AC16F6DC4C0ACFC94E4DE Accuracy: -m0
Conclusion: CDDA 100%
Signature: 45CAD8069EFC72DA810ABAAF29F64110C98B4698
FILE: 06 - Kino ii Hitobito.flac
Size: 13724184 Hash: EAC3C5E99B21A20F977C0FA325EFDF2C Accuracy: -m0
Conclusion: CDDA 100%
Signature: 9752DB4D366A6F69D008C93EB1578A37B6ED2454
FILE: 05 - Honoo no Odori.flac
Size: 11486063 Hash: A760AC03DAF70101A5EEA29D7F0616F4 Accuracy: -m0
Conclusion: CDDA 100%
Signature: 17F1FD1E806287F6C00605B2DD16B1FC169DFDDF
FILE: 04 - Nin to Ikyou no Kamigami.flac
Size: 27551621 Hash: 646C598E1C7D49D564E1493BB4840A8D Accuracy: -m0
Conclusion: CDDA 99%
Signature: 746CA216407048BCCBDA0A716A24BCE1B3F074CC
FILE: 03 - Hoshi ta Sakana Tobudou Sake to.flac
Size: 10164855 Hash: 1E79B658C37BD1EA1757A5337FD0BD5C Accuracy: -m0
Conclusion: CDDA 85%
Signature: 07A1852E320E691C5BF10727FBBDB0A91485160C
FILE: 02 - Shukusai Nohajimari.flac
Size: 8369688 Hash: 1ABE7CEDAA0BA26792795FFCFC98C629 Accuracy: -m0
Conclusion: CDDA 100%
Signature: 59AA18B6BA01B90C693949990FC4FDB711D9BC24
FILE: 01 - Mitsu no Yoake (TV Size).flac
Size: 10439512 Hash: 9BDEC050E58DC98BB29C13F1E97B68CD Accuracy: -m0
Conclusion: CDDA 100%
Signature: B4B90C68AADE13C7B19CD46101E9A0A2216B09BF
FILE: 27 - Perfect World (TV Size).flac
Size: 9830453 Hash: 1833E237B1C8189DA3431B99114CD16D Accuracy: -m0
Conclusion: CDDA 99%
Signature: 828F96C465D4EB2C61E8FE23ACA36A82E808944E
FILE: 26 - Matsuri ha Owari, Tabi ha Tsuduki.flac
Size: 16916613 Hash: C73FDAB3827C513F5961B3A01DB53565 Accuracy: -m0
Conclusion: CDDA 100%
Signature: D0D95304621AC717CADBFA27CAE82B23E29BEEC5
FILE: 25 - Rakuen Soushitsu.flac
Size: 12198302 Hash: 0B8F8E1DB3F6218528587BDF40FA681F Accuracy: -m0
Conclusion: CDDA 100%
Signature: 8FB1208F70A369D6D7856E9E70EA40596004D3DB
FILE: 24 - Shiawasedeari Tsuduke ru Monogatari.flac
Size: 11456207 Hash: 560F338DBDBEA4B0023A5983580EEBB9 Accuracy: -m0
Conclusion: CDDA 100%
Signature: B56FFD672507B9C2872766B1B5534EECA88BF309
FILE: 23 - Yuruyakana Sakamichi.flac
Size: 19101113 Hash: F0C13B0A74B6FABDDC7441DBC5E17703 Accuracy: -m0
Conclusion: CDDA 100%
Signature: 42439912D24B4412B4C09F3BF7D0B1CE463170C4
FILE: 22 - Shizuka na Doku.flac
Size: 18161116 Hash: AE16DC451F5BE903595A182545594B32 Accuracy: -m0
Conclusion: CDDA 100%
Signature: E1A4ED8E877BF7044D98716680DE6FEB637C55B6
FILE: 21 - Sakaba no Musume Tachi.flac
Size: 8254205 Hash: 7226A1ECAEC015E8A4300159046474FC Accuracy: -m0
Conclusion: CDDA 62%
Signature: 8AB084BA2C7514B1EBF46D3D84C81CED3CB77BA6
FILE: 20 - Nezuminoshippo Tei.flac
Size: 7239170 Hash: 39190BD79E07C8B8A43BB99F46A94547 Accuracy: -m0
Conclusion: CDDA 100%
Signature: B96447DAD51A1CB9A8DFB6B37F19E5A027507CB3
FILE: 19 - Kazoku.flac
Size: 14774872 Hash: B44B7649C21050E487EFC8F15C2EAAAE Accuracy: -m0
Conclusion: CDDA 100%
Signature: 5C1FA3C57C735CC4C5AC8A9213445FDAF854E8A4
FILE: 18 - Kurai Takurami Itsuwari no Torihiki.flac
Size: 12000192 Hash: B65A6B6C5FFB1BA82BC989FB1F874E7A Accuracy: -m0
Conclusion: CDDA 99%
Signature: FDD9741BD492162C7773077818CCD9663986A159
FILE: 17 - Gatsu wo Karu Kuma.flac
Size: 15693296 Hash: A567BF85DCB3F4BEF82A7BBFA5DF12D2 Accuracy: -m0
Conclusion: CDDA 99%
Signature: FE651FBCF71B512D29C299286D93ABB6B754C8A9
FILE: 16 - Hakoniwa no Midori.flac
Size: 13338238 Hash: FCD9E59D809AD226451DDAE30BA2DFAA Accuracy: -m0
Conclusion: CDDA 86%
Signature: 7EA1AFEF14F24B81EE68CB49AF25778039E82A91
FILE: 15 - Ookami to Odoru.flac
Size: 6546477 Hash: 53F1F1EDB06AE894F3368D2DE845A150 Accuracy: -m0
Conclusion: CDDA 100%
Signature: 3571F8B38871190A817825114D2F3893015B1C8F
FILE: 14 - Wakaki Nendaiki Sakka.flac
Size: 8930139 Hash: DD1C2575F1DD2DF247356CCE125B5896 Accuracy: -m0
Conclusion: CDDA 100%
Signature: 94826F9467A3BBABF1F3ECC44118A5C702159FC1
FILE: 13 - Boudou.flac
Size: 12493784 Hash: 73076EF8DA79D0B6D8EC308027B17B13 Accuracy: -m0
Conclusion: CDDA 100%
Signature: 70B0E7B16F6BCC852BF15779C79C13AC5BE4814A
FILE: 12 - Kurutta Souba.flac
Size: 13288550 Hash: 6C97D940E8E2AF4E0CC0942B748FA880 Accuracy: -m0
Conclusion: CDDA 100%
Signature: 6053EDA4CAA45D16D0A54F227612A8D7F084C718
FILE: 11 - Uma Ranai Mizo.flac
Size: 8588959 Hash: 13029BE39B9D6D2479670AE86D581344 Accuracy: -m0
Conclusion: CDDA 100%
Signature: 7A132814032F6FCE4BB807AAFD6F24FBF867F709
FILE: 10 - Seikou ka Muichimon ka.flac
Size: 21152724 Hash: 75AFD85673B2A2B8CF0D2C8A980A11B0 Accuracy: -m0
Conclusion: CDDA 100%
Signature: 784329DF51F289D56F93C98E5EF7370DF91AAEB5
FILE: 09 - Houjou no Warutsu.flac
Size: 13257647 Hash: 3DBEBA7405EBC83B0B162035CEF6212E Accuracy: -m0
Conclusion: CDDA 94%
Signature: DE324AFAB5C950FA5F40208BE478DC8C99025264
 
Exact Audio Copy V1.0 beta 3 from 29. August 2011

EAC extraction logfile from 12. February 2012, 13:41

- / Spice and Wolf OST NDS

Used drive : PLEXTOR DVDR PX-760A Adapter: 1 ID: 0

Read mode : Secure
Utilize accurate stream : Yes
Defeat audio cache : Yes
Make use of C2 pointers : No

Read offset correction : 30
Overread into Lead-In and Lead-Out : Yes
Fill up missing offset samples with silence : Yes
Delete leading and trailing silent blocks : No
Null samples used in CRC calculations : Yes
Used interface : Native Win32 interface for Win NT & 2000
Gap handling : Appended to previous track

Used output format : User Defined Encoder
Selected bitrate : 1024 kBit/s
Quality : High
Add ID3 tag : No
Command line compressor : C:\Program Files (x86)\Exact Audio Copy\Flac\flac.exe
Additional command line options : -V -8 -T "Genre=%genre%" -T "Artist=%artist%" -T "Title=%title%" -T "Album=%albumtitle%" -T "Date=%year%" -T "Tracknumber=%tracknr%" -T "Comment=%comment%" %source%

TOC of the extracted CD

Track | Start | Length | Start sector | End sector
---------------------------------------------------------
1 | 0:00.00 | 3:20.05 | 0 | 15004
2 | 3:20.05 | 2:04.27 | 15005 | 24331
3 | 5:24.32 | 2:10.65 | 24332 | 34146
4 | 7:35.22 | 1:55.71 | 34147 | 42842
5 | 9:31.18 | 2:12.50 | 42843 | 52792
6 | 11:43.68 | 2:18.58 | 52793 | 63200
7 | 14:02.51 | 2:22.73 | 63201 | 73923
8 | 16:25.49 | 1:32.37 | 73924 | 80860
9 | 17:58.11 | 0:31.53 | 80861 | 83238
10 | 18:29.64 | 2:20.58 | 83239 | 93796
11 | 20:50.47 | 2:24.08 | 93797 | 104604
12 | 23:14.55 | 1:43.40 | 104605 | 112369
13 | 24:58.20 | 2:07.02 | 112370 | 121896
14 | 27:05.22 | 2:12.18 | 121897 | 131814
15 | 29:17.40 | 2:19.73 | 131815 | 142312
16 | 31:37.38 | 1:03.09 | 142313 | 147046
17 | 32:40.47 | 0:44.44 | 147047 | 150390
18 | 33:25.16 | 0:49.66 | 150391 | 154131
19 | 34:15.07 | 0:39.08 | 154132 | 157064
20 | 34:54.15 | 1:16.03 | 157065 | 162767
21 | 36:10.18 | 0:44.43 | 162768 | 166110
22 | 36:54.61 | 0:45.11 | 166111 | 169496
23 | 37:39.72 | 2:16.61 | 169497 | 179757
24 | 39:56.58 | 3:29.12 | 179758 | 195444

Track 1

Filename C:\RIPs\01 - Umi wo Wataru Kaze.wav

Pre-gap length 0:00:02.00

Peak level 100.0 %
Extraction speed 2.7 X
Track quality 100.0 %
Test CRC 781AFB31
Copy CRC 781AFB31
Track not present in AccurateRip database
Copy OK

Track 2

Filename C:\RIPs\02 - Horo Tono Tabiji.wav

Peak level 100.0 %
Extraction speed 2.5 X
Track quality 100.0 %
Test CRC BB7E5227
Copy CRC BB7E5227
Track not present in AccurateRip database
Copy OK

Track 3

Filename C:\RIPs\03 - Michi no Mukou ni.wav

Peak level 100.0 %
Extraction speed 2.5 X
Track quality 100.0 %
Test CRC A300C9A6
Copy CRC A300C9A6
Track not present in AccurateRip database
Copy OK

Track 4

Filename C:\RIPs\04 - Sakaba Nite.wav

Peak level 100.0 %
Extraction speed 2.4 X
Track quality 100.0 %
Test CRC DCBE8E4F
Copy CRC DCBE8E4F
Track not present in AccurateRip database
Copy OK

Track 5

Filename C:\RIPs\05 - Ooki na Machi.wav

Peak level 100.0 %
Extraction speed 2.5 X
Track quality 100.0 %
Test CRC 0942458F
Copy CRC 0942458F
Track not present in AccurateRip database
Copy OK

Track 6

Filename C:\RIPs\06 - Nodokana Mura.wav

Peak level 100.0 %
Extraction speed 2.1 X
Track quality 99.9 %
Test CRC D4DCA59F
Copy CRC D4DCA59F
Track not present in AccurateRip database
Copy OK

Track 7

Filename C:\RIPs\07 - Beorinu no Sanbashi.wav

Peak level 99.0 %
Extraction speed 2.5 X
Track quality 100.0 %
Test CRC 407DE8F6
Copy CRC 407DE8F6
Track not present in AccurateRip database
Copy OK

Track 8

Filename C:\RIPs\08 - Itsumono Koukei.wav

Peak level 100.0 %
Extraction speed 2.3 X
Track quality 100.0 %
Test CRC 11992EC6
Copy CRC 11992EC6
Track not present in AccurateRip database
Copy OK

Track 9

Filename C:\RIPs\09 - Sentaku no Toki.wav

Peak level 99.1 %
Extraction speed 1.5 X
Track quality 100.0 %
Test CRC 82BD2FE1
Copy CRC 82BD2FE1
Track not present in AccurateRip database
Copy OK

Track 10

Filename C:\RIPs\10 - Kimyou na Uwasa.wav

Peak level 100.0 %
Extraction speed 2.1 X
Track quality 99.9 %
Test CRC B5504C7B
Copy CRC B5504C7B
Track not present in AccurateRip database
Copy OK

Track 11

Filename C:\RIPs\11 - Hourou no Tabi.wav

Peak level 100.0 %
Extraction speed 2.1 X
Track quality 99.9 %
Test CRC 906B980A
Copy CRC 906B980A
Track not present in AccurateRip database
Copy OK

Track 12

Filename C:\RIPs\12 - Nigiwau Shijou.wav

Peak level 100.0 %
Extraction speed 2.3 X
Track quality 100.0 %
Test CRC ADD1E950
Copy CRC ADD1E950
Track not present in AccurateRip database
Copy OK

Track 13

Filename C:\RIPs\13 - Shoudan no Seki de.wav

Peak level 100.0 %
Extraction speed 2.5 X
Track quality 100.0 %
Test CRC F01483BB
Copy CRC F01483BB
Track not present in AccurateRip database
Copy OK

Track 14

Filename C:\RIPs\14 - Chottodogimagi.wav

Peak level 100.0 %
Extraction speed 2.5 X
Track quality 100.0 %
Test CRC ABCFFFCF
Copy CRC ABCFFFCF
Track not present in AccurateRip database
Copy OK

Track 15

Filename C:\RIPs\15 - Deiana no ie.wav

Peak level 100.0 %
Extraction speed 2.5 X
Track quality 100.0 %
Test CRC 6C8282D5
Copy CRC 6C8282D5
Track not present in AccurateRip database
Copy OK

Track 16

Filename C:\RIPs\16 - Choppiriii Kanji.wav

Peak level 99.3 %
Extraction speed 2.0 X
Track quality 100.0 %
Test CRC 722FE182
Copy CRC 722FE182
Track not present in AccurateRip database
Copy OK

Track 17

Filename C:\RIPs\17 - Semaru Kiki.wav

Peak level 100.0 %
Extraction speed 1.7 X
Track quality 100.0 %
Test CRC EF19A794
Copy CRC EF19A794
Track not present in AccurateRip database
Copy OK

Track 18

Filename C:\RIPs\18 - Tomoni Iru Yasura gi.wav

Peak level 100.0 %
Extraction speed 1.8 X
Track quality 100.0 %
Test CRC 206D854E
Copy CRC 206D854E
Track not present in AccurateRip database
Copy OK

Track 19

Filename C:\RIPs\19 - Hoshizora wo Miage te.wav

Peak level 100.0 %
Extraction speed 1.6 X
Track quality 100.0 %
Test CRC 9573C7C3
Copy CRC 9573C7C3
Track not present in AccurateRip database
Copy OK

Track 20

Filename C:\RIPs\20 - Okitegami.wav

Peak level 99.5 %
Extraction speed 1.6 X
Track quality 99.8 %
Test CRC B14946B7
Copy CRC B14946B7
Track not present in AccurateRip database
Copy OK

Track 21

Filename C:\RIPs\21 - Shinjitsu.wav

Peak level 99.8 %
Extraction speed 1.7 X
Track quality 100.0 %
Test CRC 3651E854
Copy CRC 3651E854
Track not present in AccurateRip database
Copy OK

Track 22

Filename C:\RIPs\22 - Kanashimi wo Koe te.wav

Peak level 99.5 %
Extraction speed 1.2 X
Track quality 99.7 %
Test CRC D89DA9D4
Copy CRC D89DA9D4
Track not present in AccurateRip database
Copy OK

Track 23

Filename C:\RIPs\23 - Odori no wa.wav

Peak level 100.0 %
Extraction speed 2.5 X
Track quality 100.0 %
Test CRC 6A11DAEF
Copy CRC 6A11DAEF
Track not present in AccurateRip database
Copy OK

Track 24

Filename C:\RIPs\24 - Kono Michi no Owari ni...wav

Peak level 100.0 %
Extraction speed 2.4 X
Track quality 99.9 %
Test CRC 297DC142
Copy CRC 297DC142
Track not present in AccurateRip database
Copy OK

None of the tracks are present in the AccurateRip database

No errors occurred

End of status report

---- CUETools DB Plugin V2.1.3

[CTDB TOCID: iajRug2oqk5EVDEJ4aeI0fCUyYM-] disk not present in database, Submit result: iajRug2oqk5EVDEJ4aeI0fCUyYM- has been uploaded

==== Log checksum 49F076A9F7016526733AAA1536A3138FB7191DBFDDF67A9DA3C824C048EF1F00 ====
 
-----------------------

DON'T MODIFY THIS FILE

-----------------------

PERFORMER: auCDtect Task Manager, ver. 1.5.1RC4 build 1.5.1.5
Copyright (c) 2008-2010 y-soft. All rights reserved
http://y-soft.org

ANALYZER: auCDtect: CD records authenticity detector, version 0.8.2
Copyright (c) 2004 Oleg Berngardt. All rights reserved.
Copyright (c) 2004 Alexander Djourik. All rights reserved.

FILE: 05 - Ooki na Machi.flac
Size: 14782665 Hash: 4C483167B2802C4674F218CADCF2D7AD Accuracy: -m0
Conclusion: CDDA 100%
Signature: 0839B0E392E49A1CCC80342F6D89AACE008D83A5
FILE: 04 - Sakaba Nite.flac
Size: 13016523 Hash: F5B76C12508CAE5D5903B5EE7F699F98 Accuracy: -m0
Conclusion: CDDA 100%
Signature: FBE8418819BD46F8A12A9764AA75327EBF43865A
FILE: 03 - Michi no Mukou ni.flac
Size: 15699458 Hash: 0F9ECB9405A3DB37B94B12A5A8571C23 Accuracy: -m0
Conclusion: CDDA 100%
Signature: 735A3DC75CEC88CCF0134BDEC402F8A7FB114332
FILE: 02 - Horo Tono Tabiji.flac
Size: 15101923 Hash: 904A10B620EDBC828CDCEF550671D8E8 Accuracy: -m0
Conclusion: CDDA 100%
Signature: 39A64C4FEB3B297B846DE279D4BB8EE45F75A0EA
FILE: 01 - Umi wo Wataru Kaze.flac
Size: 23997497 Hash: E25254DC820B3E1D2D6A8953FDB0FFCC Accuracy: -m0
Conclusion: CDDA 100%
Signature: 8369C1738239DCFA17810063CF03BE4D07C0D832
FILE: 24 - Kono Michi no Owari ni...flac
Size: 22613227 Hash: 85CC8A80DFA6B6D10582854B6A82C6DA Accuracy: -m0
Conclusion: CDDA 100%
Signature: F5FE366CFC428C214D64BAA78119689D940EE3C2
FILE: 23 - Odori no wa.flac
Size: 15237735 Hash: 4EDC157B6B967F1B180B934D60028D74 Accuracy: -m0
Conclusion: CDDA 100%
Signature: 8AB1AC9B8353A41766A7E8E31F59A0C66E56C72F
FILE: 22 - Kanashimi wo Koe te.flac
Size: 5017955 Hash: 4C846BD1C5CA74AB3935D026E574F528 Accuracy: -m0
Conclusion: CDDA 100%
Signature: 8859CBE705B15E90CBFF7FF1031502782FA9542F
FILE: 21 - Shinjitsu.flac
Size: 5215087 Hash: 5E3C92905ED73C8175AF61E23C3179C5 Accuracy: -m0
Conclusion: CDDA 100%
Signature: FB2FA82A8961558EE83C0CFF0B6CFAE77EC45A5F
FILE: 20 - Okitegami.flac
Size: 6280780 Hash: 22B517497E9F0F1C5AB1FE1BAEADC4B4 Accuracy: -m0
Conclusion: CDDA 100%
Signature: E25186C71AE98743CF8621BF448085FA5BD6F0A4
FILE: 19 - Hoshizora wo Miage te.flac
Size: 3251443 Hash: 8959879182D39A18D975A5ACD05AA79A Accuracy: -m0
Conclusion: MPEG 100%
Signature: 00934C8E8070F5F7DD8E43E4377263FE4793EEE0
FILE: 18 - Tomoni Iru Yasura gi.flac
Size: 4095440 Hash: 18B4DB757B99ADCF09F1169D50ADA94A Accuracy: -m0
Conclusion: CDDA 100%
Signature: 07435ED370EC4468F611CB51DD3C47ABDD7C27E8
FILE: 17 - Semaru Kiki.flac
Size: 4727914 Hash: B19DD16C3E5677690DE63021CCF13184 Accuracy: -m0
Conclusion: CDDA 100%
Signature: BFD40CCDF048E8B42ACFA908FDC1FF27CAC334EF
FILE: 16 - Choppiriii Kanji.flac
Size: 6146613 Hash: 438D36030A75EB7C7951E217FB894F42 Accuracy: -m0
Conclusion: CDDA 43%
Signature: EEE2D5B0859802B9E6777D8B3D3F274D10571374
FILE: 15 - Deiana no ie.flac
Size: 13629689 Hash: 5AD87139CCA3A164C45FFC432E9923EF Accuracy: -m0
Conclusion: CDDA 100%
Signature: 78C6F9A524EF26A13B3B33C6A690951E74AE6D35
FILE: 14 - Chottodogimagi.flac
Size: 15841117 Hash: 7B2EFC0089A60049B9C7D1F27AE87FB1 Accuracy: -m0
Conclusion: CDDA 100%
Signature: 8434F8A718CB45E6B4B5018F0C5E0794F02EE15C
FILE: 13 - Shoudan no Seki de.flac
Size: 13317410 Hash: 79C2634512A7D29A35CEB031312B6F4E Accuracy: -m0
Conclusion: CDDA 99%
Signature: 12535FACCE4C8A2F6041ED9A2CB5DCFE41D4C5B6
FILE: 12 - Nigiwau Shijou.flac
Size: 10345786 Hash: D9172CF4E7127A363705B293964185A3 Accuracy: -m0
Conclusion: CDDA 99%
Signature: A371F73FF1373182A189327B6230B1F495A2EE92
FILE: 11 - Hourou no Tabi.flac
Size: 15824678 Hash: C30ABC096F91A226CFB691CB82893767 Accuracy: -m0
Conclusion: CDDA 100%
Signature: 5AD08A2121C8CA6550F7E92D134CBE8B3008B1EC
FILE: 10 - Kimyou na Uwasa.flac
Size: 15058642 Hash: E9F47E9A1A468F82DF73071018FC3260 Accuracy: -m0
Conclusion: CDDA 99%
Signature: 708B04B27481D966F735647BE688D32672A78E1E
FILE: 09 - Sentaku no Toki.flac
Size: 2497770 Hash: A2C573588A7AC2AA986CB40D0AA623CA Accuracy: -m0
Conclusion: CDDA 100%
Signature: A08F00023A20EC6A0A6CB1C99D64F84E2EC384C2
FILE: 08 - Itsumono Koukei.flac
Size: 9084268 Hash: 04BD52E82DD46E4E0BB9790E1007B6DF Accuracy: -m0
Conclusion: CDDA 99%
Signature: 413584037998D4CC566EADEB86E76E9917131155
FILE: 07 - Beorinu no Sanbashi.flac
Size: 10610070 Hash: 2589FD13B29778FF46F5FAE093E4DC4C Accuracy: -m0
Conclusion: CDDA 100%
Signature: 4230A16146B787EAAFC43569FA1379F9FA3B09F7
FILE: 06 - Nodokana Mura.flac
Size: 14903185 Hash: 59F7F48200DC9C32FF8CFB775EAEA15F Accuracy: -m0
Conclusion: CDDA 100%
Signature: 84C62352CABC6E466E2845C26BBD2807194DC3B4
 
Exact Audio Copy V1.0 beta 3 from 29. August 2011

EAC extraction logfile from 12. February 2012, 3:06

Natsumi Kiyoura / Spice and Wolf OP

Used drive : PLEXTOR DVDR PX-760A Adapter: 1 ID: 0

Read mode : Secure
Utilize accurate stream : Yes
Defeat audio cache : Yes
Make use of C2 pointers : No

Read offset correction : 30
Overread into Lead-In and Lead-Out : Yes
Fill up missing offset samples with silence : Yes
Delete leading and trailing silent blocks : No
Null samples used in CRC calculations : Yes
Used interface : Native Win32 interface for Win NT & 2000
Gap handling : Appended to previous track

Used output format : User Defined Encoder
Selected bitrate : 1024 kBit/s
Quality : High
Add ID3 tag : No
Command line compressor : C:\Program Files (x86)\Exact Audio Copy\Flac\flac.exe
Additional command line options : -V -8 -T "Genre=%genre%" -T "Artist=%artist%" -T "Title=%title%" -T "Album=%albumtitle%" -T "Date=%year%" -T "Tracknumber=%tracknr%" -T "Comment=%comment%" %source%

TOC of the extracted CD

Track | Start | Length | Start sector | End sector
---------------------------------------------------------
1 | 0:00.00 | 4:54.48 | 0 | 22097
2 | 4:54.48 | 5:28.42 | 22098 | 46739
3 | 10:23.15 | 4:54.48 | 46740 | 68837
4 | 15:17.63 | 5:23.21 | 68838 | 93083

Track 1

Filename C:\RIPs\01 - Tabi no Tochuu.wav

Pre-gap length 0:00:02.00

Peak level 98.8 %
Extraction speed 2.8 X
Track quality 100.0 %
Test CRC 3FD043B4
Copy CRC 3FD043B4
Accurately ripped (confidence 2) [3B0E5091] (AR v1)
Copy OK

Track 2

Filename C:\RIPs\02 - Yakusoku Nouta.wav

Pre-gap length 0:00:03.59

Peak level 98.8 %
Extraction speed 2.9 X
Track quality 100.0 %
Test CRC 03BA7B0C
Copy CRC 03BA7B0C
Accurately ripped (confidence 2) [2D4AD9CD] (AR v1)
Copy OK

Track 3

Filename C:\RIPs\03 - Tabi no Tochuu without Natsumi.wav

Pre-gap length 0:00:05.58

Peak level 98.8 %
Extraction speed 2.9 X
Track quality 100.0 %
Test CRC BEB00CF7
Copy CRC BEB00CF7
Accurately ripped (confidence 2) [745A6F65] (AR v1)
Copy OK

Track 4

Filename C:\RIPs\04 - Yakusoku Nouta without Natsumi.wav

Pre-gap length 0:00:03.60

Peak level 98.8 %
Extraction speed 2.9 X
Track quality 100.0 %
Test CRC 2F3ADB00
Copy CRC 2F3ADB00
Accurately ripped (confidence 2) [FB928B9A] (AR v1)
Copy OK

All tracks accurately ripped

No errors occurred

End of status report

---- CUETools DB Plugin V2.1.3

[CTDB TOCID: SOMzRmWEn3pkfsFg5L01qvBdEMs-] found, Submit result: SOMzRmWEn3pkfsFg5L01qvBdEMs- has been confirmed
[25679773] (2/2) Accurately ripped

==== Log checksum 574F6EA99DA240CECAC5AC5D5A8746CAA188C919A1C5F7CA08774F6D2BC8F957 ====
 
-----------------------

DON'T MODIFY THIS FILE

-----------------------

PERFORMER: auCDtect Task Manager, ver. 1.5.1RC4 build 1.5.1.5
Copyright (c) 2008-2010 y-soft. All rights reserved
http://y-soft.org

ANALYZER: auCDtect: CD records authenticity detector, version 0.8.2
Copyright (c) 2004 Oleg Berngardt. All rights reserved.
Copyright (c) 2004 Alexander Djourik. All rights reserved.

FILE: 02 - Yakusoku Nouta.flac
Size: 40401981 Hash: 0239C6285AB274A3733D2AE22FC2635E Accuracy: -m0
Conclusion: CDDA 100%
Signature: B107744161ADC102CCAA4245A34DB526ADD72FF2
FILE: 01 - Tabi no Tochuu.flac
Size: 36264315 Hash: 9C26B56F91A6E9EA38689ED1F96FE73D Accuracy: -m0
Conclusion: CDDA 100%
Signature: 1B0161BD95531E833788AAA3424D8F0BD63D2DFA
FILE: 04 - Yakusoku Nouta without Natsumi.flac
Size: 39031611 Hash: 8C0BBFF99DF82F0B2352BB51E4F0FC56 Accuracy: -m0
Conclusion: CDDA 100%
Signature: EB8CF207FFD223FF487EE663413F744CDD10726B
FILE: 03 - Tabi no Tochuu without Natsumi.flac
Size: 35252053 Hash: 17C6DB4B6D0AA3E5327FECE0770AF5C8 Accuracy: -m0
Conclusion: CDDA 100%
Signature: 556DB07537D18603F25CB30C53D28C4941693061
 
Exact Audio Copy V1.0 beta 3 from 29. August 2011

EAC extraction logfile from 11. February 2012, 20:16

Rocky Chack / Spice and Wolf ED

Used drive : PLEXTOR DVDR PX-760A Adapter: 1 ID: 0

Read mode : Secure
Utilize accurate stream : Yes
Defeat audio cache : Yes
Make use of C2 pointers : No

Read offset correction : 30
Overread into Lead-In and Lead-Out : Yes
Fill up missing offset samples with silence : Yes
Delete leading and trailing silent blocks : No
Null samples used in CRC calculations : Yes
Used interface : Native Win32 interface for Win NT & 2000
Gap handling : Appended to previous track

Used output format : User Defined Encoder
Selected bitrate : 1024 kBit/s
Quality : High
Add ID3 tag : No
Command line compressor : C:\Program Files (x86)\Exact Audio Copy\Flac\flac.exe
Additional command line options : -V -8 -T "Genre=%genre%" -T "Artist=%artist%" -T "Title=%title%" -T "Album=%albumtitle%" -T "Date=%year%" -T "Tracknumber=%tracknr%" -T "Comment=%comment%" %source%

TOC of the extracted CD

Track | Start | Length | Start sector | End sector
---------------------------------------------------------
1 | 0:00.00 | 4:52.60 | 0 | 21959
2 | 4:52.60 | 3:55.35 | 21960 | 39619
3 | 8:48.20 | 4:52.60 | 39620 | 61579
4 | 13:41.05 | 3:51.15 | 61580 | 78919

Track 1

Filename C:\RIPs\01 - Ringo Hiyori ~ The Wolf Whistling Song.wav

Pre-gap length 0:00:02.00

Peak level 98.8 %
Extraction speed 1.6 X
Track quality 99.9 %
Test CRC 1333B20C
Copy CRC 1333B20C
Track not present in AccurateRip database
Copy OK

Track 2

Filename C:\RIPs\02 - Namaiki Nabokura.wav

Pre-gap length 0:00:02.59

Peak level 98.8 %
Extraction speed 2.1 X
Track quality 100.0 %
Test CRC D8D60809
Copy CRC D8D60809
Track not present in AccurateRip database
Copy OK

Track 3

Filename C:\RIPs\03 - Ringo Hiyori ~ The Wolf Whistling Song (w,o Rocky Chack).wav

Pre-gap length 0:00:04.59

Peak level 98.8 %
Extraction speed 1.6 X
Track quality 99.9 %
Test CRC 592D1AE3
Copy CRC 592D1AE3
Track not present in AccurateRip database
Copy OK

Track 4

Filename C:\RIPs\04 - Namaiki Nabokura (w,o Rocky Chack).wav

Pre-gap length 0:00:02.58

Peak level 98.8 %
Extraction speed 2.1 X
Track quality 100.0 %
Test CRC 2A6A610E
Copy CRC 2A6A610E
Track not present in AccurateRip database
Copy OK

None of the tracks are present in the AccurateRip database

No errors occurred

End of status report

---- CUETools DB Plugin V2.1.3

[CTDB TOCID: C1QgtqlEhfXas9gM5cjw1cPrqZc-] disk not present in database, Submit result: C1QgtqlEhfXas9gM5cjw1cPrqZc- has been uploaded

==== Log checksum 4889EDF99475D0D87F6B68BF40EADDC17D0F94B8BAB023E8B5A151B8CD9723FA ====
 
-----------------------

DON'T MODIFY THIS FILE

-----------------------

PERFORMER: auCDtect Task Manager, ver. 1.5.1RC4 build 1.5.1.5
Copyright (c) 2008-2010 y-soft. All rights reserved
http://y-soft.org

ANALYZER: auCDtect: CD records authenticity detector, version 0.8.2
Copyright (c) 2004 Oleg Berngardt. All rights reserved.
Copyright (c) 2004 Alexander Djourik. All rights reserved.

FILE: 02 - Namaiki Nabokura.flac
Size: 22486361 Hash: 091CE47228B8B6E17A416A6345D38A36 Accuracy: -m0
Conclusion: CDDA 100%
Signature: BA1B0AB86112985FFD7B3604FFA13B2DC29F600B
FILE: 01 - Ringo Hiyori ~ The Wolf Whistling Song.flac
Size: 33765418 Hash: CCAF959E945BA0BDB48F6B922A3D13D5 Accuracy: -m0
Conclusion: CDDA 99%
Signature: B287D5F5FEE42DF04F432E4199ADA9FD03616CE9
FILE: 04 - Namaiki Nabokura (w,o Rocky Chack).flac
Size: 21200121 Hash: 5D15A65B6A7644B3756C3AB419D20BC9 Accuracy: -m0
Conclusion: CDDA 99%
Signature: 622B9E39A65164355975C288C513ED2CFE9579B3
FILE: 03 - Ringo Hiyori ~ The Wolf Whistling Song (w,o Rocky Chack).flac
Size: 32244492 Hash: 62B797EF77D4E949D973CCE6CD1880F5 Accuracy: -m0
Conclusion: CDDA 100%
Signature: CA460D1A0EB900BF790D2494A73FACBE9FD74CC3
 
Exact Audio Copy V1.0 beta 3 from 29. August 2011

EAC extraction logfile from 11. February 2012, 14:23

Ami Koshimizu / Spice and Wolf Theme Song NDS

Used drive : PLEXTOR DVDR PX-760A Adapter: 1 ID: 0

Read mode : Secure
Utilize accurate stream : Yes
Defeat audio cache : Yes
Make use of C2 pointers : No

Read offset correction : 30
Overread into Lead-In and Lead-Out : Yes
Fill up missing offset samples with silence : Yes
Delete leading and trailing silent blocks : No
Null samples used in CRC calculations : Yes
Used interface : Native Win32 interface for Win NT & 2000
Gap handling : Appended to previous track

Used output format : User Defined Encoder
Selected bitrate : 1024 kBit/s
Quality : High
Add ID3 tag : No
Command line compressor : C:\Program Files (x86)\Exact Audio Copy\Flac\flac.exe
Additional command line options : -V -8 -T "Genre=%genre%" -T "Artist=%artist%" -T "Title=%title%" -T "Album=%albumtitle%" -T "Date=%year%" -T "Tracknumber=%tracknr%" -T "Comment=%comment%" %source%

TOC of the extracted CD

Track | Start | Length | Start sector | End sector
---------------------------------------------------------
1 | 0:00.00 | 4:07.33 | 0 | 18557
2 | 4:07.33 | 5:03.31 | 18558 | 41313
3 | 9:10.64 | 3:45.63 | 41314 | 58251
4 | 12:56.52 | 4:07.33 | 58252 | 76809
5 | 17:04.10 | 5:00.31 | 76810 | 99340

Track 1

Filename C:\RIPs\01 - Tonari Niiruyo.wav

Pre-gap length 0:00:02.00

Peak level 98.8 %
Extraction speed 2.1 X
Track quality 100.0 %
Test CRC F95F981B
Copy CRC F95F981B
Track not present in AccurateRip database
Copy OK

Track 2

Filename C:\RIPs\02 - Tonari Niiruyo ED Ver.wav

Pre-gap length 0:00:02.00

Peak level 98.8 %
Extraction speed 1.6 X
Track quality 99.9 %
Test CRC D3CB090E
Copy CRC D3CB090E
Track not present in AccurateRip database
Copy OK

Track 3

Filename C:\RIPs\03 - Tonari Niiruyo BGM Ver.wav

Pre-gap length 0:00:03.00

Peak level 98.8 %
Extraction speed 2.1 X
Track quality 100.0 %
Test CRC 710942BC
Copy CRC 710942BC
Track not present in AccurateRip database
Copy OK

Track 4

Filename C:\RIPs\04 - Tonari Niiruyo -Instrumental-.wav

Pre-gap length 0:00:03.00

Peak level 98.8 %
Extraction speed 2.1 X
Track quality 100.0 %
Test CRC A32028B0
Copy CRC A32028B0
Track not present in AccurateRip database
Copy OK

Track 5

Filename C:\RIPs\05 - Tonari Niiruyo ED Ver -Instrumental-.wav

Pre-gap length 0:00:02.00

Peak level 98.8 %
Extraction speed 1.6 X
Track quality 99.9 %
Test CRC 7061D7A6
Copy CRC 7061D7A6
Track not present in AccurateRip database
Copy OK

None of the tracks are present in the AccurateRip database

No errors occurred

End of status report

---- CUETools DB Plugin V2.1.3

[CTDB TOCID: 3Ve3tq5_0bDvQUWUbO8e9xCbgr4-] disk not present in database, Submit result: 3Ve3tq5_0bDvQUWUbO8e9xCbgr4- has been uploaded

==== Log checksum 327D75ED076852636BB3B4B6661E12B40DE74E33C07334DA129CF9396F7FD640 ====
 
-----------------------

DON'T MODIFY THIS FILE

-----------------------

PERFORMER: auCDtect Task Manager, ver. 1.5.1RC4 build 1.5.1.5
Copyright (c) 2008-2010 y-soft. All rights reserved
http://y-soft.org

ANALYZER: auCDtect: CD records authenticity detector, version 0.8.2
Copyright (c) 2004 Oleg Berngardt. All rights reserved.
Copyright (c) 2004 Alexander Djourik. All rights reserved.

FILE: 03 - Tonari Niiruyo BGM Ver.flac
Size: 24332528 Hash: 14BA28F3B75FFB62BBC0C1E7657C7D61 Accuracy: -m0
Conclusion: CDDA 100%
Signature: AE41B9ABCE840FB1EC4EFC4F68D4345126D97B51
FILE: 02 - Tonari Niiruyo ED Ver.flac
Size: 32135953 Hash: 4F32A53A39ADC723104E28CCACE14A50 Accuracy: -m0
Conclusion: CDDA 100%
Signature: E3F1AD16EC8EF66D860F5DAA7BD17372353BA502
FILE: 01 - Tonari Niiruyo.flac
Size: 27669483 Hash: 496FD3781E7ACD7B0AF5356078D0C0BD Accuracy: -m0
Conclusion: CDDA 100%
Signature: 4843601A48ED492080DE79D660680ADBF5041347
FILE: 05 - Tonari Niiruyo ED Ver -Instrumental-.flac
Size: 29747348 Hash: 04341FCD2C32B74916EF5689651A2D46 Accuracy: -m0
Conclusion: CDDA 100%
Signature: DC949C6F331BC9258C4E0557CB2D8831A37A10D7
FILE: 04 - Tonari Niiruyo -Instrumental-.flac
Size: 26448492 Hash: F7894A9174F0EA73284403896C9BA5F1 Accuracy: -m0
Conclusion: CDDA 100%
Signature: 425286E73FDDCB01813349328E56D4D831DA0B9D
 
Exact Audio Copy V1.0 beta 3 from 29. August 2011

EAC extraction logfile from 11. February 2012, 23:58

Akino Arai / Spice and Wolf OP 2

Used drive : PLEXTOR DVDR PX-760A Adapter: 1 ID: 0

Read mode : Secure
Utilize accurate stream : Yes
Defeat audio cache : Yes
Make use of C2 pointers : No

Read offset correction : 30
Overread into Lead-In and Lead-Out : Yes
Fill up missing offset samples with silence : Yes
Delete leading and trailing silent blocks : No
Null samples used in CRC calculations : Yes
Used interface : Native Win32 interface for Win NT & 2000
Gap handling : Appended to previous track

Used output format : User Defined Encoder
Selected bitrate : 1024 kBit/s
Quality : High
Add ID3 tag : No
Command line compressor : C:\Program Files (x86)\Exact Audio Copy\Flac\flac.exe
Additional command line options : -V -8 -T "Genre=%genre%" -T "Artist=%artist%" -T "Title=%title%" -T "Album=%albumtitle%" -T "Date=%year%" -T "Tracknumber=%tracknr%" -T "Comment=%comment%" %source%

TOC of the extracted CD

Track | Start | Length | Start sector | End sector
---------------------------------------------------------
1 | 0:00.00 | 4:54.11 | 0 | 22060
2 | 4:54.11 | 4:08.43 | 22061 | 40703
3 | 9:02.54 | 4:24.03 | 40704 | 60506
4 | 13:26.57 | 4:52.62 | 60507 | 82468

Track 1

Filename C:\RIPs\01 - Mitsu no Yoake.wav

Pre-gap length 0:00:02.00

Peak level 98.8 %
Extraction speed 2.6 X
Track quality 99.9 %
Test CRC F5BB571E
Copy CRC F5BB571E
Accurately ripped (confidence 4) [FB32761A] (AR v1)
Copy OK

Track 2

Filename C:\RIPs\02 - Ekleipsis.wav

Pre-gap length 0:00:02.47

Peak level 98.8 %
Extraction speed 2.8 X
Track quality 100.0 %
Test CRC AADCCB81
Copy CRC AADCCB81
Accurately ripped (confidence 4) [CC14AED6] (AR v1)
Copy OK

Track 3

Filename C:\RIPs\03 - Monday, Tuesday.wav

Pre-gap length 0:00:03.46

Peak level 98.8 %
Extraction speed 2.5 X
Track quality 99.9 %
Test CRC D09BF03D
Copy CRC D09BF03D
Accurately ripped (confidence 3) [7FF59EB2] (AR v1)
Copy OK

Track 4

Filename C:\RIPs\04 - Mitsu no Yoake (w,o Akino).wav

Pre-gap length 0:00:04.47

Peak level 98.8 %
Extraction speed 2.6 X
Track quality 99.9 %
Test CRC 3D5E0C12
Copy CRC 3D5E0C12
Accurately ripped (confidence 3) [19C587B2] (AR v1)
Copy OK

All tracks accurately ripped

No errors occurred

End of status report

---- CUETools DB Plugin V2.1.3

[CTDB TOCID: zDu15LeHw1IUjHc._qey_mhwfSU-] found, Submit result: zDu15LeHw1IUjHc._qey_mhwfSU- has been confirmed
[15c37bce] (1/1) Accurately ripped

==== Log checksum 60EAA6406430AB68F7FCA69D90C3666AA4E16BFAB13A2BA7D109942FE7CB5E04 ====
 
-----------------------

DON'T MODIFY THIS FILE

-----------------------

PERFORMER: auCDtect Task Manager, ver. 1.5.1RC4 build 1.5.1.5
Copyright (c) 2008-2010 y-soft. All rights reserved
http://y-soft.org

ANALYZER: auCDtect: CD records authenticity detector, version 0.8.2
Copyright (c) 2004 Oleg Berngardt. All rights reserved.
Copyright (c) 2004 Alexander Djourik. All rights reserved.

FILE: 02 - Ekleipsis.flac
Size: 20744534 Hash: CE14DBF7526D0DCF854E10BA1BB16B2E Accuracy: -m0
Conclusion: CDDA 100%
Signature: 73C9EF015F3C1FC5EE759863575571B0DC7F5ED5
FILE: 01 - Mitsu no Yoake.flac
Size: 35987727 Hash: 68C92D8D56542D2EA419BE8EA6DF9C66 Accuracy: -m0
Conclusion: CDDA 100%
Signature: 180A0396DF6EAB8D9BBD0D947102BAB20A15A044
FILE: 04 - Mitsu no Yoake (w,o Akino).flac
Size: 35380153 Hash: 354D4285D7B7248DF60B9804CEFC8EFC Accuracy: -m0
Conclusion: CDDA 100%
Signature: DC062C87A752E37655E9AF2AB159BA4569FE455A
FILE: 03 - Monday, Tuesday.flac
Size: 27058217 Hash: 9F91D25E8BA2C912ABD906D6428710D9 Accuracy: -m0
Conclusion: CDDA 58%
Signature: B2C2D3F7B04E9E8DBD4CAA8DEB593BDB0C237EFC
 
Exact Audio Copy V1.0 beta 3 from 29. August 2011

EAC extraction logfile from 12. February 2012, 2:25

Rocky Chack / Spice and Wolf ED 2

Used drive : PLEXTOR DVDR PX-760A Adapter: 1 ID: 0

Read mode : Secure
Utilize accurate stream : Yes
Defeat audio cache : Yes
Make use of C2 pointers : No

Read offset correction : 30
Overread into Lead-In and Lead-Out : Yes
Fill up missing offset samples with silence : Yes
Delete leading and trailing silent blocks : No
Null samples used in CRC calculations : Yes
Used interface : Native Win32 interface for Win NT & 2000
Gap handling : Appended to previous track

Used output format : User Defined Encoder
Selected bitrate : 1024 kBit/s
Quality : High
Add ID3 tag : No
Command line compressor : C:\Program Files (x86)\Exact Audio Copy\Flac\flac.exe
Additional command line options : -V -8 -T "Genre=%genre%" -T "Artist=%artist%" -T "Title=%title%" -T "Album=%albumtitle%" -T "Date=%year%" -T "Tracknumber=%tracknr%" -T "Comment=%comment%" %source%

TOC of the extracted CD

Track | Start | Length | Start sector | End sector
---------------------------------------------------------
1 | 0:00.00 | 5:58.20 | 0 | 26869
2 | 5:58.20 | 3:41.53 | 26870 | 43497
3 | 9:39.73 | 5:52.54 | 43498 | 69951
4 | 15:32.52 | 3:35.00 | 69952 | 86076

Track 1

Filename C:\RIPs\01 - Perfect World.wav

Pre-gap length 0:00:02.00

Peak level 98.7 %
Extraction speed 2.9 X
Track quality 100.0 %
Test CRC B6A054D7
Copy CRC B6A054D7
Accurately ripped (confidence 1) [D986744D] (AR v1)
Copy OK

Track 2

Filename C:\RIPs\02 - Kun to Boku.wav

Pre-gap length 0:00:03.09

Peak level 98.8 %
Extraction speed 2.7 X
Track quality 100.0 %
Test CRC 583881EC
Copy CRC 583881EC
Accurately ripped (confidence 1) [431DA887] (AR v1)
Copy OK

Track 3

Filename C:\RIPs\03 - Perfect World (w,o R.C.).wav

Pre-gap length 0:00:04.45

Peak level 95.5 %
Extraction speed 2.9 X
Track quality 100.0 %
Test CRC 8EAD3F92
Copy CRC 8EAD3F92
Accurately ripped (confidence 1) [B1FD1955] (AR v1)
Copy OK

Track 4

Filename C:\RIPs\04 - Kun to Boku (w,o R.C.).wav

Pre-gap length 0:00:03.09

Peak level 98.8 %
Extraction speed 2.7 X
Track quality 100.0 %
Test CRC 9FEBF5E6
Copy CRC 9FEBF5E6
Accurately ripped (confidence 1) [0616CC2B] (AR v1)
Copy OK

All tracks accurately ripped

No errors occurred

End of status report

---- CUETools DB Plugin V2.1.3

[CTDB TOCID: y7_E8pgwTh0uWWMzqurW69VyoGo-] found, Submit result: y7_E8pgwTh0uWWMzqurW69VyoGo- has been confirmed
[8e5dda52] (1/1) Accurately ripped

==== Log checksum 450FFBAA71BB75938308F220C8F3C1C45275862CD5B363327C5956806D5252E8 ====
 
-----------------------

DON'T MODIFY THIS FILE

-----------------------

PERFORMER: auCDtect Task Manager, ver. 1.5.1RC4 build 1.5.1.5
Copyright (c) 2008-2010 y-soft. All rights reserved
http://y-soft.org

ANALYZER: auCDtect: CD records authenticity detector, version 0.8.2
Copyright (c) 2004 Oleg Berngardt. All rights reserved.
Copyright (c) 2004 Alexander Djourik. All rights reserved.

FILE: 02 - Kun to Boku.flac
Size: 21345808 Hash: BF2CE8F90D20445B58F942955C9BE001 Accuracy: -m0
Conclusion: CDDA 100%
Signature: A71B85D3FFADFC147173CC2BD0EFA21966145371
FILE: 01 - Perfect World.flac
Size: 42222199 Hash: 98F28E404637E271DEE9205BDD877B2D Accuracy: -m0
Conclusion: CDDA 100%
Signature: B9D526A48A9F43B33BF026F7E37CF9E7E944BDFF
FILE: 04 - Kun to Boku (w,o R.C.).flac
Size: 19602446 Hash: C67CD5B0C168070BE7DEBAC63600D9DB Accuracy: -m0
Conclusion: CDDA 100%
Signature: C218EAAEA9BC8C60F8A501CEAD399C8B73311EA8
FILE: 03 - Perfect World (w,o R.C.).flac
Size: 40633145 Hash: D5D040DAF924D6EE7774F8E0418217A0 Accuracy: -m0
Conclusion: CDDA 100%
Signature: 47F470ACF274CFAEB9B6BC335E7EF8A3C4A680FD
 
Exact Audio Copy V1.0 beta 3 from 29. August 2011

EAC extraction logfile from 11. February 2012, 22:17

Jun Fukuyama & Ami Koshimizu / Spice and Wolf Drama CD

Used drive : PLEXTOR DVDR PX-760A Adapter: 1 ID: 0

Read mode : Secure
Utilize accurate stream : Yes
Defeat audio cache : Yes
Make use of C2 pointers : No

Read offset correction : 30
Overread into Lead-In and Lead-Out : Yes
Fill up missing offset samples with silence : Yes
Delete leading and trailing silent blocks : No
Null samples used in CRC calculations : Yes
Used interface : Native Win32 interface for Win NT & 2000
Gap handling : Appended to previous track

Used output format : User Defined Encoder
Selected bitrate : 1024 kBit/s
Quality : High
Add ID3 tag : No
Command line compressor : C:\Program Files (x86)\Exact Audio Copy\Flac\flac.exe
Additional command line options : -V -8 -T "Genre=%genre%" -T "Artist=%artist%" -T "Title=%title%" -T "Album=%albumtitle%" -T "Date=%year%" -T "Tracknumber=%tracknr%" -T "Comment=%comment%" %source%

TOC of the extracted CD

Track | Start | Length | Start sector | End sector
---------------------------------------------------------
1 | 0:00.00 | 4:01.32 | 0 | 18106
2 | 4:01.32 | 5:42.36 | 18107 | 43792
3 | 9:43.68 | 6:12.07 | 43793 | 71699
4 | 15:56.00 | 6:08.67 | 71700 | 99366
5 | 22:04.67 | 5:22.32 | 99367 | 123548
6 | 27:27.24 | 5:12.19 | 123549 | 146967
7 | 32:39.43 | 6:06.18 | 146968 | 174435
8 | 38:45.61 | 7:23.61 | 174436 | 207721
9 | 46:09.47 | 5:26.06 | 207722 | 232177
10 | 51:35.53 | 6:27.65 | 232178 | 261267

Track 1

Filename C:\RIPs\01 - Daiichi Maku- Izakaya.wav

Pre-gap length 0:00:02.00

Peak level 97.4 %
Extraction speed 2.1 X
Track quality 100.0 %
Test CRC 26381E4A
Copy CRC 26381E4A
Accurately ripped (confidence 1) [3E1F28AB] (AR v1)
Copy OK

Track 2

Filename C:\RIPs\02 - Daini Maku- Yadoya Sono 1.wav

Peak level 95.6 %
Extraction speed 2.2 X
Track quality 100.0 %
Test CRC 37C9C89F
Copy CRC 37C9C89F
Accurately ripped (confidence 1) [5C47BC53] (AR v1)
Copy OK

Track 3

Filename C:\RIPs\03 - Daisan Maku- Horo no Yume.wav

Peak level 98.1 %
Extraction speed 2.2 X
Track quality 100.0 %
Test CRC E149375E
Copy CRC E149375E
Accurately ripped (confidence 1) [AD84F807] (AR v1)
Copy OK

Track 4

Filename C:\RIPs\04 - Daiyon Maku- Yadoya Sono 2.wav

Peak level 97.8 %
Extraction speed 2.2 X
Track quality 100.0 %
Test CRC A2640B45
Copy CRC A2640B45
Accurately ripped (confidence 1) [753E0E50] (AR v1)
Copy OK

Track 5

Filename C:\RIPs\05 - Daigo Maku- Yadoya Sono 3.wav

Peak level 94.0 %
Extraction speed 2.2 X
Track quality 100.0 %
Test CRC A71ED752
Copy CRC A71ED752
Accurately ripped (confidence 1) [6930977A] (AR v1)
Copy OK

Track 6

Filename C:\RIPs\06 - Dairoku Maku- Futaritabi Futatabi....wav

Peak level 98.7 %
Extraction speed 2.2 X
Track quality 100.0 %
Test CRC 211001B0
Copy CRC 211001B0
Accurately ripped (confidence 1) [B7FDC0D7] (AR v1)
Copy OK

Track 7

Filename C:\RIPs\07 - Dainana Maku- Rorensu no Yume Sono 1.wav

Peak level 97.7 %
Extraction speed 2.2 X
Track quality 100.0 %
Test CRC 48022CD2
Copy CRC 48022CD2
Accurately ripped (confidence 1) [AFA7288D] (AR v1)
Copy OK

Track 8

Filename C:\RIPs\08 - Daihachi Maku- Rorensu no Yume Sono 2.wav

Peak level 98.5 %
Extraction speed 2.3 X
Track quality 100.0 %
Test CRC 189CA2CA
Copy CRC 189CA2CA
Accurately ripped (confidence 1) [736967A7] (AR v1)
Copy OK

Track 9

Filename C:\RIPs\09 - Daiku Maku- Rorensu no Yume Sono 3.wav

Peak level 98.2 %
Extraction speed 2.2 X
Track quality 100.0 %
Test CRC 7B24A0AC
Copy CRC 7B24A0AC
Accurately ripped (confidence 1) [C84D5E03] (AR v1)
Copy OK

Track 10

Filename C:\RIPs\10 - Daijuu Maku- Yatto Genjitsu.wav

Peak level 99.1 %
Extraction speed 2.2 X
Track quality 100.0 %
Test CRC 131923F0
Copy CRC 131923F0
Accurately ripped (confidence 1) [CCD609A9] (AR v1)
Copy OK

All tracks accurately ripped

No errors occurred

End of status report

---- CUETools DB Plugin V2.1.3

[CTDB TOCID: R_voK71Ms6RuytH3NQ0dx8p2POA-] disk not present in database, Submit result: R_voK71Ms6RuytH3NQ0dx8p2POA- has been uploaded

==== Log checksum A2FD5BF14B538C9A7C0F4CF549D371CEFCA8EF12A72C25BF24A9C80C1B97BFFA ====
 
-----------------------

DON'T MODIFY THIS FILE

-----------------------

PERFORMER: auCDtect Task Manager, ver. 1.5.1RC4 build 1.5.1.5
Copyright (c) 2008-2010 y-soft. All rights reserved
http://y-soft.org

ANALYZER: auCDtect: CD records authenticity detector, version 0.8.2
Copyright (c) 2004 Oleg Berngardt. All rights reserved.
Copyright (c) 2004 Alexander Djourik. All rights reserved.

FILE: 03 - Daisan Maku- Horo no Yume.flac
Size: 34482754 Hash: B02D979E50B146ABDC3006B8A13031C6 Accuracy: -m0
Conclusion: CDDA 100%
Signature: 9064AE26CA0BE97CE7D226D23FD847EF3BDC493D
FILE: 02 - Daini Maku- Yadoya Sono 1.flac
Size: 30030516 Hash: 8B5B260BF8970E45C103B0A0A1C0AD21 Accuracy: -m0
Conclusion: CDDA 100%
Signature: 02BBD85EB38772A522A9B346170C1CD68A1F22F2
FILE: 01 - Daiichi Maku- Izakaya.flac
Size: 23743978 Hash: 9B78BDB0C316AFF803D2039ED7143A0D Accuracy: -m0
Conclusion: CDDA 100%
Signature: 43EFBAA0B82A45FD4E076D7FA4DF52DBC22268E8
FILE: 10 - Daijuu Maku- Yatto Genjitsu.flac
Size: 33218167 Hash: 93D3D87CF3EB50999EC94E40BE08402E Accuracy: -m0
Conclusion: CDDA 100%
Signature: 060B982AC0FA39F32F70C5290103E17B9C586B34
FILE: 09 - Daiku Maku- Rorensu no Yume Sono 3.flac
Size: 28771071 Hash: 6228C7AE7A5F9DA32F964528C3B97F88 Accuracy: -m0
Conclusion: CDDA 100%
Signature: DDB5D62788D0D8EFBDCCE84FC82CC065073F39C4
FILE: 08 - Daihachi Maku- Rorensu no Yume Sono 2.flac
Size: 40040251 Hash: 3FE43F2A09C5CD2FBB465AA41DA5C10B Accuracy: -m0
Conclusion: CDDA 100%
Signature: E4176F29B137A47DA9F34F3596301971C4155991
FILE: 07 - Dainana Maku- Rorensu no Yume Sono 1.flac
Size: 31580689 Hash: 9FD58C57C1EDB7575FDC0A4F3EDCA838 Accuracy: -m0
Conclusion: CDDA 100%
Signature: 6E93D1D2C24EC09A4695F52D834C9AB9D4DE4A23
FILE: 06 - Dairoku Maku- Futaritabi Futatabi....flac
Size: 30589895 Hash: 48358141C96E5BDCB8F49A90C26A5A6F Accuracy: -m0
Conclusion: CDDA 100%
Signature: 600CF443D4B21D3AAF23451B154F56E43704D547
FILE: 05 - Daigo Maku- Yadoya Sono 3.flac
Size: 27699913 Hash: 055D2A68CF12ED89D6C2916083C91CC3 Accuracy: -m0
Conclusion: CDDA 100%
Signature: 95219D064E98461FA66540BAF9C501A59235E21F
FILE: 04 - Daiyon Maku- Yadoya Sono 2.flac
Size: 30380421 Hash: 013C167D356EE8505B7AB78A316B3E98 Accuracy: -m0
Conclusion: CDDA 100%
Signature: 52D5A6520D1834D3A3A93FF816D4022E82720895
 
Exact Audio Copy V1.0 beta 3 from 29. August 2011

EAC extraction logfile from 11. February 2012, 23:25

Various Artists / Spice and Wolf Drama CD 2

Used drive : PLEXTOR DVDR PX-760A Adapter: 1 ID: 0

Read mode : Secure
Utilize accurate stream : Yes
Defeat audio cache : Yes
Make use of C2 pointers : No

Read offset correction : 30
Overread into Lead-In and Lead-Out : Yes
Fill up missing offset samples with silence : Yes
Delete leading and trailing silent blocks : No
Null samples used in CRC calculations : Yes
Used interface : Native Win32 interface for Win NT & 2000
Gap handling : Appended to previous track

Used output format : User Defined Encoder
Selected bitrate : 1024 kBit/s
Quality : High
Add ID3 tag : No
Command line compressor : C:\Program Files (x86)\Exact Audio Copy\Flac\flac.exe
Additional command line options : -V -8 -T "Genre=%genre%" -T "Artist=%artist%" -T "Title=%title%" -T "Album=%albumtitle%" -T "Date=%year%" -T "Tracknumber=%tracknr%" -T "Comment=%comment%" %source%

TOC of the extracted CD

Track | Start | Length | Start sector | End sector
---------------------------------------------------------
1 | 0:00.00 | 5:28.65 | 0 | 24664
2 | 5:28.65 | 11:09.70 | 24665 | 74909
3 | 16:38.60 | 7:42.64 | 74910 | 109623
4 | 24:21.49 | 9:09.08 | 109624 | 150806
5 | 33:30.57 | 4:23.38 | 150807 | 170569
6 | 37:54.20 | 9:12.04 | 170570 | 211973
7 | 47:06.24 | 5:48.11 | 211974 | 238084

Track 1

Filename C:\RIPs\01 - Daiichi Maku- Ookami to Momo Nohachimitsu Tsuke.wav

Pre-gap length 0:00:02.00

Peak level 97.9 %
Extraction speed 2.9 X
Track quality 100.0 %
Test CRC D5DDE812
Copy CRC D5DDE812
Accurately ripped (confidence 1) [239E8C1D] (AR v1)
Copy OK

Track 2

Filename C:\RIPs\02 - Daini Maku- Ookami to Momo Nohachimitsu Tsuke.wav

Peak level 97.9 %
Extraction speed 3.1 X
Track quality 100.0 %
Test CRC 25CA25D9
Copy CRC 25CA25D9
Accurately ripped (confidence 1) [D4C6474C] (AR v1)
Copy OK

Track 3

Filename C:\RIPs\03 - Daisan Maku- Ookami to Momo Nohachimitsu Tsuke.wav

Peak level 97.9 %
Extraction speed 3.0 X
Track quality 100.0 %
Test CRC E750A896
Copy CRC E750A896
Accurately ripped (confidence 1) [829832A0] (AR v1)
Copy OK

Track 4

Filename C:\RIPs\04 - Daiyon Maku- Ookami to Momo Nohachimitsu Tsuke.wav

Peak level 97.9 %
Extraction speed 2.9 X
Track quality 99.9 %
Test CRC 6A4B2607
Copy CRC 6A4B2607
Accurately ripped (confidence 1) [AB39D2EA] (AR v1)
Copy OK

Track 5

Filename C:\RIPs\05 - Daigo Maku- Ookami to Momo Nohachimitsu Tsuke.wav

Peak level 97.9 %
Extraction speed 2.8 X
Track quality 100.0 %
Test CRC 333B6B19
Copy CRC 333B6B19
Accurately ripped (confidence 1) [1841FF38] (AR v1)
Copy OK

Track 6

Filename C:\RIPs\06 - Dairoku Maku- Ookami to Momo Nohachimitsu Tsuke.wav

Peak level 97.9 %
Extraction speed 3.0 X
Track quality 100.0 %
Test CRC E302339D
Copy CRC E302339D
Accurately ripped (confidence 1) [33FB2CE8] (AR v1)
Copy OK

Track 7

Filename C:\RIPs\07 - Dainana Maku- Ookami to Momo Nohachimitsu Tsuke.wav

Peak level 97.9 %
Extraction speed 2.9 X
Track quality 100.0 %
Test CRC 20CC4A3C
Copy CRC 20CC4A3C
Accurately ripped (confidence 1) [86E89785] (AR v1)
Copy OK

All tracks accurately ripped

No errors occurred

End of status report

---- CUETools DB Plugin V2.1.3

[CTDB TOCID: WVAabuHu7AUXvTP94XN896m8YZY-] disk not present in database, Submit result: WVAabuHu7AUXvTP94XN896m8YZY- has been uploaded

==== Log checksum BCE8A5D9AFCF8A04AE07A2FB289F41E293168F11FB5989240C5005CAE183D8CC ====
 
-----------------------

DON'T MODIFY THIS FILE

-----------------------

PERFORMER: auCDtect Task Manager, ver. 1.5.1RC4 build 1.5.1.5
Copyright (c) 2008-2010 y-soft. All rights reserved
http://y-soft.org

ANALYZER: auCDtect: CD records authenticity detector, version 0.8.2
Copyright (c) 2004 Oleg Berngardt. All rights reserved.
Copyright (c) 2004 Alexander Djourik. All rights reserved.

FILE: 04 - Daiyon Maku- Ookami to Momo Nohachimitsu Tsuke.flac
Size: 49898037 Hash: A816846DD8C864B37F00B10593FE3219 Accuracy: -m0
Conclusion: CDDA 100%
Signature: 8A5097923155F7856DF1DE546CACC597F2A47A30
FILE: 03 - Daisan Maku- Ookami to Momo Nohachimitsu Tsuke.flac
Size: 40638498 Hash: 45AD6D545A3315941305FEC8F582F1E2 Accuracy: -m0
Conclusion: CDDA 100%
Signature: 3805F5572086746CB3444D6E1B4DB540ABFDF174
FILE: 02 - Daini Maku- Ookami to Momo Nohachimitsu Tsuke.flac
Size: 62396876 Hash: FF02C8219F0EA0127132AABCBD7C24AD Accuracy: -m0
Conclusion: CDDA 100%
Signature: 1F5CB0DF33882B07F758122921A4ECFDA49476EF
FILE: 01 - Daiichi Maku- Ookami to Momo Nohachimitsu Tsuke.flac
Size: 33301066 Hash: 81AAD4CACB503DE882376A995DFB7581 Accuracy: -m0
Conclusion: CDDA 100%
Signature: 1A8856EB30FDF571E4D58787AEA35F395243DA9B
FILE: 07 - Dainana Maku- Ookami to Momo Nohachimitsu Tsuke.flac
Size: 32240722 Hash: 8CDE4E250BB8371354648BA94D82679A Accuracy: -m0
Conclusion: CDDA 100%
Signature: A922CC1532249589E6EAE7F43D8CE74A89FB8321
FILE: 06 - Dairoku Maku- Ookami to Momo Nohachimitsu Tsuke.flac
Size: 48045154 Hash: CB8561F2BA784602D9CD9D9812A144AC Accuracy: -m0
Conclusion: CDDA 100%
Signature: EEAAB24D43C5CEA3C80079697D4845DDFBE3812C
FILE: 05 - Daigo Maku- Ookami to Momo Nohachimitsu Tsuke.flac
Size: 21991082 Hash: CA8040B1B5BDF11EF1B6E1F1D5DEB590 Accuracy: -m0
Conclusion: CDDA 100%
Signature: 2DE303074B3F872FB8D905F706AD031C44765C84

Дополнительно:
- для альбома гарантируется восстановление исходного образа склеиванием файлов (например, фубаром) и возможность прожига на диск при помощи прилагаемого CUE.
Приятного прослушивания
info [Профиль]  [ЛС] 

TheMrMafiozi

Пол: Пол:Муж

Стаж: 8 лет 3 месяца

Сообщений: 859

СССР
Рейтинг

post 12-Мар-2012 12:58 (спустя 1 день 18 часов) [-]0[+]

[Цитировать] 

Алмаз
Тексты cue добавьте в оформление

_________________
観自在菩薩行深般若波羅蜜多時、照見五蘊皆空、度一切苦厄。舎利子
も自由にお使いく
言語の科
info [Профиль]  [ЛС] 

Алмаз

Пол: Пол:Муж

Стаж: 7 лет 9 месяцев

Сообщений: 1840

Россия
Рейтинг

post 12-Мар-2012 23:21 (спустя 10 часов) [-]0[+]

[Цитировать] 

TheMrMafiozi
Буэт сделано!
Блин, не в 1 раз же делаю раздачу и опять так уныло сфейлился.

_________________
Паранойя - чрезвычайно утешительное состояние ума. Если вам кажется, что против вас что-то замышляют - значит вы что-то да стоите! (с) Гильбран Трус (Митчелл Сэнди - Игра предателя)
info [Профиль]  [ЛС] 

kiberdrocher670

Пол: Пол:Муж

Стаж: 8 лет 8 месяцев

Сообщений: 19

Россия
Рейтинг

post 12-Июл-2012 00:02 (спустя 3 месяца 30 дней) [-]0[+]

[Цитировать] 

Встанте пожалуйста на раздачу.
info [Профиль]  [ЛС] 
Показать сообщения:    
Ответить на тему

Текущее время: 25-Май 09:17

Часовой пояс: GMT + 4



Вы не можете начинать темы
Вы не можете отвечать на сообщения
Вы не можете редактировать свои сообщения
Вы не можете удалять свои сообщения
Вы не можете голосовать в опросах
Вы не можете прикреплять файлы к сообщениям
Вы не можете скачивать файлы