Ошибка
Загрузка...

(Experimental Hip-Hop) Лёд 9 - Холодная Война - 2011, FLAC (tracks+ .cue) + covers, lossless

Ответить на тему
 
Автор Сообщение

Raxent

Пол: Пол:Муж

Стаж: 8 лет 4 месяца

Сообщений: 219

Рейтинг

post 21-Май-2012 14:40 0[+]

[Цитировать] 

Лёд 9 - Холодная Война

Год: 2011
Жанр: Experimental Hip-Hop
Страна: Россия
Аудиокодека: FLAC
Тип рипа: tracks + .cue
Битрейт: lossless
Продолжительность: 32:47
Источник: Rulezzz1
Наличие сканов в содержимом раздачи: да
Трэклист:
01 Вкл Пульт
02 Лёд Девять
03 Ад Холода (Ft. Константин Кинчев)
04 Котята Один
05 Лишь Бы Не Было Войны
06 Точильный Камень (Ft. MC 1.8)
07 Ещё Хуже
08 Сторож
09 Котята Два (Ft. Захар Прилепин)
10 Революция (Ft. MC 1.8)
11 Мёд
12 Всадник
13 Пульт Выкл


Код:

Exact Audio Copy V0.99 prebeta 4 from 23. January 2008

Отчёт EAC об извлечении, выполненном 10. марта 2012, 17:22

Лёд 9 / Холодная Война

Дисковод: ASUS    DRW-1608P   Adapter: 0  ID: 0

Режим чтения                 : Достоверность
Использование точного потока : Да
Отключение кэша аудио        : Да
Использование указателей C2  : Нет

Коррекция смещения при чтении                     : 48
Способность читать области Lead-in и Lead-out     : Нет
Заполнение пропущенных сэмплов тишиной            : Да
Удаление блоков с тишиной в начале и конце        : Нет
При вычислениях CRC использовались нулевые сэмплы : Да
Интерфейс                                         : Встроенный Win32-интерфейс для Win NT/2000
Обработка зазоров                                 : Добавлено к предыдущему треку

Выходной формат          : Пользовательский кодировщик
Выбранный битрейт        : 320 kBit/s
Качество                 : Высокий
Добавление ID3-тэга      : Нет
Утилита сжатия           : D:\Program Files\Exact Audio Copy\Flac\flac.exe
Дополнительные параметры : -8 -V -T "ARTIST=%a" -T "TITLE=%t" -T "ALBUM=%g" -T "DATE=%y" -T "TRACKNUMBER=%n" -T "GENRE=%m" -T "COMMENT=EAC FLAC -8" %s

TOC извлечённого CD

     Трек |   Старт  | Длительность | Начальный сектор | Конечный сектор
    ---------------------------------------------------------------------
       1  |  0:00.00 |    1:06.39   |           0      |       4988
       2  |  1:06.39 |    1:35.32   |        4989      |      12145
       3  |  2:41.71 |    2:30.00   |       12146      |      23395
       4  |  5:11.71 |    3:22.28   |       23396      |      38573
       5  |  8:34.24 |    2:19.13   |       38574      |      49011
       6  | 10:53.37 |    2:53.25   |       49012      |      62011
       7  | 13:46.62 |    2:43.24   |       62012      |      74260
       8  | 16:30.11 |    2:36.43   |       74261      |      86003
       9  | 19:06.54 |    2:58.69   |       86004      |      99422
      10  | 22:05.48 |    3:17.12   |       99423      |     114209
      11  | 25:22.60 |    3:34.09   |      114210      |     130268
      12  | 28:56.69 |    2:36.26   |      130269      |     141994
      13  | 31:33.20 |    1:14.27   |      141995      |     147571

Трек  1

     Имя файла E:\Даунлоад\Rulezzz1\01 Вкл Пульт.wav

     Длина предзазора  0:00:02.00

     Пиковый уровень 99.1 %
     Качество трека 100.0 %
     CRC теста 91BA1329
     CRC копии 91BA1329
     Трек не обнаружен в базе AccurateRip
     Копирование... OK

Трек  2

     Имя файла E:\Даунлоад\Rulezzz1\02 Лёд Девять.wav

     Пиковый уровень 100.0 %
     Качество трека 100.0 %
     CRC теста D4DB79C2
     CRC копии D4DB79C2
     Трек не обнаружен в базе AccurateRip
     Копирование... OK

Трек  3

     Имя файла E:\Даунлоад\Rulezzz1\03 Ад Холода (Ft. Константин Кинчев).wav

     Пиковый уровень 100.0 %
     Качество трека 100.0 %
     CRC теста 1BE054C2
     CRC копии 1BE054C2
     Трек не обнаружен в базе AccurateRip
     Копирование... OK

Трек  4

     Имя файла E:\Даунлоад\Rulezzz1\04 Котята Один.wav

     Пиковый уровень 100.0 %
     Качество трека 100.0 %
     CRC теста BD02DBE1
     CRC копии BD02DBE1
     Трек не обнаружен в базе AccurateRip
     Копирование... OK

Трек  5

     Имя файла E:\Даунлоад\Rulezzz1\05 Лишь Бы Не Было Войны.wav

     Пиковый уровень 100.0 %
     Качество трека 100.0 %
     CRC теста 8CF1D1C9
     CRC копии 8CF1D1C9
     Трек не обнаружен в базе AccurateRip
     Копирование... OK

Трек  6

     Имя файла E:\Даунлоад\Rulezzz1\06 Точильный Камень (Ft. MC 1.8).wav

     Пиковый уровень 100.0 %
     Качество трека 99.9 %
     CRC теста EC849243
     CRC копии EC849243
     Трек не обнаружен в базе AccurateRip
     Копирование... OK

Трек  7

     Имя файла E:\Даунлоад\Rulezzz1\07 Ещё Хуже.wav

     Пиковый уровень 100.0 %
     Качество трека 100.0 %
     CRC теста DD9C6B9D
     CRC копии DD9C6B9D
     Трек не обнаружен в базе AccurateRip
     Копирование... OK

Трек  8

     Имя файла E:\Даунлоад\Rulezzz1\08 Сторож.wav

     Пиковый уровень 100.0 %
     Качество трека 100.0 %
     CRC теста 43664C4A
     CRC копии 43664C4A
     Трек не обнаружен в базе AccurateRip
     Копирование... OK

Трек  9

     Имя файла E:\Даунлоад\Rulezzz1\09 Котята Два (Ft. Захар Прилепин).wav

     Пиковый уровень 100.0 %
     Качество трека 100.0 %
     CRC теста B0596C8A
     CRC копии B0596C8A
     Трек не обнаружен в базе AccurateRip
     Копирование... OK

Трек 10

     Имя файла E:\Даунлоад\Rulezzz1\10 Революция (Ft. MC 1.8).wav

     Пиковый уровень 100.0 %
     Качество трека 100.0 %
     CRC теста A89EBFE2
     CRC копии A89EBFE2
     Трек не обнаружен в базе AccurateRip
     Копирование... OK

Трек 11

     Имя файла E:\Даунлоад\Rulezzz1\11 Мёд.wav

     Пиковый уровень 100.0 %
     Качество трека 100.0 %
     CRC теста 0C2F1EB6
     CRC копии 0C2F1EB6
     Трек не обнаружен в базе AccurateRip
     Копирование... OK

Трек 12

     Имя файла E:\Даунлоад\Rulezzz1\12 Всадник.wav

     Пиковый уровень 100.0 %
     Качество трека 100.0 %
     CRC теста CFA3AE41
     CRC копии CFA3AE41
     Трек не обнаружен в базе AccurateRip
     Копирование... OK

Трек 13

     Имя файла E:\Даунлоад\Rulezzz1\13 Пульт Выкл.wav

     Пиковый уровень 82.7 %
     Качество трека 100.0 %
     CRC теста 60579F40
     CRC копии 60579F40
     Трек не обнаружен в базе AccurateRip
     Копирование... OK

Ни одного трека нет в базе AccurateRip

Ошибок не произошло

Конец отчёта

Код:

REM GENRE "Experimental Hip-Hop"
REM DATE 2012
REM DISCID B407AF0D
REM COMMENT "ExactAudioCopy v0.99pb4"
PERFORMER "Лёд 9"
TITLE "Холодная Война"
FILE "01 Вкл Пульт.wav" WAVE
  TRACK 01 AUDIO
    TITLE "Вкл Пульт"
    PERFORMER "Лёд 9"
    INDEX 01 00:00:00
FILE "02 Лёд Девять.wav" WAVE
  TRACK 02 AUDIO
    TITLE "Лёд Девять"
    PERFORMER "Лёд 9"
    INDEX 01 00:00:00
FILE "03 Ад Холода (Ft. Константин Кинчев).wav" WAVE
  TRACK 03 AUDIO
    TITLE "Ад Холода (Ft. Константин Кинчев)"
    PERFORMER "Лёд 9"
    INDEX 01 00:00:00
FILE "04 Котята Один.wav" WAVE
  TRACK 04 AUDIO
    TITLE "Котята Один"
    PERFORMER "Лёд 9"
    INDEX 01 00:00:00
FILE "05 Лишь Бы Не Было Войны.wav" WAVE
  TRACK 05 AUDIO
    TITLE "Лишь Бы Не Было Войны"
    PERFORMER "Лёд 9"
    INDEX 01 00:00:00
FILE "06 Точильный Камень (Ft. MC 1.8).wav" WAVE
  TRACK 06 AUDIO
    TITLE "Точильный Камень (Ft. MC 1.8)"
    PERFORMER "Лёд 9"
    INDEX 01 00:00:00
FILE "07 Ещё Хуже.wav" WAVE
  TRACK 07 AUDIO
    TITLE "Ещё Хуже"
    PERFORMER "Лёд 9"
    INDEX 01 00:00:00
FILE "08 Сторож.wav" WAVE
  TRACK 08 AUDIO
    TITLE "Сторож"
    PERFORMER "Лёд 9"
    INDEX 01 00:00:00
FILE "09 Котята Два (Ft. Захар Прилепин).wav" WAVE
  TRACK 09 AUDIO
    TITLE "Котята Два (Ft. Захар Прилепин)"
    PERFORMER "Лёд 9"
    INDEX 01 00:00:00
FILE "10 Революция (Ft. MC 1.8).wav" WAVE
  TRACK 10 AUDIO
    TITLE "Революция (Ft. MC 1.8)"
    PERFORMER "Лёд 9"
    INDEX 01 00:00:00
FILE "11 Мёд.wav" WAVE
  TRACK 11 AUDIO
    TITLE "Мёд"
    PERFORMER "Лёд 9"
    INDEX 01 00:00:00
FILE "12 Всадник.wav" WAVE
  TRACK 12 AUDIO
    TITLE "Всадник"
    PERFORMER "Лёд 9"
    INDEX 01 00:00:00
FILE "13 Пульт Выкл.wav" WAVE
  TRACK 13 AUDIO
    TITLE "Пульт Выкл"
    PERFORMER "Лёд 9"
    INDEX 01 00:00:00


info [Профиль]  [ЛС] 

post 21-Май-2012 14:41 (спустя 27 секунд) [-]0[+]

Топик был перенесен из форума Оформление раздач в форум Отечественный Rap, Hip-Hop, R'n'B (lossless)

saGambit
 

Raxent

Пол: Пол:Муж

Стаж: 8 лет 4 месяца

Сообщений: 219

Рейтинг

post 21-Май-2012 14:43 (спустя 3 минуты) [-]0[+]

[Цитировать] 

(Hip-Hop, Rap) Лёд 9 - Холодная война - 2011, MP3, 320 kbps
info [Профиль]  [ЛС] 

Resistance

Пол: Пол:Муж

Стаж: 8 лет 8 месяцев

Сообщений: 3641

Россия
Рейтинг

post 21-Май-2012 16:44 (спустя 2 часа) [-]0[+]

[Цитировать] 

saGambit
Почему у мп3 2011 год, а тут 2012?
info [Профиль]  [ЛС] 

Raxent

Пол: Пол:Муж

Стаж: 8 лет 4 месяца

Сообщений: 219

Рейтинг

post 21-Май-2012 19:46 (спустя 3 часа) [-]0[+]

[Цитировать] 

Resistance
исправил на 11
info [Профиль]  [ЛС] 

Resistance

Пол: Пол:Муж

Стаж: 8 лет 8 месяцев

Сообщений: 3641

Россия
Рейтинг

post 21-Май-2012 20:21 (спустя 34 минуты) [-]0[+]

[Цитировать] 

saGambit
Наличие полиграфии еще укажи.
info [Профиль]  [ЛС] 
Показать сообщения:    
Ответить на тему

Текущее время: 23-Май 15:09

Часовой пояс: GMT + 4



Вы не можете начинать темы
Вы не можете отвечать на сообщения
Вы не можете редактировать свои сообщения
Вы не можете удалять свои сообщения
Вы не можете голосовать в опросах
Вы не можете прикреплять файлы к сообщениям
Вы не можете скачивать файлы