Ошибка

(Rap) 25-17 - Межсезонье [EP], 2012, FLAC (tracks+ .cue) + covers, lossless

Ответить на тему
 
Автор Сообщение

Raxent

Пол: Пол:Муж

Стаж: 8 лет 10 месяцев

Сообщений: 219

Рейтинг

post 21-Май-2012 14:20 0[+]

[Цитировать] 

25-17 - Межсезонье [EP]

Год: 2012
Жанр: Rap
Страна: Россия
Аудиокодека: FLAC
Тип рипа: tracks + .cue
Битрейт: lossless
Продолжительность: 00:20:07
Источник (релизер): povelo
Наличие сканов в содержимом раздачи: да
Полиграфия: да
Трэклист:
01. Межсезонье (0:02:45)
02. Жизнь Продолжается (Feat. D-Man 55) (0:03:44)
03. Стена (Feat. Карандаш & MC 1.8) (0:03:44)
04. Восток (Feat. Саграда (Соль Земли)) (0:03:10)
05. Корабль (Feat. Дмитрий Ревякин (Калинов Мост)) (0:03:44)
06. Моя Крепость (Feat. Миша Маваши) (Bonus Track) (0:02:57)


Код:

Exact Audio Copy V0.99 prebeta 4 from 23. January 2008

Отчёт EAC об извлечении, выполненном 7. февраля 2012, 20:07

25/17 / Межсезонье

Дисковод: HL-DT-STDVD-RW_GSA-H41N   Adapter: 0  ID: 1

Режим чтения                 : Достоверность
Использование точного потока : Да
Отключение кэша аудио        : Да
Использование указателей C2  : Нет

Коррекция смещения при чтении                     : 667
Способность читать области Lead-in и Lead-out     : Нет
Заполнение пропущенных сэмплов тишиной            : Да
Удаление блоков с тишиной в начале и конце        : Нет
При вычислениях CRC использовались нулевые сэмплы : Да
Интерфейс                                         : Установленный внешний ASPI-интерфейс
Обработка зазоров                                 : Добавлено к предыдущему треку

Выходной формат          : Пользовательский кодировщик
Выбранный битрейт        : 1024 kBit/s
Качество                 : Высокий
Добавление ID3-тэга      : Нет
Утилита сжатия           : C:\Program Files\foobar2000\configs\codecs\flac.exe
Дополнительные параметры : -8 -V -T "ARTIST=%a" -T "TITLE=%t" -T "ALBUM=%g" -T "DATE=%y" -T "TRACKNUMBER=%n" -T "GENRE=%m" -T "COMMENT=EAC FLAC -8" %s

TOC извлечённого CD

     Трек |   Старт  | Длительность | Начальный сектор | Конечный сектор
    ---------------------------------------------------------------------
       1  |  0:00.00 |    2:45.65   |           0      |      12439
       2  |  2:45.65 |    3:44.46   |       12440      |      29285
       3  |  6:30.36 |    3:44.00   |       29286      |      46085
       4  | 10:14.36 |    3:10.63   |       46086      |      60398
       5  | 13:25.24 |    3:44.27   |       60399      |      77225
       6  | 17:09.51 |    2:57.39   |       77226      |      90539

Трек  1

     Имя файла G:\Музыка\Lossless\25-17\25-17 - Межсезонье (2012)\01_Межсезонье.wav

     Длина предзазора  0:00:02.00

     Пиковый уровень 100.0 %
     Качество трека 100.0 %
     CRC теста 9C1A56FF
     CRC копии 9C1A56FF
     Трек не обнаружен в базе AccurateRip
     Копирование... OK

Трек  2

     Имя файла G:\Музыка\Lossless\25-17\25-17 - Межсезонье (2012)\02_Жизнь Продолжается (Feat. D-Man 55).wav

     Пиковый уровень 100.0 %
     Качество трека 100.0 %
     CRC теста 0FB2F1C1
     CRC копии 0FB2F1C1
     Трек не обнаружен в базе AccurateRip
     Копирование... OK

Трек  3

     Имя файла G:\Музыка\Lossless\25-17\25-17 - Межсезонье (2012)\03_Стена (Feat. Карандаш & MC 1.8).wav

     Пиковый уровень 100.0 %
     Качество трека 100.0 %
     CRC теста 5F6498D9
     CRC копии 5F6498D9
     Трек не обнаружен в базе AccurateRip
     Копирование... OK

Трек  4

     Имя файла G:\Музыка\Lossless\25-17\25-17 - Межсезонье (2012)\04_Восток (Feat. Саграда (Соль Земли)).wav

     Длина предзазора  0:00:01.74

     Пиковый уровень 100.0 %
     Качество трека 100.0 %
     CRC теста 7145E75F
     CRC копии 7145E75F
     Трек не обнаружен в базе AccurateRip
     Копирование... OK

Трек  5

     Имя файла G:\Музыка\Lossless\25-17\25-17 - Межсезонье (2012)\05_Корабль (Feat. Дмитрий Ревякин (Калинов Мост)).wav

     Пиковый уровень 100.0 %
     Качество трека 100.0 %
     CRC теста 2F3A3935
     CRC копии 2F3A3935
     Трек не обнаружен в базе AccurateRip
     Копирование... OK

Трек  6

     Имя файла G:\Музыка\Lossless\25-17\25-17 - Межсезонье (2012)\06_Моя Крепость (Feat. Миша Маваши) (Bonus Track).wav

     Пиковый уровень 100.0 %
     Качество трека 100.0 %
     CRC теста 6AD53BA3
     CRC копии 6AD53BA3
     Трек не обнаружен в базе AccurateRip
     Копирование... OK

Ни одного трека нет в базе AccurateRip

Ошибок не произошло

Конец отчёта

Код:

REM GENRE Rap
REM DATE 2012
REM DISCID 3F04B706
REM COMMENT "ExactAudioCopy v0.99pb4"
PERFORMER "25/17"
TITLE "Межсезонье"
FILE "01_Межсезонье.wav" WAVE
  TRACK 01 AUDIO
    TITLE "Межсезонье"
    PERFORMER "25/17"
    INDEX 01 00:00:00
FILE "02_Жизнь Продолжается (Feat. D-Man 55).wav" WAVE
  TRACK 02 AUDIO
    TITLE "Жизнь Продолжается (Feat. D-Man 55)"
    PERFORMER "25/17"
    INDEX 01 00:00:00
FILE "03_Стена (Feat. Карандаш & MC 1.8).wav" WAVE
  TRACK 03 AUDIO
    TITLE "Стена (Feat. Карандаш & MC 1.8)"
    PERFORMER "25/17"
    INDEX 01 00:00:00
  TRACK 04 AUDIO
    TITLE "Восток (Feat. Саграда (Соль Земли))"
    PERFORMER "25/17"
    INDEX 00 03:42:01
FILE "04_Восток (Feat. Саграда (Соль Земли)).wav" WAVE
    INDEX 01 00:00:00
FILE "05_Корабль (Feat. Дмитрий Ревякин (Калинов Мост)).wav" WAVE
  TRACK 05 AUDIO
    TITLE "Корабль (Feat. Дмитрий Ревякин (Калинов Мост))"
    PERFORMER "25/17"
    INDEX 01 00:00:00
FILE "06_Моя Крепость (Feat. Миша Маваши) (Bonus Track).wav" WAVE
  TRACK 06 AUDIO
    TITLE "Моя Крепость (Feat. Миша Маваши) (Bonus Track)"
    PERFORMER "25/17"
    INDEX 01 00:00:00


info [Профиль]  [ЛС] 

post 21-Май-2012 14:20 (спустя 38 секунд) [-]0[+]

Топик был перенесен из форума Оформление раздач в форум Отечественный Rap, Hip-Hop, R'n'B (lossless)

saGambit
 

Raxent

Пол: Пол:Муж

Стаж: 8 лет 10 месяцев

Сообщений: 219

Рейтинг

post 21-Май-2012 14:22 (спустя 1 минута) [-]0[+]

[Цитировать] 

(Rap) 25/17 - Межсезонье (EP) - 2010, MP3, CBR 320kbps
info [Профиль]  [ЛС] 

Resistance

Пол: Пол:Муж

Стаж: 9 лет 1 месяц

Сообщений: 3640

Россия
Рейтинг

post 21-Май-2012 16:41 (спустя 2 часа 18 минут) [-]0[+]

[Цитировать] 

saGambit
Пометь в заголовке что это ЕР и наличие полиграфии.
info [Профиль]  [ЛС] 

Raxent

Пол: Пол:Муж

Стаж: 8 лет 10 месяцев

Сообщений: 219

Рейтинг

post 21-Май-2012 19:40 (спустя 2 часа 59 минут) [-]0[+]

[Цитировать] 

Resistance
все отредактировано
info [Профиль]  [ЛС] 
Показать сообщения:    
Ответить на тему

Текущее время: 17-Ноя 03:26

Часовой пояс: GMT + 4



Вы не можете начинать темы
Вы не можете отвечать на сообщения
Вы не можете редактировать свои сообщения
Вы не можете удалять свои сообщения
Вы не можете голосовать в опросах
Вы не можете прикреплять файлы к сообщениям
Вы не можете скачивать файлы