Ошибка

(Rap, Hip-Hop) Slim & Konstantah (Слим (ex-Дымовая Завеса, Centr), Митя, Словетский (Константа)) - Азимут - 2011, FLAC (tracks+.cue) lossless

Ответить на тему
 
Автор Сообщение

999iit666

Пол: Пол:Муж

Стаж: 7 лет 3 месяца

Сообщений: 70

Россия
Рейтинг

post 05-Ноя-2011 00:19 0[+]

[Цитировать] 

Slim & Konstantah (Слим (ex-Дымовая Завеса, Centr), Митя, Словетский (Константа)) - Азимут - 2011


Жанр: Rap, Hip-Hop
Издатель (лейбл): Фирма Грамзаписи "Никитин"
Год выпуска диска: 2011
Производитель диска: Россия
Аудио кодек: FLAC (*.flac)
Тип рипа: tracks+.cue
Битрейт аудио: lossless
Наличие сканов в содержимом раздачи: да
Продолжительность: 01:04:02
Трэклист:
01. Интро (0:01:22)
02. Под Пальмами (0:03:37)
03. Пасмурно (0:04:47)
04. Вес (0:03:35)
05. Азимут (0:03:16)
06. Королева (Feat. Скин) (0:03:47)
07. Зимние Мысли (Feat. Menace Society, Костя Бес) (0:04:20)
08. Старое Доброе (0:04:34)
09. Сахарок (Feat. Банума) (0:03:40)
10. Волкодавы (0:04:38)
11. Маршрут Нашего Звука (0:04:14)
12. Так Легко (Feat. Rkp-Uno) (0:05:01)
13. В Чем Дело? (Feat. Смоки Мо) (0:04:34)
14. Демоны (RMJ RMX) (0:05:40)
15. Бег (Версия 2011) (0:04:56)
16. Аутро (0:01:53)

Код:

Exact Audio Copy V0.99 prebeta 4 from 23. January 2008

Отчёт EAC об извлечении, выполненном 31. мая 2011, 10:10

Slim & Konstantah / Азимут

Дисковод: HL-DT-STDVD-RW_GSA-H41N   Adapter: 0  ID: 1

Режим чтения                 : Достоверность
Использование точного потока : Да
Отключение кэша аудио        : Да
Использование указателей C2  : Нет

Коррекция смещения при чтении                     : 667
Способность читать области Lead-in и Lead-out     : Нет
Заполнение пропущенных сэмплов тишиной            : Да
Удаление блоков с тишиной в начале и конце        : Нет
При вычислениях CRC использовались нулевые сэмплы : Да
Интерфейс                                         : Установленный внешний ASPI-интерфейс
Обработка зазоров                                 : Добавлено к предыдущему треку

Выходной формат          : Пользовательский кодировщик
Выбранный битрейт        : 1024 kBit/s
Качество                 : Высокий
Добавление ID3-тэга      : Нет
Утилита сжатия           : C:\Program Files\foobar2000\configs\codecs\flac.exe
Дополнительные параметры : -8 -V -T "ARTIST=%a" -T "TITLE=%t" -T "ALBUM=%g" -T "DATE=%y" -T "TRACKNUMBER=%n" -T "GENRE=%m" -T "COMMENT=EAC FLAC -8" %s

TOC извлечённого CD

     Трек |   Старт  | Длительность | Начальный сектор | Конечный сектор
    ---------------------------------------------------------------------
       1  |  0:00.00 |    1:22.19   |           0      |       6168
       2  |  1:22.19 |    3:37.73   |        6169      |      22516
       3  |  5:00.17 |    4:47.10   |       22517      |      44051
       4  |  9:47.27 |    3:35.32   |       44052      |      60208
       5  | 13:22.59 |    3:16.00   |       60209      |      74908
       6  | 16:38.59 |    3:47.42   |       74909      |      91975
       7  | 20:26.26 |    4:20.49   |       91976      |     111524
       8  | 24:47.00 |    4:34.74   |      111525      |     132148
       9  | 29:21.74 |    3:40.74   |      132149      |     148722
      10  | 33:02.73 |    4:38.36   |      148723      |     169608
      11  | 37:41.34 |    4:14.73   |      169609      |     188731
      12  | 41:56.32 |    5:01.17   |      188732      |     211323
      13  | 46:57.49 |    4:34.00   |      211324      |     231873
      14  | 51:31.49 |    5:40.28   |      231874      |     257401
      15  | 57:12.02 |    4:56.49   |      257402      |     279650
      16  | 62:08.51 |    1:53.51   |      279651      |     288176

Трек  1

     Имя файла G:\Музыка\Lossless\Slim & Konstantah\Slim & Konstantah - Азимут (2011)\01_Интро.wav

     Длина предзазора  0:00:02.00

     Пиковый уровень 100.0 %
     Качество трека 100.0 %
     CRC теста 3A86A8F3
     CRC копии 3A86A8F3
     Трек не обнаружен в базе AccurateRip
     Копирование... OK

Трек  2

     Имя файла G:\Музыка\Lossless\Slim & Konstantah\Slim & Konstantah - Азимут (2011)\02_Под Пальмами.wav

     Пиковый уровень 100.0 %
     Качество трека 100.0 %
     CRC теста 209DB5B3
     CRC копии 209DB5B3
     Трек не обнаружен в базе AccurateRip
     Копирование... OK

Трек  3

     Имя файла G:\Музыка\Lossless\Slim & Konstantah\Slim & Konstantah - Азимут (2011)\03_Пасмурно.wav

     Пиковый уровень 100.0 %
     Качество трека 100.0 %
     CRC теста FD8D81CA
     CRC копии FD8D81CA
     Трек не обнаружен в базе AccurateRip
     Копирование... OK

Трек  4

     Имя файла G:\Музыка\Lossless\Slim & Konstantah\Slim & Konstantah - Азимут (2011)\04_Вес.wav

     Пиковый уровень 100.0 %
     Качество трека 100.0 %
     CRC теста A031FFE6
     CRC копии A031FFE6
     Трек не обнаружен в базе AccurateRip
     Копирование... OK

Трек  5

     Имя файла G:\Музыка\Lossless\Slim & Konstantah\Slim & Konstantah - Азимут (2011)\05_Азимут.wav

     Пиковый уровень 100.0 %
     Качество трека 100.0 %
     CRC теста F8EDCABB
     CRC копии F8EDCABB
     Трек не обнаружен в базе AccurateRip
     Копирование... OK

Трек  6

     Имя файла G:\Музыка\Lossless\Slim & Konstantah\Slim & Konstantah - Азимут (2011)\06_Королева (Feat. Скин).wav

     Пиковый уровень 100.0 %
     Качество трека 100.0 %
     CRC теста CD09D8CB
     CRC копии CD09D8CB
     Трек не обнаружен в базе AccurateRip
     Копирование... OK

Трек  7

     Имя файла G:\Музыка\Lossless\Slim & Konstantah\Slim & Konstantah - Азимут (2011)\07_Зимние Мысли (Feat. Menace Society, Костя Бес).wav

     Пиковый уровень 100.0 %
     Качество трека 99.9 %
     CRC теста E2982969
     CRC копии E2982969
     Трек не обнаружен в базе AccurateRip
     Копирование... OK

Трек  8

     Имя файла G:\Музыка\Lossless\Slim & Konstantah\Slim & Konstantah - Азимут (2011)\08_Старое Доброе.wav

     Пиковый уровень 100.0 %
     Качество трека 100.0 %
     CRC теста F1C615A5
     CRC копии F1C615A5
     Трек не обнаружен в базе AccurateRip
     Копирование... OK

Трек  9

     Имя файла G:\Музыка\Lossless\Slim & Konstantah\Slim & Konstantah - Азимут (2011)\09_Сахарок (Feat. Банума).wav

     Пиковый уровень 100.0 %
     Качество трека 100.0 %
     CRC теста 601B48D6
     CRC копии 601B48D6
     Трек не обнаружен в базе AccurateRip
     Копирование... OK

Трек 10

     Имя файла G:\Музыка\Lossless\Slim & Konstantah\Slim & Konstantah - Азимут (2011)\10_Волкодавы.wav

     Пиковый уровень 100.0 %
     Качество трека 100.0 %
     CRC теста 9A2853A0
     CRC копии 9A2853A0
     Трек не обнаружен в базе AccurateRip
     Копирование... OK

Трек 11

     Имя файла G:\Музыка\Lossless\Slim & Konstantah\Slim & Konstantah - Азимут (2011)\11_Маршрут Нашего Звука.wav

     Пиковый уровень 100.0 %
     Качество трека 100.0 %
     CRC теста 5711A927
     CRC копии 5711A927
     Трек не обнаружен в базе AccurateRip
     Копирование... OK

Трек 12

     Имя файла G:\Музыка\Lossless\Slim & Konstantah\Slim & Konstantah - Азимут (2011)\12_Так Легко (Feat. Rkp-Uno).wav

     Пиковый уровень 100.0 %
     Качество трека 100.0 %
     CRC теста 2F811C7D
     CRC копии 2F811C7D
     Трек не обнаружен в базе AccurateRip
     Копирование... OK

Трек 13

     Имя файла G:\Музыка\Lossless\Slim & Konstantah\Slim & Konstantah - Азимут (2011)\13_В Чем Дело  (Feat. Смоки Мо).wav

     Пиковый уровень 100.0 %
     Качество трека 100.0 %
     CRC теста D8EA8610
     CRC копии D8EA8610
     Трек не обнаружен в базе AccurateRip
     Копирование... OK

Трек 14

     Имя файла G:\Музыка\Lossless\Slim & Konstantah\Slim & Konstantah - Азимут (2011)\14_Демоны (RMJ RMX).wav

     Пиковый уровень 100.0 %
     Качество трека 99.9 %
     CRC теста D8133EE7
     CRC копии D8133EE7
     Трек не обнаружен в базе AccurateRip
     Копирование... OK

Трек 15

     Имя файла G:\Музыка\Lossless\Slim & Konstantah\Slim & Konstantah - Азимут (2011)\15_Бег (Версия 2011).wav

     Пиковый уровень 100.0 %
     Качество трека 100.0 %
     CRC теста F7A84513
     CRC копии F7A84513
     Трек не обнаружен в базе AccurateRip
     Копирование... OK

Трек 16

     Имя файла G:\Музыка\Lossless\Slim & Konstantah\Slim & Konstantah - Азимут (2011)\16_Аутро.wav

     Пиковый уровень 100.0 %
     Качество трека 100.0 %
     CRC теста 95105F2E
     CRC копии 95105F2E
     Трек не обнаружен в базе AccurateRip
     Копирование... OK

Ни одного трека нет в базе AccurateRip

Ошибок не произошло

Конец отчёта

Код:

REM GENRE Rap
REM DATE 2011
REM DISCID DB0F0210
REM COMMENT "ExactAudioCopy v0.99pb4"
PERFORMER "Slim & Konstantah"
TITLE "Азимут"
FILE "01_Интро.wav" WAVE
  TRACK 01 AUDIO
    TITLE "Интро"
    PERFORMER "Slim & Konstantah"
    INDEX 01 00:00:00
FILE "02_Под Пальмами.wav" WAVE
  TRACK 02 AUDIO
    TITLE "Под Пальмами"
    PERFORMER "Slim & Konstantah"
    INDEX 01 00:00:00
FILE "03_Пасмурно.wav" WAVE
  TRACK 03 AUDIO
    TITLE "Пасмурно"
    PERFORMER "Slim & Konstantah"
    INDEX 01 00:00:00
FILE "04_Вес.wav" WAVE
  TRACK 04 AUDIO
    TITLE "Вес"
    PERFORMER "Slim & Konstantah"
    INDEX 01 00:00:00
FILE "05_Азимут.wav" WAVE
  TRACK 05 AUDIO
    TITLE "Азимут"
    PERFORMER "Slim & Konstantah"
    INDEX 01 00:00:00
FILE "06_Королева (Feat. Скин).wav" WAVE
  TRACK 06 AUDIO
    TITLE "Королева (Feat. Скин)"
    PERFORMER "Slim & Konstantah"
    INDEX 01 00:00:00
FILE "07_Зимние Мысли (Feat. Menace Society, Костя Бес).wav" WAVE
  TRACK 07 AUDIO
    TITLE "Зимние Мысли (Feat. Menace Society, Костя Бес)"
    PERFORMER "Slim & Konstantah"
    INDEX 01 00:00:00
FILE "08_Старое Доброе.wav" WAVE
  TRACK 08 AUDIO
    TITLE "Старое Доброе"
    PERFORMER "Slim & Konstantah"
    INDEX 01 00:00:00
FILE "09_Сахарок (Feat. Банума).wav" WAVE
  TRACK 09 AUDIO
    TITLE "Сахарок (Feat. Банума)"
    PERFORMER "Slim & Konstantah"
    INDEX 01 00:00:00
FILE "10_Волкодавы.wav" WAVE
  TRACK 10 AUDIO
    TITLE "Волкодавы"
    PERFORMER "Slim & Konstantah"
    INDEX 01 00:00:00
FILE "11_Маршрут Нашего Звука.wav" WAVE
  TRACK 11 AUDIO
    TITLE "Маршрут Нашего Звука"
    PERFORMER "Slim & Konstantah"
    INDEX 01 00:00:00
FILE "12_Так Легко (Feat. Rkp-Uno).wav" WAVE
  TRACK 12 AUDIO
    TITLE "Так Легко (Feat. Rkp-Uno)"
    PERFORMER "Slim & Konstantah"
    INDEX 01 00:00:00
FILE "13_В Чем Дело  (Feat. Смоки Мо).wav" WAVE
  TRACK 13 AUDIO
    TITLE "В Чем Дело? (Feat. Смоки Мо)"
    PERFORMER "Slim & Konstantah"
    INDEX 01 00:00:00
FILE "14_Демоны (RMJ RMX).wav" WAVE
  TRACK 14 AUDIO
    TITLE "Демоны (RMJ RMX)"
    PERFORMER "Slim & Konstantah"
    INDEX 01 00:00:00
FILE "15_Бег (Версия 2011).wav" WAVE
  TRACK 15 AUDIO
    TITLE "Бег (Версия 2011)"
    PERFORMER "Slim & Konstantah"
    INDEX 01 00:00:00
FILE "16_Аутро.wav" WAVE
  TRACK 16 AUDIO
    TITLE "Аутро"
    PERFORMER "Slim & Konstantah"
    INDEX 01 00:00:00

Код:

AUDIOCHECKER v2.0 beta (build 457) - by Dester - opdester@freemail.hu
~~~~~~~~~~~~~~~~~~~~~~~~~~~~~~~~~~
-=== НЕ РЕДАКТИРУЙТЕ ЭТОТ ФАЙЛ! ===-

Путь: ...\Slim & Konstantah - Азимут (2011)

01 -=- 01_Интро.flac -=- CDDA (100%)
02 -=- 02_Под Пальмами.flac -=- CDDA (99%)
03 -=- 03_Пасмурно.flac -=- MPEG (95%)
04 -=- 04_Вес.flac -=- CDDA (99%)
05 -=- 05_Азимут.flac -=- CDDA (100%)
06 -=- 06_Королева (Feat. Скин).flac -=- CDDA (100%)
07 -=- 07_Зимние Мысли (Feat. Menace Society, Костя Бес).flac -=- CDDA (100%)
08 -=- 08_Старое Доброе.flac -=- MPEG (95%)
09 -=- 09_Сахарок (Feat. Банума).flac -=- CDDA (100%)
10 -=- 10_Волкодавы.flac -=- CDDA (100%)
11 -=- 11_Маршрут Нашего Звука.flac -=- MPEG (95%)
12 -=- 12_Так Легко (Feat. Rkp-Uno).flac -=- CDDA (100%)
13 -=- 13_В Чем Дело  (Feat. Смоки Мо).flac -=- MPEG (95%)
14 -=- 14_Демоны (RMJ RMX).flac -=- CDDA (100%)
15 -=- 15_Бег (Версия 2011).flac -=- CDDA (100%)
16 -=- 16_Аутро.flac -=- CDDA (100%)

Сводка 76,13% CDDA

207788756

Внутри Лежат Сканы Обложек
info [Профиль]  [ЛС] 

Raa

Пол: Пол:Муж

Стаж: 7 лет 11 месяцев

Сообщений: 1099

Рейтинг

post 05-Ноя-2011 03:44 (спустя 3 часа) [-]0[+]

[Цитировать] 

999iit666
Лог и куе в тэге

Код:

[code][/code]
или

Код:

[pre][/pre]
info [Профиль]  [ЛС] 
Показать сообщения:    
Ответить на тему

Текущее время: 20-Фев 13:27

Часовой пояс: GMT + 4



Вы не можете начинать темы
Вы не можете отвечать на сообщения
Вы не можете редактировать свои сообщения
Вы не можете удалять свои сообщения
Вы не можете голосовать в опросах
Вы не можете прикреплять файлы к сообщениям
Вы не можете скачивать файлы