Ошибка

(Underground Rap) Ю.Г. (Южные Головорезы / ЮГ) - Дешево и Сердито (переиздание) - 2005, APE (image+.cue), lossless

Ответить на тему
 
Автор Сообщение

PlusOne

Пол: Пол:Муж

Стаж: 9 лет 1 месяц

Сообщений: 175

Ямайка
Рейтинг

post 17-Авг-2011 17:34 0[+]

[Цитировать] 

pic="http://i25.fastpic.ru/big/2011/0817/09/b012225acdd417687ffcda3c0c85eb09.jpg"
Ю.Г. (Южные Головорезы / ЮГ) - Дешево и Сердито (переиздание)

Жанр: Underground Rap
Год издания данного носителя: 2005
Страна-производитель носителя: Россия
Лейбл: Respect Production
Каталоговый номер: RPCD032
Тип релиза: image+.cue
Аудио кодек: APE
Битрейт аудио: lossless
Продолжительность: 54:29

Треклист:
01. Из Нагатино (интро)
02. Так Как Есть
03. Когда Мы Были Молодые (участвует Маэстро Эйсид)
04. Посвящается Всем (участвует Sir-J)
05. Нули И Единицы (участвует Д-Бош)
06. Жизнь Проходит Зря?
07. Новый Раунд
08. Ода Уходящего Года (участвует Sir-J и Рабы Лампы)
09. Поколение
10. Между Двух Океанов (участвуют Nonamerz)
11. Еще Дешевле И Еще Сердитее
12. Еще Один День Часть 2 (участвуют Мандр и Nonamerz)
13. В Метрополитене (ЮГ-бонус-2005)
14. Последнее Слово (участвуют Рива и DJedi Хобот)

Код:

Exact Audio Copy V0.99 prebeta 4 from 23. January 2008

Отчёт EAC об извлечении, выполненном 25. января 2009, 23:12

ЮГ / Дешево И Сердито

Дисковод: TEAC    CD-W540E   Adapter: 1  ID: 0

Режим чтения                 : Достоверность
Использование точного потока : Да
Отключение кэша аудио        : Да
Использование указателей C2  : Нет

Коррекция смещения при чтении                     : 686
Способность читать области Lead-in и Lead-out     : Нет
Заполнение пропущенных сэмплов тишиной            : Да
Удаление блоков с тишиной в начале и конце        : Нет
При вычислениях CRC использовались нулевые сэмплы : Да
Интерфейс                                         : Установленный внешний ASPI-интерфейс

Выходной формат : Внутренние WAV-операции
Формат сэмплов  : 44.100 Гц; 16 бит; стерео

TOC извлечённого CD

     Трек |   Старт  | Длительность | Начальный сектор | Конечный сектор
    ---------------------------------------------------------------------
       1  |  0:00.00 |    0:16.15   |           0      |       1214     
       2  |  0:16.15 |    3:27.23   |        1215      |      16762     
       3  |  3:43.38 |    3:26.45   |       16763      |      32257     
       4  |  7:10.08 |    4:26.46   |       32258      |      52253     
       5  | 11:36.54 |    4:14.48   |       52254      |      71351     
       6  | 15:51.27 |    3:15.60   |       71352      |      86036     
       7  | 19:07.12 |    3:56.62   |       86037      |     103798     
       8  | 23:03.74 |    4:45.40   |      103799      |     125213     
       9  | 27:49.39 |    4:29.34   |      125214      |     145422     
      10  | 32:18.73 |    4:18.18   |      145423      |     164790     
      11  | 36:37.16 |    3:56.07   |      164791      |     182497     
      12  | 40:33.23 |    4:26.63   |      182498      |     202510     
      13  | 45:00.11 |    3:43.41   |      202511      |     219276     
      14  | 48:43.52 |    5:46.11   |      219277      |     245237     

Характеристики диапазона извлечения и сообщения об ошибках

Выбранный диапазон

     Имя файла E:\Torrent\ЮГ - 2CD\Новая папка\ЮГ - Дешево И Сердито.wav

     Пиковый уровень 100.0 %
     Качество диапазона 99.9 %
     CRC копии 34974D08
     Копирование... OK

Ошибок не произошло

Конец отчёта

Код:

REM GENRE Rap
REM DATE 2005
REM DISCID C20CC50E
REM COMMENT "ExactAudioCopy v0.99pb4"
PERFORMER "ЮГ"
TITLE "Дешево И Сердито"
FILE "ЮГ - Дешево И Сердито.wav" WAVE
  TRACK 01 AUDIO
    TITLE "Из Нагатино (интро)"
    PERFORMER "ЮГ"
    FLAGS DCP
    INDEX 01 00:00:00
  TRACK 02 AUDIO
    TITLE "Так Как Есть"
    PERFORMER "ЮГ"
    FLAGS DCP
    INDEX 01 00:16:15
  TRACK 03 AUDIO
    TITLE "Когда Мы Были Молодые (feat. Маэстро Эйсид)"
    PERFORMER "ЮГ"
    FLAGS DCP
    INDEX 01 03:43:38
  TRACK 04 AUDIO
    TITLE "Посвящается Всем (feat. Sir-J)"
    PERFORMER "ЮГ"
    FLAGS DCP
    INDEX 01 07:10:08
  TRACK 05 AUDIO
    TITLE "Нули И Единициы (feat. Д-Бош)"
    PERFORMER "ЮГ"
    FLAGS DCP
    INDEX 01 11:36:54
  TRACK 06 AUDIO
    TITLE "Жизнь Проходят Зря!?"
    PERFORMER "ЮГ"
    FLAGS DCP
    INDEX 01 15:51:27
  TRACK 07 AUDIO
    TITLE "Новый Раунд"
    PERFORMER "ЮГ"
    FLAGS DCP
    INDEX 01 19:07:12
  TRACK 08 AUDIO
    TITLE "Ода Уходящего Года (feat. Sir-J и Рабы Лампы)"
    PERFORMER "ЮГ"
    FLAGS DCP
    INDEX 01 23:03:74
  TRACK 09 AUDIO
    TITLE "Поколение"
    PERFORMER "ЮГ"
    FLAGS DCP
    INDEX 01 27:49:39
  TRACK 10 AUDIO
    TITLE "Между Двух Океанов (feat. Nonamerz)"
    PERFORMER "ЮГ"
    FLAGS DCP
    INDEX 01 32:18:73
  TRACK 11 AUDIO
    TITLE "Ещё Дешевле И Ёще Сердитее"
    PERFORMER "ЮГ"
    FLAGS DCP
    INDEX 01 36:37:16
  TRACK 12 AUDIO
    TITLE "Ещё Один День Часть 2 (feat. Мандр и Nonamerz)"
    PERFORMER "ЮГ"
    FLAGS DCP
    INDEX 01 40:33:23
  TRACK 13 AUDIO
    TITLE "В Метрополитене (Юг-бонус 2005)"
    PERFORMER "ЮГ"
    FLAGS DCP
    INDEX 01 45:00:11
  TRACK 14 AUDIO
    TITLE "Последнее Слово (feat. Рива и DJedi Хобот)"
    PERFORMER "ЮГ"
    FLAGS DCP
    INDEX 01 48:43:52
info [Профиль]  [ЛС] 
Показать сообщения:    
Ответить на тему

Текущее время: 17-Ноя 03:25

Часовой пояс: GMT + 4



Вы не можете начинать темы
Вы не можете отвечать на сообщения
Вы не можете редактировать свои сообщения
Вы не можете удалять свои сообщения
Вы не можете голосовать в опросах
Вы не можете прикреплять файлы к сообщениям
Вы не можете скачивать файлы