Ошибка

До окончания фрилича осталось:


(Underground Rap) Ю.Г. (Южные Головорезы / ЮГ) - Пока никто не умер - 2004, APE (image+.cue), lossless

Ответить на тему
 
Автор Сообщение

PlusOne

Пол: Пол:Муж

Стаж: 8 лет 4 месяца

Сообщений: 175

Ямайка
Рейтинг

post 17-Авг-2011 17:18 0[+]

[Цитировать] 

pic="http://i25.fastpic.ru/big/2011/0817/4b/ae8f28347769991cb4a1e0af83203c4b.jpg"
Ю.Г. (Южные Головорезы / ЮГ) - Пока никто не умер

Жанр: Underground Rap
Год издания данного носителя: 2004
Страна-производитель носителя: Россия
Лейбл: Respect Production
Каталоговый номер: RPCD013
Тип релиза: image+.cue
Аудио кодек: APE
Битрейт аудио: lossless
Продолжительность: 68:01

Треклист:
01. Начало
02. Стали Старше
03. Бьётся Сердце
04. Глядя вверх. (feat. Рива)
05. Одно и то же. (feat. Эл Соло)
06. Жёлтая рубашечка. (Interlude)
07. Гастрольная. (feat. Каста и Змей из Граней)
08. Родителям. (Full Version)
09. Культуре посвящаю. (feat. Карандаш)
10. Игры патриотов
11. Вышеназванные. (Interlude)
12. Мутно
13. Сделай вдох. (feat. Рива)
14. Картинки. (99 тактов)
15. Пушка. (Interlude)
16. Три хороших девочки
17. Пока никто не умер
18. Зеркала
19. Отбивная II. (feat. Сир Джей)
20. Холоднокровные
21. Остаюсь таким же

Код:

Exact Audio Copy V0.99 prebeta 4 from 23. January 2008

EAC extraction logfile from 4. January 2009, 20:50

ЮГ / Пока никто не умер

Used drive  : TEAC    CD-W540E   Adapter: 1  ID: 0

Read mode               : Secure
Utilize accurate stream : Yes
Defeat audio cache      : Yes
Make use of C2 pointers : No

Read offset correction                      : 686
Overread into Lead-In and Lead-Out          : No
Fill up missing offset samples with silence : Yes
Delete leading and trailing silent blocks   : No
Null samples used in CRC calculations       : Yes
Used interface                              : Installed external ASPI interface

Used output format : Internal WAV Routines
Sample format      : 44.100 Hz; 16 Bit; Stereo

TOC of the extracted CD

     Track |   Start  |  Length  | Start sector | End sector
    ---------------------------------------------------------
        1  |  0:00.00 |  0:20.37 |         0    |     1536   
        2  |  0:20.37 |  4:11.02 |      1537    |    20363   
        3  |  4:31.39 |  3:14.57 |     20364    |    34970   
        4  |  7:46.21 |  3:54.61 |     34971    |    52581   
        5  | 11:41.07 |  5:05.52 |     52582    |    75508   
        6  | 16:46.59 |  1:13.38 |     75509    |    81021   
        7  | 18:00.22 |  4:05.55 |     81022    |    99451   
        8  | 22:06.02 |  3:59.59 |     99452    |   117435   
        9  | 26:05.61 |  4:05.24 |    117436    |   135834   
       10  | 30:11.10 |  3:34.64 |    135835    |   151948   
       11  | 33:45.74 |  0:27.53 |    151949    |   154026   
       12  | 34:13.52 |  3:44.44 |    154027    |   170870   
       13  | 37:58.21 |  4:16.57 |    170871    |   190127   
       14  | 42:15.03 |  4:14.61 |    190128    |   209238   
       15  | 46:29.64 |  2:18.05 |    209239    |   219593   
       16  | 48:47.69 |  2:37.57 |    219594    |   231425   
       17  | 51:25.51 |  3:51.21 |    231426    |   248771   
       18  | 55:16.72 |  3:02.12 |    248772    |   262433   
       19  | 58:19.09 |  2:28.73 |    262434    |   273606   
       20  | 60:48.07 |  3:30.14 |    273607    |   289370   
       21  | 64:18.21 |  3:42.58 |    289371    |   306078   

Range status and errors

Selected range

     Filename E:\Torrent\ЮГ - 2CD\ЮГ -2004- Пока никто не умер\ЮГ - Пока никто не умер.wav

     Peak level 97.9 %
     Range quality 99.9 %
     Copy CRC DB2126D9
     Copy OK

No errors occurred

End of status report

Код:

REM GENRE Rap
REM DATE 2004
REM DISCID 170FF115
REM COMMENT "ExactAudioCopy v0.99pb4"
PERFORMER "ЮГ"
TITLE "Пока никто не умер"
FILE "ЮГ - Пока никто не умер.wav" WAVE
  TRACK 01 AUDIO
    TITLE "Начало"
    PERFORMER "ЮГ"
    FLAGS DCP
    INDEX 01 00:00:00
  TRACK 02 AUDIO
    TITLE "Стали старше"
    PERFORMER "ЮГ"
    FLAGS DCP
    INDEX 01 00:20:37
  TRACK 03 AUDIO
    TITLE "Бьётся сердце"
    PERFORMER "ЮГ"
    FLAGS DCP
    INDEX 01 04:31:39
  TRACK 04 AUDIO
    TITLE "Глядя вверх (участвует Рива)"
    PERFORMER "ЮГ"
    FLAGS DCP
    INDEX 01 07:46:21
  TRACK 05 AUDIO
    TITLE "Одно и тоже (участвует Эл Соло)"
    PERFORMER "ЮГ"
    FLAGS DCP
    INDEX 01 11:41:07
  TRACK 06 AUDIO
    TITLE "Желтая рубашечка (интерлюдия)"
    PERFORMER "ЮГ"
    FLAGS DCP
    INDEX 01 16:46:59
  TRACK 07 AUDIO
    TITLE "Гастрольная (участвуют Каста, Змей)"
    PERFORMER "ЮГ"
    FLAGS DCP
    INDEX 01 18:00:22
  TRACK 08 AUDIO
    TITLE "Родителям (полная версия)"
    PERFORMER "ЮГ"
    FLAGS DCP
    INDEX 01 22:06:02
  TRACK 09 AUDIO
    TITLE "Культуре посвящаю (участвует Карандаш)"
    PERFORMER "ЮГ"
    FLAGS DCP
    INDEX 01 26:05:61
  TRACK 10 AUDIO
    TITLE "Игры патриотов"
    PERFORMER "ЮГ"
    FLAGS DCP
    INDEX 01 30:11:10
  TRACK 11 AUDIO
    TITLE "Вышеназванные (интерлюдия)"
    PERFORMER "ЮГ"
    FLAGS DCP
    INDEX 01 33:45:74
  TRACK 12 AUDIO
    TITLE "Мутно"
    PERFORMER "ЮГ"
    FLAGS DCP
    INDEX 01 34:13:52
  TRACK 13 AUDIO
    TITLE "Сделай вдох (участвует Рива)"
    PERFORMER "ЮГ"
    FLAGS DCP
    INDEX 01 37:58:21
  TRACK 14 AUDIO
    TITLE "Картинки (99 тактов)"
    PERFORMER "ЮГ"
    FLAGS DCP
    INDEX 01 42:15:03
  TRACK 15 AUDIO
    TITLE "Пушка (интерлюдия)"
    PERFORMER "ЮГ"
    FLAGS DCP
    INDEX 01 46:29:64
  TRACK 16 AUDIO
    TITLE "Три хороших девочки"
    PERFORMER "ЮГ"
    FLAGS DCP
    INDEX 01 48:47:69
  TRACK 17 AUDIO
    TITLE "Пока никто не умер"
    PERFORMER "ЮГ"
    FLAGS DCP
    INDEX 01 51:25:51
  TRACK 18 AUDIO
    TITLE "Зеркала"
    PERFORMER "ЮГ"
    FLAGS DCP
    INDEX 01 55:16:72
  TRACK 19 AUDIO
    TITLE "Отбивная 2 (участвует Сир Джей)"
    PERFORMER "ЮГ"
    FLAGS DCP
    INDEX 01 58:19:09
  TRACK 20 AUDIO
    TITLE "Холоднокровные"
    PERFORMER "ЮГ"
    FLAGS DCP
    INDEX 01 60:48:07
  TRACK 21 AUDIO
    TITLE "Остаюсь таким же"
    PERFORMER "ЮГ"
    FLAGS DCP
    INDEX 01 64:18:21
info [Профиль]  [ЛС] 
Показать сообщения:    
Ответить на тему

Текущее время: 24-Фев 00:00

Часовой пояс: GMT + 4



Вы не можете начинать темы
Вы не можете отвечать на сообщения
Вы не можете редактировать свои сообщения
Вы не можете удалять свои сообщения
Вы не можете голосовать в опросах
Вы не можете прикреплять файлы к сообщениям
Вы не можете скачивать файлы