Ошибка

(Hip-Hop) K.I.Z. - Hahnenkampf (ReRelease) - 2008, FLAC (tracks+.cue), lossless

Ответить на тему
 
Автор Сообщение

bit-bul

Пол: Пол:Муж

Стаж: 12 лет

Сообщений: 213

Ямайка
Рейтинг

post 25-Фев-2012 23:49 0[+]

[Цитировать] 

K.I.Z. - Hahnenkampf (ReRelease)

pic="http://i30.fastpic.ru/big/2012/0225/a7/911a70c1f80273843d05b70e31098ba7.jpeg"

Жанр: Hip-Hop
Год издания данного носителя: 2008
Страна-производитель носителя: Deutch
Лейбл: Vertigo Berlin (Universal)
Каталоговый номер: B0018NVL4M
Аудио кодек: FLAC
Тип рипа: tracks+.cue
Битрейт аудио: lossless
Продолжительность: 01:16:45
Источник (релизер): What.cd
Полиграфия: Отсутствует

Треклист:
1. Geld essen (Ausgestopfte Rapper)
2. Klassenfahrt
3. Spasst
4. Böhses Mädchen
5. Hahnenkampf
6. Lass uns feiern
7. 11. Plage
8. Whirlpool
9. Wenn es brennt
10. Pauch It
11. Der Schöne und das Biest
12. Walpurgisnacht
13. Schwarz, Rot, Geld
14. Ellenbogengesellschaft (Pogen)
15. Herbstzeitblätter
16. Seekuh
17. Neuruppin
18. Der durch die Tür Geher
19. Klassenfahrt
20. Hölle

Exact Audio Copy V0.99 prebeta 5 from 4. May 2009 

EAC extraction logfile from 14. August 2009, 17:07

K.I.Z. / Hahnenkampf (ReRelease)

Used drive : HL-DT-STDVDRAM GSA-H10N Adapter: 4 ID: 1

Read mode : Secure
Utilize accurate stream : Yes
Defeat audio cache : Yes
Make use of C2 pointers : No

Read offset correction : 667
Overread into Lead-In and Lead-Out : No
Fill up missing offset samples with silence : Yes
Delete leading and trailing silent blocks : No
Null samples used in CRC calculations : Yes
Used interface : Installed external ASPI interface
Gap handling : Appended to previous track

Used output format : User Defined Encoder
Selected bitrate : 1024 kBit/s
Quality : High
Add ID3 tag : No
Command line compressor : D:ProgrammeExact Audio CopyFlacflac.exe
Additional command line options : -V -8 -T "artist=%a" -T "title=%t" -T "album=%g" -T "date=%y" -T "tracknumber=%n" -T "genre=%m" %s

TOC of the extracted CD

Track | Start | Length | Start sector | End sector
---------------------------------------------------------
1 | 0:00.00 | 4:20.27 | 0 | 19526
2 | 4:20.27 | 3:08.69 | 19527 | 33695
3 | 7:29.21 | 4:00.30 | 33696 | 51725
4 | 11:29.51 | 3:27.20 | 51726 | 67270
5 | 14:56.71 | 3:53.22 | 67271 | 84767
6 | 18:50.18 | 3:14.05 | 84768 | 99322
7 | 22:04.23 | 4:11.40 | 99323 | 118187
8 | 26:15.63 | 1:20.23 | 118188 | 124210
9 | 27:36.11 | 3:52.23 | 124211 | 141633
10 | 31:28.34 | 5:02.17 | 141634 | 164300
11 | 36:30.51 | 3:52.31 | 164301 | 181731
12 | 40:23.07 | 5:01.13 | 181732 | 204319
13 | 45:24.20 | 3:16.62 | 204320 | 219081
14 | 48:41.07 | 3:41.64 | 219082 | 235720
15 | 52:22.71 | 3:58.34 | 235721 | 253604
16 | 56:21.30 | 3:45.39 | 253605 | 270518
17 | 60:06.69 | 5:23.19 | 270519 | 294762
18 | 65:30.13 | 4:04.64 | 294763 | 313126
19 | 69:35.02 | 3:08.74 | 313127 | 327300
20 | 72:44.01 | 4:01.54 | 327301 | 345429

Track 1

Filename H:temp EACK.I.Z. - 2008 - Hahnenkampf (ReRelease)�1 - K.I.Z. - Geld essen (Ausgestopfte Rapper).wav

Pre-gap length 0:00:02.00

Peak level 99.9 %
Track quality 100.0 %
Test CRC 3E6BFFB4
Copy CRC 3E6BFFB4
Track not present in AccurateRip database
Copy OK

Track 2

Filename H:temp EACK.I.Z. - 2008 - Hahnenkampf (ReRelease)�2 - K.I.Z. - Klassenfahrt.wav

Pre-gap length 0:00:00.33

Peak level 95.4 %
Track quality 99.9 %
Test CRC 0650D9B3
Copy CRC 0650D9B3
Track not present in AccurateRip database
Copy OK

Track 3

Filename H:temp EACK.I.Z. - 2008 - Hahnenkampf (ReRelease)�3 - K.I.Z. - Spasst.wav

Peak level 78.4 %
Track quality 99.9 %
Test CRC 09F369C0
Copy CRC 09F369C0
Track not present in AccurateRip database
Copy OK

Track 4

Filename H:temp EACK.I.Z. - 2008 - Hahnenkampf (ReRelease)�4 - K.I.Z. - Bцhses Maedchen feat. Massimo.wav

Pre-gap length 0:00:00.02

Peak level 99.9 %
Track quality 100.0 %
Test CRC FD4E0CF8
Copy CRC FD4E0CF8
Track not present in AccurateRip database
Copy OK

Track 5

Filename H:temp EACK.I.Z. - 2008 - Hahnenkampf (ReRelease)�5 - K.I.Z. - Hahnenkampf.wav

Peak level 99.9 %
Track quality 100.0 %
Test CRC 1DFF4072
Copy CRC 1DFF4072
Track not present in AccurateRip database
Copy OK

Track 6

Filename H:temp EACK.I.Z. - 2008 - Hahnenkampf (ReRelease)�6 - K.I.Z. - Lass uns feiern - RMX feat. Aret.wav

Peak level 90.0 %
Track quality 100.0 %
Test CRC E5891C0B
Copy CRC E5891C0B
Track not present in AccurateRip database
Copy OK

Track 7

Filename H:temp EACK.I.Z. - 2008 - Hahnenkampf (ReRelease)�7 - K.I.Z. - 11. Plage.wav

Peak level 99.9 %
Track quality 100.0 %
Test CRC B60015F3
Copy CRC B60015F3
Track not present in AccurateRip database
Copy OK

Track 8

Filename H:temp EACK.I.Z. - 2008 - Hahnenkampf (ReRelease)�8 - K.I.Z. - Whirlpool - Skit.wav

Pre-gap length 0:00:00.14

Peak level 35.0 %
Track quality 100.0 %
Test CRC 6C120854
Copy CRC 6C120854
Track not present in AccurateRip database
Copy OK

Track 9

Filename H:temp EACK.I.Z. - 2008 - Hahnenkampf (ReRelease)�9 - K.I.Z. - Wenn es brennt.wav

Pre-gap length 0:00:00.14

Peak level 94.3 %
Track quality 100.0 %
Test CRC BACB17F3
Copy CRC BACB17F3
Track not present in AccurateRip database
Copy OK

Track 10

Filename H:temp EACK.I.Z. - 2008 - Hahnenkampf (ReRelease)10 - K.I.Z. - Pauch It feat. Massimo.wav

Pre-gap length 0:00:00.16

Peak level 99.9 %
Track quality 100.0 %
Test CRC 70278219
Copy CRC 70278219
Track not present in AccurateRip database
Copy OK

Track 11

Filename H:temp EACK.I.Z. - 2008 - Hahnenkampf (ReRelease)11 - K.I.Z. - Der Schцne und das Biest.wav

Peak level 99.9 %
Track quality 99.9 %
Test CRC E79BBFB6
Copy CRC E79BBFB6
Track not present in AccurateRip database
Copy OK

Track 12

Filename H:temp EACK.I.Z. - 2008 - Hahnenkampf (ReRelease)12 - K.I.Z. - Walpurgisnacht.wav

Peak level 99.9 %
Track quality 99.9 %
Test CRC 78CA1B17
Copy CRC 78CA1B17
Track not present in AccurateRip database
Copy OK

Track 13

Filename H:temp EACK.I.Z. - 2008 - Hahnenkampf (ReRelease)13 - K.I.Z. - Schwarz, Rot, Geld feat. MC Motherfucker.wav

Pre-gap length 0:00:00.18

Peak level 86.2 %
Track quality 100.0 %
Test CRC 7AD6FF03
Copy CRC 7AD6FF03
Track not present in AccurateRip database
Copy OK

Track 14

Filename H:temp EACK.I.Z. - 2008 - Hahnenkampf (ReRelease)14 - K.I.Z. - Ellenbogengesellschaft (Pogen).wav

Pre-gap length 0:00:00.28

Peak level 99.9 %
Track quality 100.0 %
Test CRC 6A173405
Copy CRC 6A173405
Track not present in AccurateRip database
Copy OK

Track 15

Filename H:temp EACK.I.Z. - 2008 - Hahnenkampf (ReRelease)15 - K.I.Z. - Herbstzeitblдtter.wav

Peak level 86.0 %
Track quality 100.0 %
Test CRC D88AD8A9
Copy CRC D88AD8A9
Track not present in AccurateRip database
Copy OK

Track 16

Filename H:temp EACK.I.Z. - 2008 - Hahnenkampf (ReRelease)16 - K.I.Z. - Seekuh.wav

Peak level 99.9 %
Track quality 100.0 %
Test CRC 1CCF184F
Copy CRC 1CCF184F
Track not present in AccurateRip database
Copy OK

Track 17

Filename H:temp EACK.I.Z. - 2008 - Hahnenkampf (ReRelease)17 - K.I.Z. - Neuruppin feat. Kuba, Cannibal Rob.wav

Peak level 99.9 %
Track quality 100.0 %
Test CRC 2C6C83F8
Copy CRC 2C6C83F8
Track not present in AccurateRip database
Copy OK

Track 18

Filename H:temp EACK.I.Z. - 2008 - Hahnenkampf (ReRelease)18 - K.I.Z. - Der durch die Tьr Geher.wav

Pre-gap length 0:00:00.16

Peak level 94.3 %
Track quality 100.0 %
Test CRC 99BE27B3
Copy CRC 99BE27B3
Track not present in AccurateRip database
Copy OK

Track 19

Filename H:temp EACK.I.Z. - 2008 - Hahnenkampf (ReRelease)19 - K.I.Z. - Klassenfahrt - Flashgordon Remix.wav

Pre-gap length 0:00:00.36

Peak level 99.8 %
Track quality 100.0 %
Test CRC 8EF6DBBD
Copy CRC 8EF6DBBD
Track not present in AccurateRip database
Copy OK

Track 20

Filename H:temp EACK.I.Z. - 2008 - Hahnenkampf (ReRelease)20 - K.I.Z. - Hцlle feat. Bela B..wav

Pre-gap length 0:00:00.22

Peak level 83.0 %
Track quality 100.0 %
Test CRC 50DB7D4F
Copy CRC 50DB7D4F
Track not present in AccurateRip database
Copy OK

None of the tracks are present in the AccurateRip database

No errors occurred

End of status report
REM GENRE Hip-Hop 
REM DATE 2008
REM DISCID 2E11FD14
REM COMMENT "ExactAudioCopy v0.99pb5"
FILE "2008.wav" WAVE
TRACK 01 AUDIO
TITLE "Unknown Title"
PERFORMER "Unknown Performer"
INDEX 01 00:00:00
TRACK 02 AUDIO
TITLE "Unknown Title"
PERFORMER "Unknown Performer"
INDEX 00 04:20:02
FILE "2008.wav" WAVE
INDEX 01 00:00:00
FILE "2008.wav" WAVE
TRACK 03 AUDIO
TITLE "Unknown Title"
PERFORMER "Unknown Performer"
INDEX 01 00:00:00
TRACK 04 AUDIO
TITLE "Unknown Title"
PERFORMER "Unknown Performer"
INDEX 00 04:00:28
FILE "2008.wav" WAVE
INDEX 01 00:00:00
FILE "2008.wav" WAVE
TRACK 05 AUDIO
TITLE "Unknown Title"
PERFORMER "Unknown Performer"
INDEX 01 00:00:00
FILE "2008.wav" WAVE
TRACK 06 AUDIO
TITLE "Unknown Title"
PERFORMER "Unknown Performer"
INDEX 01 00:00:00
FILE "2008.wav" WAVE
TRACK 07 AUDIO
TITLE "Unknown Title"
PERFORMER "Unknown Performer"
INDEX 01 00:00:00
TRACK 08 AUDIO
TITLE "Unknown Title"
PERFORMER "Unknown Performer"
INDEX 00 04:11:29
FILE "2008.wav" WAVE
INDEX 01 00:00:00
TRACK 09 AUDIO
TITLE "Unknown Title"
PERFORMER "Unknown Performer"
INDEX 00 01:20:12
FILE "2008.wav" WAVE
INDEX 01 00:00:00
TRACK 10 AUDIO
TITLE "Unknown Title"
PERFORMER "Unknown Performer"
INDEX 00 03:52:11
FILE "2008.wav" WAVE
INDEX 01 00:00:00
FILE "2008.wav" WAVE
TRACK 11 AUDIO
TITLE "Unknown Title"
PERFORMER "Unknown Performer"
INDEX 01 00:00:00
FILE "2008.wav" WAVE
TRACK 12 AUDIO
TITLE "Unknown Title"
PERFORMER "Unknown Performer"
INDEX 01 00:00:00
TRACK 13 AUDIO
TITLE "Unknown Title"
PERFORMER "Unknown Performer"
INDEX 00 05:00:74
FILE "2008.wav" WAVE
INDEX 01 00:00:00
TRACK 14 AUDIO
TITLE "Unknown Title"
PERFORMER "Unknown Performer"
INDEX 00 03:16:41
FILE "2008.wav" WAVE
INDEX 01 00:00:00
FILE "2008.wav" WAVE
TRACK 15 AUDIO
TITLE "Unknown Title"
PERFORMER "Unknown Performer"
INDEX 01 00:00:00
FILE "2008.wav" WAVE
TRACK 16 AUDIO
TITLE "Unknown Title"
PERFORMER "Unknown Performer"
INDEX 01 00:00:00
FILE "2008.wav" WAVE
TRACK 17 AUDIO
TITLE "Unknown Title"
PERFORMER "Unknown Performer"
INDEX 01 00:00:00
TRACK 18 AUDIO
TITLE "Unknown Title"
PERFORMER "Unknown Performer"
INDEX 00 05:23:07
FILE "2008.wav" WAVE
INDEX 01 00:00:00
TRACK 19 AUDIO
TITLE "Unknown Title"
PERFORMER "Unknown Performer"
INDEX 00 04:04:37
FILE "2008.wav" WAVE
INDEX 01 00:00:00
TRACK 20 AUDIO
TITLE "Unknown Title"
PERFORMER "Unknown Performer"
INDEX 00 03:08:57
FILE "2008.wav" WAVE
INDEX 01 00:00:00
info [Профиль]  [ЛС] 
Показать сообщения:    
Ответить на тему

Текущее время: 25-Май 02:25

Часовой пояс: GMT + 4



Вы не можете начинать темы
Вы не можете отвечать на сообщения
Вы не можете редактировать свои сообщения
Вы не можете удалять свои сообщения
Вы не можете голосовать в опросах
Вы не можете прикреплять файлы к сообщениям
Вы не можете скачивать файлы